#TITLE:Worlds Apart;
#SUBTITLE:Impact Mix;
#ARTIST:TAYA;
#TITLETRANSLIT:;
#SUBTITLETRANSLIT:;
#ARTISTTRANSLIT:;
#GENRE:;
#CREDIT:Telperion;
#BANNER:;
#BACKGROUND:;
#LYRICSPATH:;
#CDTITLE:;
#MUSIC:Worlds Apart (Impact Mix).mp3;
#OFFSET:-4.313;
#SAMPLESTART:43.842;
#SAMPLELENGTH:14.824;
#SELECTABLE:YES;
#DISPLAYBPM:170.000;
#BPMS:0.000=170.000;
#STOPS:2.000=0.353
,17.000=0.353
;
#BGCHANGES:;
#KEYSOUNDS:;

//---------------dance-single - Telperion----------------
#NOTES:
     dance-single:
     Telperion:
     Beginner:
     1:
     0.096,0.163,0.119,0.000,0.000:
0000
0000
0000
0000
,
0000
0000
0000
0000
,
0000
0000
0000
0000
,
0000
0000
0000
0000
,
0000
0000
0001
0000
,
0000
0000
0000
0000
,
0000
0000
1000
0000
,
0000
0000
0000
0000
,
0000
0000
0100
0000
,
0000
0000
0000
0000
,
0000
0000
0010
0000
,
0100
0000
0010
0000
,
0000
0000
0110
0000
,
0000
0000
0000
0000
,
0000
0000
1001
0000
,
0000
0000
0000
0000
,
0000
0000
1000
0000
,
0000
0000
0001
0000
,
0000
0000
0100
0000
,
0010
0000
0100
0000
,
0001
0000
1000
0000
,
0000
0000
0000
0000
,
0000
0000
1001
0000
,
0000
0000
0000
0000
,
0000
0000
0110
0000
,
0000
0000
0000
0000
,
0000
0000
0110
0000
,
0000
0000
0110
0000
,
0110
0000
0110
0000
,
0000
0000
0001
0000
,
0000
0000
0100
0000
,
0000
0000
1000
0000
,
0000
0000
0010
0000
,
0000
0000
1000
0000
,
0000
0000
0100
0000
,
0000
0000
0001
0000
,
0000
0000
1001
0000
,
0000
0000
1000
0000
,
0000
0000
0100
0000
,
0000
0000
0001
0000
,
0000
0000
0010
0000
,
0000
0000
0001
0000
,
0000
0000
0100
0000
,
0000
0000
1000
0000
,
0000
0000
1001
0000
,
0000
0000
0000
0000
,
0000
0000
0001
0000
,
0000
0000
1000
0000
,
0000
0000
0110
0000
,
0000
0000
0000
0000
,
0000
0000
0100
0000
,
0000
0000
1000
0000
,
0000
0000
0001
0000
,
0000
0000
0100
0000
,
0000
0000
1000
0000
,
0000
0000
0010
0000
,
0000
0000
1000
0000
,
0000
0000
0100
0000
,
0000
0000
0001
0000
,
0000
0000
0010
0000
,
0000
0000
0100
0000
;

//---------------dance-single - Medium----------------
#NOTES:
     dance-single:
     Medium:
     Hard:
     8:
     0.512,0.498,0.194,0.130,0.000:
0000
0000
0000
1000
,
0001
0100
0010
1000
,
0100
0001
0100
1000
,
0010
0100
1000
0100
,
0001
1000
1001
0001
,
0010
0100
0001
0100
,
0010
0001
1000
0010
,
0100
1000
0100
0020
,
1000
0001
1030
0100
,
1000
0001
0100
0000
0001
1000
0100
0000
,
1000
0010
0100
0000
0010
1000
0100
0010
,
0001
0100
0010
0100
0002
0000
0000
0000
,
1003
0100
0001
0100
1000
0000
1100
0000
,
0001
1000
0100
0000
0010
0000
0011
0000
,
0001
0100
0010
0000
1000
0000
0110
0000
,
0100
0001
1000
0000
0100
0000
0110
0000
,
0001
0100
1000
0000
0100
0000
0101
0000
,
0001
1100
1000
0011
,
0001
0000
1010
0000
1000
0100
0010
0000
,
0001
0010
0100
0000
1000
0001
0200
0000
,
0010
0000
0310
0010
,
1000
0010
0100
0010
1000
0000
1000
0000
,
0100
0010
0001
0100
0010
0000
0010
0000
,
0100
0010
1000
0100
0001
0000
0001
0000
,
0100
0000
0100
0000
1000
0000
0100
1000
,
0000
0001
0100
0001
0000
0010
0001
0010
,
0000
0100
1000
0100
0000
0010
0001
0100
,
0000
1000
0100
0002
2000
0000
0000
0000
,
0000
0000
3003
0000
1001
0000
1000
0100
,
0001
0000
0001
0100
0010
0000
0001
0100
,
1000
0000
1000
0100
0010
1000
0100
0000
,
0010
0100
1000
0001
0100
0010
0100
0000
,
0001
0010
0100
1000
0001
0010
0001
0000
,
1000
0001
0100
1000
,
0001
0010
0100
1000
,
0100
0010
1000
0100
,
0010
0000
0100
0000
1000
0100
0001
0000
,
0001
0100
0010
0000
0001
0100
1000
0000
,
1000
0100
0010
0000
1000
0100
1000
0000
,
0001
0100
0001
0100
0001
0000
0010
0000
,
1000
0100
0001
0010
,
0011
1000
1010
0100
,
1100
0100
0101
1100
,
0011
0101
0220
0300
,
1030
0010
0100
0001
0010
0000
0001
0000
,
0100
1000
0010
1000
,
0100
0010
0010
0000
1000
0000
0100
0000
,
0001
0010
0001
0100
,
0020
1000
0031
0100
,
1000
0000
0100
0000
0001
0010
0001
0000
,
1000
0010
0100
0000
1000
0000
0100
0000
,
0010
0100
0002
1000
,
0023
0000
1000
0000
0031
0100
1000
0000
,
1000
0100
0010
0000
1000
0100
0001
0000
,
0001
0100
0010
0000
0001
0100
0010
0100
,
1000
0100
0010
0000
1000
0100
0010
0100
,
0001
0100
0010
0001
0100
0010
0100
0000
,
1000
0100
0001
0000
0010
0100
0010
0000
,
0001
0100
1000
0000
0100
0010
1000
0100
,
0010
0001
0100
0010
1000
0000
0000
0000
,
0002
0000
2000
0000
,
0000
0000
3003
0000
;

//---------------dance-single - Easy----------------
#NOTES:
     dance-single:
     Easy:
     Medium:
     5:
     0.338,0.399,0.054,0.184,0.000:
0000
0000
0000
1001
,
0000
0000
0000
0000
,
0000
0000
0000
0000
,
0000
0000
0000
0000
,
0000
0000
1001
0000
,
1000
0100
0010
0000
,
0001
0100
0010
1000
,
0100
0001
0010
1000
,
0002
1000
2003
3100
,
0002
0103
0020
0130
,
0002
0103
1000
0010
,
0001
0100
1000
0000
,
0001
0001
1000
1000
,
0001
0100
1000
1000
,
0100
0001
0010
0010
,
0100
0100
1000
1000
,
0001
0000
0100
1000
,
0100
0001
0010
1000
,
0010
0001
1000
0010
,
0100
0010
0001
0010
,
2000
0000
3001
0001
,
0100
0100
1000
1000
,
0010
0000
0000
0000
0001
0000
0000
0100
,
0000
0020
0000
0000
,
0030
0010
1000
0100
,
1000
0100
0001
0100
,
0001
0100
0010
0001
,
0100
1000
0010
1000
,
0100
0001
1001
0000
,
0010
0100
0001
0010
,
0100
1000
0010
0100
,
0001
0100
1000
0010
,
0001
0100
0010
0000
,
1000
0100
0010
0001
,
0100
0010
0010
1000
,
0100
0010
0010
0000
,
0011
1010
0001
0010
,
0200
0000
0310
0001
,
0200
0000
1300
0100
,
0010
0001
0100
1000
,
0010
0100
0002
0000
,
2003
0000
3200
0000
,
0320
0000
0031
0100
,
0100
1000
0100
0001
,
0010
1000
0100
0000
,
0010
0100
0010
0000
,
1000
1000
0001
0000
,
0010
0100
0010
0001
,
2000
0000
3001
0000
,
0010
0100
0010
0000
,
0001
0001
1000
0010
,
0100
1000
0200
0000
,
0320
0000
0130
0100
,
0001
0001
1000
1000
,
0100
0001
0100
1000
,
0001
0100
1000
0010
,
0001
0100
1000
0100
,
0001
0000
0010
0100
,
1000
0000
0001
0100
,
0010
0100
0001
0010
,
1000
0100
0020
0000
,
0000
0000
0030
0000
;

//---------------dance-single - Telperion----------------
#NOTES:
     dance-single:
     Telperion:
     Easy:
     3:
     0.219,0.229,0.086,0.000,0.000:
0000
0000
0000
0000
,
0000
0000
0000
0000
,
0000
0000
0000
0000
,
0000
0000
0000
0000
,
0000
0000
1000
0000
,
0001
0000
0100
0000
,
1000
0000
0100
0000
,
0010
0000
1000
0000
,
0100
0000
1000
0000
,
0000
0000
0001
0000
,
0000
0000
1000
0001
,
1000
0001
1001
0000
,
0000
0000
0001
0100
,
0000
0100
0000
0100
,
0000
0100
1000
0100
,
0000
0100
0001
0000
,
1000
0000
0100
1000
,
0000
0100
0000
0100
,
0000
0100
0001
0100
,
0010
0100
1000
0000
,
0001
0000
1001
0000
,
0001
0000
0101
0000
,
0100
0000
0110
0000
,
0010
0000
1010
0000
,
1100
0000
0110
0010
,
0000
0010
0000
0001
,
0000
0001
0000
1000
,
0000
1000
0001
1000
,
0001
1000
0001
0000
,
0100
0100
0100
0000
,
0010
0010
0010
0000
,
1000
0000
0100
0000
,
0001
0000
0010
0000
,
1000
1000
1000
0000
,
0001
0001
0001
0000
,
0100
0000
1000
0000
,
0010
0000
0001
0000
,
1000
0001
1000
0000
,
0001
1000
0001
0000
,
0100
0000
1000
0000
,
0010
0000
0001
0000
,
0010
0000
1000
0000
,
0100
0000
0001
0000
,
1000
0000
0001
0000
,
0000
0000
1000
1000
,
1000
0000
0001
0001
,
0001
0000
0100
0100
,
0100
0000
0010
0010
,
0010
0000
1000
0000
,
0100
0000
0010
0000
,
1000
0000
0100
0000
,
0001
0000
0010
0000
,
0000
0000
0001
0001
,
0001
0000
1000
1000
,
1000
0000
0100
0100
,
0100
0000
0010
0000
,
0001
0000
0100
0010
,
0100
0000
0010
0100
,
0010
0000
1000
0001
,
1000
0001
1000
0000
,
0000
0000
1001
0000
;

//---------------dance-double - Telperion----------------
#NOTES:
     dance-double:
     Telperion:
     Hard:
     9:
     0.627,0.523,0.054,0.076,0.151:
00000000
00000000
00000000
01000000
,
10000000
00100000
00010000
00001000
,
00000100
00000010
00001000
00000100
,
00000010
00001000
00010000
01000000
,
00100000
00000000
01100000
00000000
10000000
01000000
00010000
00000000
,
01000000
00010000
00001000
00000000
00001000
00000100
00000001
00000000
,
00000100
00000001
00000010
00000000
00000001
00000010
00001000
00000000
,
00001000
00010000
00100000
01000000
00010000
00100000
01000000
10000000
,
02000000
00000000
00010000
00000000
13000000
01000000
00100000
00010000
,
10000000
01000000
00010000
00000000
00001000
00000100
00000010
00010000
,
00000100
00001000
00000010
00000000
00000100
00001000
00000100
00000001
,
00000010
00000100
00000010
00000001
00002000
00000000
00000000
00000000
,
00003001
00001000
00000001
00001000
00000100
00000010
00000001
00000000
,
00000001
00000010
00000100
00000000
00001000
00000010
00000100
00000000
,
00000100
00000010
00001000
00000000
00000100
00010000
00001000
00000000
,
00010000
00001000
01000000
00000000
00010000
01000000
00100000
00000000
,
10000000
01000000
00100000
01000000
00000000
10000000
00010000
01000000
,
00000000
01000000
00100000
00010000
00000000
00010000
00001000
00100000
,
00000000
00001000
00010000
00000010
00000000
00010000
00001000
00000100
,
00000000
00000100
00000010
00001000
00000000
00000100
00000010
00000001
,
00000100
00001000
00020000
00000000
00031000
00001000
00010000
00001000
,
00100000
01000000
10000000
00000000
00100000
00100000
01000000
00100000
,
10000000
01000000
00010000
00000000
00001000
00000100
00000010
00000000
,
00010000
00001000
00000010
00000000
00000001
00000100
00001000
00000000
,
00010000
01000000
10000000
00000000
00100000
01000000
00100000
10000000
,
01000000
00100000
01000000
00000000
00010000
00001000
00000100
00000010
,
00001000
00000100
00000001
00000000
00000001
00000100
00001000
00010000
,
00100000
01000000
00100000
00010000
01000000
00100000
00010000
00001000
,
00000100
00000000
00000010
00000000
00000110
00000000
00000000
00000000
00000100
00000000
00000000
00000100
00000001
00000000
00000010
00000000
,
00000100
00000000
00010000
00000000
01000000
00000000
10000000
00000000
00100000
00000000
00000000
00100000
10000000
00000000
01000000
00000000
,
00100000
00000000
00001000
00000000
00000010
00000000
00000001
00000000
00000100
00000000
00000000
00000100
00001000
00000000
00000100
00000000
,
00000010
00000000
00000100
00000000
00001000
00000000
00010000
00000000
00100000
00000000
00000000
00100000
01000000
00000000
00010000
00000000
,
00100000
00000000
00000000
00100000
01000000
00000000
10000000
00000000
00100000
00000000
00000000
00000000
00100000
00000000
01000000
00000000
,
10000000
01000000
00100000
00010000
00001000
00000000
00100000
01000000
,
00100000
00000000
00000000
00000000
00001000
00000000
00010000
00000000
00001000
00000000
00000000
00001000
00010000
00000000
01000000
00000000
,
00100000
00000000
00000000
00100000
00010000
00000000
01000000
00000000
00100000
00000000
10000000
00000000
01000000
00000000
00100000
00000000
,
00001000
00000000
00010000
00000000
00000010
00000000
00000100
00000000
00000001
00000000
00000000
00000001
00000010
00000000
00000100
00000000
,
00001000
00000000
00000100
00000000
00010000
00000000
01000000
00000000
10000000
00000000
00000000
10000000
00100000
00000000
01000000
00000000
,
00010000
00000000
01000000
00000000
00001000
00000000
00000100
00000000
00000010
00000000
00000000
00000010
00001000
00000000
00000100
00000000
,
00000001
00000000
00000000
00000001
00000100
00000000
00001000
00000000
00000010
00000000
00000000
00000000
00000100
00000000
00000000
00000000
,
00010000
00000000
00000010
00000000
00000001
00000010
00000001
00000010
,
00001000
00010000
00001000
00010000
01000000
10000000
01000000
10000000
,
00100000
10000000
00100000
01000000
00010000
10000000
01000000
00010000
,
00001000
00000010
00000100
00001000
00000002
00000000
00000000
00000000
,
00001003
00000000
00000000
00000000
00000001
00000000
00000000
00000000
00001001
00000000
00000000
00000001
00000100
00000000
00000000
00000100
,
00001000
00000000
00000000
00001000
00010000
00000000
00000000
00010000
00100000
00000000
00000000
00100000
01000000
00000000
00000000
01000000
,
10000000
00000000
01000000
00000000
00010000
00000000
00000000
00000000
10000000
00000000
00000000
10000000
01000000
00000000
00000000
01000000
,
00010000
00000000
00000000
00010000
00001000
00000000
00000000
00000010
00000001
00000000
00000000
00000001
00000100
00000000
00000010
00000000
,
00000100
00000000
00000000
00000000
00001010
00000000
00000000
00000000
00000101
00000000
00000000
00000001
00000100
00000000
00000010
00000000
,
00001000
00000000
00000000
00001000
00000100
00000000
00000010
00000000
00000100
00000000
00000000
00000100
00010000
00000000
00001000
00000000
,
00000100
00000000
00000000
00001000
00010000
00000000
01000000
00000000
10000000
00000000
00000000
01000000
00000000
00000000
00010000
00000000
,
00001000
00000000
00000000
01000000
00000000
00000000
00001000
00000000
00000200
00000000
00000000
00000000
00000320
00000000
00000000
00000000
,
00000130
00000000
00000000
00000000
00000001
00000100
00001000
00000100
,
00000010
00001000
00100000
00010000
00001000
00100000
01000000
00100000
,
00010000
10000000
01000000
00010000
00001000
00010000
00100000
01000000
,
00100000
10000000
01000000
00100000
01000000
00000000
00010000
00000000
,
00100000
00000000
10000000
00000000
01000000
10000000
00010000
01000000
,
10000000
01000000
00100000
01000000
00001000
00010000
00100000
00010000
,
00001000
00000100
00000010
00000100
00000001
00000010
00000100
00001000
,
00010000
00100000
01000000
10000000
00020000
00000000
00000000
00000000
,
00000000
00000000
00030000
00000000
;

//---------------dance-double - Telperion----------------
#NOTES:
     dance-double:
     Telperion:
     Medium:
     6:
     0.387,0.392,0.162,0.065,0.000:
00000000
00000000
00000000
10000000
,
01000000
00100000
00001000
00010000
,
00100000
01000000
00100000
00010000
,
00001000
00000100
00000010
00001000
,
00000001
00000010
00000011
00000001
,
00000010
00001000
00010000
01000000
,
00100000
01000000
10000000
00010000
,
10000000
01000000
00100000
00020000
,
00001000
00000000
00130000
01000000
,
10000000
01000000
00010000
00001000
,
00000010
00000100
00001000
00000001
,
00000100
00000020
00000100
00000000
,
00000130
00000010
00000100
00000010
00000100
00000000
00000010
00000000
,
00000000
00000100
00000010
00000000
00001000
00000000
00000100
00000000
,
00000000
00000010
00000100
00000000
00010000
00000000
01000000
00000000
,
00000000
00100000
01000000
00000000
10000000
00000000
00010000
00000000
,
00000000
01000000
10000000
01000000
00000000
00010000
10000000
00000000
,
00000000
10000000
01000000
00000000
00000000
01000000
00010000
00000000
,
00000000
00001000
00000100
00000000
00000000
00000001
00000010
00000000
,
00000000
00000010
00001000
00000000
00010000
00000000
00001000
00000000
,
00000100
00000010
00001000
00000001
,
00000001
00000100
00000001
00000000
00001000
00000000
00000100
00000000
,
00000100
00001000
00000100
00000000
00010000
00000000
00001000
00000000
,
00010000
00001000
00010000
00000000
00001000
00000000
01000000
00000000
,
00010000
01000000
00010000
00000000
10000000
01000000
10000000
00000000
,
01000000
00000000
00010000
00000000
00001000
00010000
00001000
00000000
,
00000100
00000001
00000010
00001000
,
00010000
01000000
10000000
00010000
,
00001000
00000001
00001001
00000000
,
00000001
00001000
00000010
00000100
,
00000010
00001000
00100000
00000000
,
01000000
00010000
00100000
00000000
,
01000000
00000000
00100000
01000000
00200000
00000000
00000000
00000000
,
00310000
01000000
00001000
00000000
,
00001000
00000100
00000001
00000000
,
00000010
00001000
00000100
00000000
,
00000001
00000000
00000010
00000010
,
00000001
00000001
00000100
00010000
,
01000000
00000000
00100000
01000000
,
00010000
00100000
10000000
01000000
,
00010000
00100000
10000000
00000000
,
00100000
00001000
00010000
00000000
,
00010000
00001000
00000010
00000000
,
00001000
00000010
00000002
00000000
,
00001003
00000001
00001001
00000100
,
00000110
00001000
00001100
00000001
,
00000100
00000000
00001000
00000000
00010000
00000000
00001000
00010000
,
00001000
00000000
00100000
00010000
00100000
00000000
01000000
00000000
,
10010000
00000000
01100000
00010000
,
01010000
00100000
00110000
00001000
,
00010000
00000000
00000100
00000000
00000010
00000000
00000100
00000010
,
00000100
00000000
00001000
00000100
00001000
00000000
00000001
00000000
,
00001000
00010000
01000000
00010000
,
10000000
00010000
00100000
01000000
,
00010000
00001000
00000100
00000010
,
00000100
00000001
00000010
00001000
,
00000100
00000001
00000010
00000000
,
00000011
00000000
00001100
00000000
,
00101000
00000000
01100000
10000000
,
01010000
00100000
20020000
00000000
,
00000000
00000000
30030000
00000000
;

//---------------dance-double - Telperion----------------
#NOTES:
     dance-double:
     Telperion:
     Easy:
     3:
     0.208,0.229,0.162,0.000,0.000:
00000000
00000000
00000000
10010000
,
00000000
00000000
00000000
00000000
,
00000000
00000000
00000000
00000000
,
00000000
00000000
00000000
00000000
,
00000000
00000000
10010000
00000000
,
00010000
00000000
10000000
00000000
,
00010000
00000000
10000000
00000000
,
00010000
00000000
10000000
01000000
,
00010000
00000000
00001000
00000000
,
00000100
00000000
00000001
00000000
,
00000010
00000000
00001000
00000000
,
00000100
00000000
00000001
00000000
,
00001000
00001000
00000001
00000000
,
00000100
00000001
00000100
00000000
,
00001000
00000100
00001000
00000000
,
00010000
00001000
00010000
00000000
,
01000000
10000000
00000000
01000000
,
00000000
00010000
00000000
00001000
,
00000000
00100000
00000000
01000000
,
00000000
10000000
00000000
00010000
,
10000000
00000000
10010000
00000000
,
00010000
00010000
10000000
00000000
,
10000000
10000000
01000000
00000000
,
00010000
00000000
00001000
00000000
,
00000100
00000000
00000010
00000000
,
00001000
00000000
00000100
00000000
,
00000001
00000000
00000010
00000000
,
00001000
00000000
00000001
00000000
,
00000000
00000000
00001001
00000000
,
00000001
00000100
00000001
00000000
,
00001000
00000100
00001000
00000000
,
00000001
00000000
00000100
00000000
,
00001000
00000000
00010000
00000000
,
00001000
00010000
00001000
00000000
,
00100000
00000000
01000000
00000000
,
00010000
00000000
00100000
00000000
,
10000000
00000000
01000000
00000000
,
10000000
01000000
10000000
00000000
,
00010000
01000000
00010000
00000000
,
00001000
00000000
00000010
00000000
,
00000001
00000000
00000100
00000000
,
00000010
00000000
00000001
00000000
,
00000100
00000000
00001000
00000000
,
00010000
00000000
00001000
00000000
,
00000000
00000000
00011000
00000000
,
00000000
00000000
00101000
00000000
,
00000000
00000000
00110000
00000000
,
00000000
00000000
01010000
00000000
,
00100000
10000000
01000000
00000000
,
00100000
00000000
01000000
00000000
,
00010000
00000000
00001000
00000000
,
00000100
00000000
00000001
00000000
,
00001000
00000000
00001001
00000000
,
00000000
00000000
00000011
00000000
,
00000000
00000000
00001100
00000000
,
00000000
00000000
00011000
00000000
,
00101000
00000000
00110000
00000000
,
01000000
00000000
10100000
00000000
,
10000000
00000000
01000000
00000000
,
00010000
00000000
00100000
00000000
,
10000000
00000000
00010000
00000000
;

//---------------dance-single - [another]----------------
#NOTES:
     dance-single:
     [another]:
     Edit:
     9:
     -1.000,-1.000,-1.000,-1.000,-1.000:
0000
0000
0000
0000
0000
0000
1001
1000
,
0100
0001
0100
1000
0001
0100
0010
0000
,
0100
0000
0010
0000
0100
0000
0001
1000
,
0100
0000
1000
0001
0100
0000
1000
0100
,
0001
0010
0110
0000
1001
0001
0100
1000
,
0100
0001
1000
0100
0010
0000
0100
0000
,
0010
0000
0100
0000
1000
0001
0100
0010
,
0100
0001
0010
1000
,
0200
0010
1300
0010
,
0001
0100
1000
1100
,
0001
0000
0101
0000
1000
0100
1000
0100
,
0001
0100
0010
0100
2000
0000
3000
0000
,
0001
1000
0001
1000
0001
1000
0001
1000
0001
0000
0100
0000
0010
0000
0000
0000
,
0010
1000
0100
0000
0010
0001
1000
0000
,
1000
0001
0010
0000
0100
1000
0010
0000
,
0010
0100
1000
0000
1000
0100
0001
0100
,
0000
0100
0001
1000
0000
0100
0010
0100
,
0000
1000
0010
1000
0000
0001
0010
0001
,
0000
0100
1000
0100
0000
0010
1000
0100
,
0000
0010
0001
0010
1000
0010
0100
1000
,
0002
0000
0000
0000
1003
0000
0000
0000
1001
0000
0000
0001
1000
0000
0000
1000
,
0100
0000
0000
0100
0010
0000
0000
0000
0110
0000
0001
0000
0100
0000
0000
0000
,
0100
0000
0010
0000
0100
0000
0000
0000
0001
0000
0000
0001
0010
0000
0000
0010
,
0100
0000
0000
0100
0001
0000
0000
0000
0100
0000
1000
0000
0001
0000
0100
0000
,
1000
0100
0001
0000
1000
0100
1000
0100
,
0010
0001
0010
0100
1000
0001
0100
0010
,
1000
0010
0100
0001
0010
0100
0110
0000
,
0100
1000
1001
0000
0220
0000
0000
0000
,
0330
0000
0000
0000
0110
0000
0000
0000
1001
0000
0000
0001
0010
0000
0100
0000
,
1000
0000
0000
1000
0010
0000
0100
0000
0001
0000
0000
0001
1000
0000
0100
0000
,
0001
0000
0000
0001
0100
0000
1000
0000
0001
0000
0000
0000
1000
0000
0000
0000
,
1100
0001
0101
0110
,
1100
0000
0011
0000
0001
0100
1000
0100
,
0001
0000
1000
0100
0001
0100
1000
0100
,
0001
0100
1000
0010
,
0001
0000
0100
0000
0010
0100
1000
0010
,
0001
0000
1000
0000
0100
0000
0010
0000
1000
0000
0000
1000
0100
0000
0010
0000
,
0001
0000
0000
0001
0100
0000
0010
0000
1000
0000
0000
1000
0100
0000
0001
0000
,
0010
0001
0100
1000
0001
1000
0010
1000
,
1000
0001
0010
0001
0100
0000
1000
0000
,
0010
0000
0000
0000
0100
0000
0000
0000
1000
0000
0100
0000
1000
0100
1000
0000
,
0001
0000
0100
0000
0001
0100
0001
0000
0010
0000
0100
0000
0010
0100
0010
0000
,
0100
0000
1000
0000
0001
1000
0001
0000
0100
0000
0010
0000
0001
0000
1000
0000
,
0100
0001
1000
0100
0020
0000
0032
0000
,
1003
0000
1001
0000
0001
0010
0100
1000
,
0100
0000
1100
0000
0001
0100
1000
0100
,
0010
0100
0001
0000
1000
0100
0001
0000
,
0101
0110
0011
0101
,
0120
0000
0001
0000
1030
0010
0100
0001
,
0010
0000
0011
0000
0100
1000
0001
0100
,
1000
0100
0001
0000
1000
0010
0100
0000
,
1100
0101
0010
1000
,
0100
0000
0000
0000
0001
0000
0000
0000
0010
0000
0001
0100
0000
0010
0100
0000
,
0001
0000
1000
0100
0000
0010
0100
0000
1000
0000
0001
0000
0100
0000
0010
0000
,
1000
0000
0001
0000
0100
0000
0000
0000
0010
0000
1000
0100
0000
0100
0010
0000
,
1000
0000
0010
0100
0000
0100
1000
0000
0010
0000
0000
0000
0001
0000
0000
0000
,
0100
0000
1000
0000
0001
0001
1000
0100
,
0001
0100
1000
0001
1000
1000
0010
0100
,
1000
0100
0010
1000
0001
0010
1000
0001
,
0100
1000
0001
1000
0020
0000
0000
0000
,
1030
0001
2002
0000
,
0000
0000
3003
0000
;
