#TITLE:キミが好きで;
#SUBTITLE:;
#ARTIST:Ryu☆ feat. Puchi;
#TITLETRANSLIT:We Like You;
#SUBTITLETRANSLIT:;
#ARTISTTRANSLIT:;
#CREDIT:348 with Timer Rabbit;
#BANNER:We Like You Banner.png;
#BACKGROUND:;
#LYRICSPATH:;
#CDTITLE:;
#MUSIC:We Like You.mp3;
#OFFSET:-1.010;
#SAMPLESTART:69.080;
#SAMPLELENGTH:15.000;
#SELECTABLE:YES;
#BPMS:0.000=160.000;
#STOPS:;
#BGCHANGES:;

//---------------dance-single - ----------------
#NOTES:
     dance-single:
     :
     Beginner:
     1:
     0.105,0.161,0.000,0.000,0.000:
0000
0000
0000
0000
,
0000
0000
0000
0000
,
0000
0000
0000
0000
,
0000
0000
0000
0000
,
1000
0000
1000
0000
,
1000
0000
0000
0000
,
0001
0000
0001
0000
,
0001
0000
0000
0000
,
0100
0000
0000
0000
,
0100
0000
0000
0000
,
0010
0000
0000
0000
,
0010
0000
0000
0000
,
0100
0000
0100
0000
,
0100
0000
0000
0000
,
0010
0000
0010
0000
,
0010
0000
0000
0000
,
1000
0000
0000
0000
,
0001
0000
0000
0000
,
0001
0000
0000
0000
,
0001
0000
0000
0000
,
1000
0000
0000
0000
,
1000
0000
0000
0000
,
0010
0000
0000
0000
,
0010
0000
0000
0000
,
0100
0000
0000
0000
,
0100
0000
0000
0000
,
0001
0000
0000
0000
,
0001
0000
1000
0000
,
1000
0000
0000
0000
,
1000
0000
0010
0000
,
0010
0000
0000
0000
,
0010
0000
0100
0000
,
0100
0000
0000
0000
,
0100
0000
0000
0000
,
0100
0000
0000
0100
,
0100
0000
0000
0010
,
0010
0000
0000
1000
,
1000
0000
0000
0001
,
0001
0000
0000
1000
,
0010
0000
0000
0100
,
0001
0000
0000
0000
,
0100
0000
0000
0000
,
0010
0000
0000
0000
,
1000
0000
0000
0000
,
0001
0000
1000
0000
,
0001
0000
0000
0000
,
0100
0000
0000
0000
,
0000
0000
0000
0000
,
0010
0000
0010
0000
,
0010
0000
0000
0000
,
1000
0000
0000
0000
,
0000
0000
0000
0000
,
0001
0000
0001
0000
,
0001
0000
0000
0000
,
0100
0000
0000
0000
,
0000
0000
0000
0000
,
0100
0000
0000
0000
,
0100
0000
0100
0000
,
0010
0000
0000
0000
,
0000
0000
0000
0000
,
0010
0000
0000
0000
,
0010
0000
0010
0000
,
1000
0000
0000
0000
,
0000
0000
0000
0000
,
0001
0000
0000
0000
,
0000
0000
0000
0000
,
1000
0000
0000
0000
,
0010
0000
0010
0000
,
0010
0000
0000
0000
,
0100
0000
0100
0000
,
0100
0000
0000
0000
,
0001
0000
0000
0000
,
1000
0000
0000
0000
,
0010
0000
0000
0000
,
1000
0000
0000
0000
,
0100
0000
0000
0000
,
0010
0000
0000
0000
,
0001
0000
0000
0000
,
0100
0000
0000
0000
;

//---------------dance-single - ----------------
#NOTES:
     dance-single:
     :
     Easy:
     3:
     0.272,0.324,0.033,0.289,0.000:
0000
0000
0000
0000
,
0000
0000
0000
0000
,
0000
0000
0000
0000
,
0000
0000
0000
0000
,
1000
0100
1000
0000
,
0002
0000
0013
0000
,
0100
0001
0100
0000
,
0020
0000
1030
0000
,
0001
0000
1000
0001
,
0001
1000
1000
0000
,
0010
0000
0100
0010
,
0010
0100
0100
0000
,
0002
0000
0103
0000
,
1000
0010
1000
0000
,
0200
0000
1300
0000
,
0010
1000
0010
0000
,
2000
3000
0002
0003
,
0200
0300
0020
0030
,
1001
0100
0010
0000
,
0001
0100
0001
1000
,
0000
0001
1000
0000
,
0100
1000
0001
0010
,
0000
0100
0010
0000
,
0001
0010
1000
0010
,
0001
1000
0010
0100
,
0010
0100
0001
1000
,
0110
0001
1000
0000
,
0010
0100
0001
0010
,
0000
0100
1000
0000
,
0001
1000
0100
0010
,
0000
0100
1000
0000
,
0001
1000
0010
1000
,
0001
0000
1000
0100
,
0001
0100
1000
0000
,
2000
0000
3020
0000
,
0130
0001
1000
0010
,
0200
0000
0302
0000
,
1003
0100
0010
0001
,
2000
0000
3002
0000
,
0103
0001
1000
0000
,
0010
0000
0010
0000
,
0010
0000
0010
0000
,
0100
0000
0100
0000
,
0100
0000
0100
0000
,
0001
0001
1000
1000
,
0001
0000
0110
0000
,
2000
0000
0000
3000
,
0001
0010
0010
0001
,
0200
0000
0000
0300
,
0010
1000
1000
0010
,
0200
0000
0000
0300
,
0002
0000
0000
0003
,
2000
0000
3002
0000
,
1003
0100
0010
0001
,
0020
0000
0000
0030
,
0001
1000
1000
0001
,
2000
0000
0000
3000
,
0010
0100
0100
0010
,
2000
0000
0000
3000
,
0002
0000
0000
0003
,
0200
0000
0320
0000
,
1030
0000
0001
0000
,
1000
0000
0010
0000
,
0100
0001
1000
0010
,
0100
0000
0001
0000
,
1001
0000
0000
0000
,
0200
0000
0000
0300
,
0001
0010
0100
0000
,
0020
0000
0000
0030
,
0001
1000
0001
0000
,
2000
3000
0001
0001
,
0002
0003
1000
1000
,
0020
0030
0200
0300
,
0001
1000
0001
0000
,
2000
0000
3000
0000
,
0001
0100
0010
0100
,
0002
0000
0003
0000
,
1000
0010
0100
0010
,
2000
0000
3000
0000
;

//---------------dance-single - ----------------
#NOTES:
     dance-single:
     :
     Medium:
     5:
     0.367,0.453,0.157,0.404,0.000:
0000
0000
0000
0000
,
0000
0000
0000
0000
,
0000
0000
0000
0000
,
0000
0000
0000
0000
,
0002
0000
0103
0010
,
2000
0000
3001
1000
,
0020
0000
0230
0000
,
0301
0010
0100
1000
,
0001
1100
0001
1000
,
0010
0000
0100
1001
,
0100
0011
1000
0100
,
1000
0000
0001
0110
,
1000
0100
0001
0100
,
1000
0010
0001
0010
,
1000
0100
0001
0010
,
1000
0010
0001
1000
,
0002
0000
2003
0000
,
3001
1000
0010
0100
,
1001
0100
0010
0001
,
1000
0000
0001
0010
0000
0010
0001
0000
,
0100
0010
1000
0001
,
1000
0000
0100
1000
0000
1000
0100
0000
,
1000
0100
0100
1000
,
0001
0010
0010
0001
,
0200
0001
0010
0301
,
0020
1000
0100
1030
,
1010
0000
1100
0000
,
0010
0100
0001
0010
,
0011
0000
0101
0000
,
1000
0100
0010
0100
,
2000
0001
0000
3001
,
0020
0100
0000
0130
,
2000
0100
0010
3001
,
0002
0010
0100
1003
,
2000
0000
0000
0000
3001
1000
0001
0000
,
0200
0000
0310
0000
,
0020
0000
0000
0000
0130
0010
0100
0000
,
0002
0000
1003
0000
,
0002
0000
0000
0000
0103
0001
0100
0000
,
0020
0000
1030
0000
,
0001
0010
1000
0010
,
0001
0100
1000
0100
,
0001
0000
2000
0000
,
3010
0100
0010
0000
,
1000
1100
0001
0011
,
1001
0000
0010
0001
,
1000
0000
1000
0100
0000
0000
0100
0000
,
1000
0000
1000
0010
0000
0000
0010
0000
,
1000
0000
1000
0001
0000
0000
0001
0000
,
2000
3100
0002
0013
,
2000
0000
3001
0010
,
0002
0000
0103
0010
,
0200
0000
0320
0000
,
1030
0000
0001
1000
,
0001
0000
0001
0020
0000
0000
0030
0000
,
0001
0000
0001
0200
0000
0000
0300
0000
,
0001
0000
0001
2000
0000
0000
3000
0000
,
0020
1030
0200
0301
,
0002
0010
0103
0000
,
2000
0100
3010
0000
,
0001
0010
0100
1000
,
0100
0010
0001
0000
,
2200
3300
0011
0000
,
0202
0303
1010
0000
,
0220
0330
1001
0000
,
2002
3003
0001
1000
,
0002
0000
0000
0003
,
1000
0100
0010
0100
,
2000
0000
0000
3000
,
0001
0010
0100
0010
,
0200
0000
1300
0001
,
0020
0000
0031
1000
,
0020
0000
2030
0000
,
3001
0100
1000
0010
,
0002
0000
0000
0003
,
0100
0000
0010
0000
1000
0001
1000
0000
,
0020
0000
0000
0030
,
1000
0000
0001
0000
0100
0010
0100
0000
,
0020
0000
0030
0000
;

//---------------dance-single - ----------------
#NOTES:
     dance-single:
     :
     Hard:
     6:
     0.457,0.518,0.330,0.347,0.000: // measure 1
0000
0000
0000
0000
,  // measure 2
0000
0000
0000
0000
,  // measure 3
0000
0000
0000
0000
,  // measure 4
0000
0000
0000
0000
,  // measure 5
2001
0000
3001
0010
,  // measure 6
0210
0000
1300
0001
,  // measure 7
1100
0000
0011
0000
,  // measure 8
1000
0100
0010
1001
,  // measure 9
1000
0100
1000
0000
0001
0010
0001
0000
,  // measure 10
1000
1100
0001
0011
,  // measure 11
0100
0001
0100
0000
0010
1000
0010
0000
,  // measure 12
0100
0101
0010
1010
,  // measure 13
0002
0000
1003
0000
0010
1000
0010
0000
,  // measure 14
2000
0000
3010
0000
0100
0001
0100
0000
,  // measure 15
0101
0000
1010
0000
,  // measure 16
0001
1000
0010
0110
,  // measure 17
1000
0000
0010
0000
0100
0010
0100
0000
,  // measure 18
0001
0100
0001
0000
2002
0000
3003
0000
,  // measure 19
1000
0100
0001
0100
,  // measure 20
1000
0000
0001
0010
0000
0100
1000
0000
,  // measure 21
0001
0010
0001
0100
,  // measure 22
0010
0000
1000
0001
0000
0100
0010
0000
,  // measure 23
2000
0000
0010
0000
3010
0000
0010
0100
,  // measure 24
0002
0000
0100
0000
0103
0000
0100
0001
,  // measure 25
1000
0010
1000
0101
,  // measure 26
1010
0000
0110
1001
,  // measure 27
0001
0001
1000
0010
,  // measure 28
0100
0000
0010
1000
0000
0001
0100
0000
,  // measure 29
0001
0010
0001
1000
,  // measure 30
0010
0000
1000
0001
0000
0100
0001
0000
,  // measure 31
0200
0000
0001
0000
0301
0000
0001
1000
,  // measure 32
0020
0000
1000
0000
1030
0000
1000
0010
,  // measure 33
0100
0001
1000
1100
,  // measure 34
1000
0001
0010
0011
,  // measure 35
1010
0000
1001
0000
,  // measure 36
1000
1000
0001
1000
,  // measure 37
0011
0000
1001
0000
,  // measure 38
0100
0100
0001
0100
,  // measure 39
0101
0000
1010
0000
,  // measure 40
1000
0100
0010
0001
,  // measure 41
1000
0100
0001
0010
,  // measure 42
0001
0000
0100
0000
1000
0000
0001
0010
,  // measure 43
0001
1100
1000
0011
,  // measure 44
1000
0100
0001
0100
,  // measure 45
2000
3002
0203
0320
,  // measure 46
0230
0000
0010
0310
,  // measure 47
0010
0000
1000
0100
0000
0100
1000
0000
,  // measure 48
0001
0000
0010
0001
0000
0001
0010
0000
,  // measure 49
0100
0000
1000
0001
0000
0001
1000
0000
,  // measure 50
0001
0101
0100
0110
,  // measure 51
0001
0000
1000
0000
0010
0100
0010
0000
,  // measure 52
0100
0000
0010
0000
1000
0001
1000
0000
,  // measure 53
0002
1003
2000
3001
,  // measure 54
2001
0000
0001
3001
,  // measure 55
0100
0000
0001
0100
0000
0100
0001
0000
,  // measure 56
1000
0000
0010
1000
0000
1000
0010
0000
,  // measure 57
0100
0000
0010
0100
0000
0100
0010
0000
,  // measure 58
1000
1100
1000
1001
,  // measure 59
0001
0000
0010
0000
0100
1000
0100
0000
,  // measure 60
1000
0000
0100
0000
0010
0001
0010
0000
,  // measure 61
0001
0010
0100
0010
,  // measure 62
0100
0010
0100
1000
,  // measure 63
2000
0000
0000
0001
0000
0000
3001
0000
,  // measure 64
0020
0000
0000
0100
0000
0000
0130
0000
,  // measure 65
0200
0000
0000
0302
0000
0000
1003
0000
,  // measure 66
0220
0330
1001
1001
,  // measure 67
2200
3300
0001
0010
,  // measure 68
0001
0100
0001
1000
,  // measure 69
0022
0033
1000
0100
,  // measure 70
1000
0010
1000
0001
,  // measure 71
2000
0000
3020
0000
1030
0001
1000
0000
,  // measure 72
0002
0000
0203
0000
0310
1000
0010
0000
,  // measure 73
2020
3030
0202
0303
,  // measure 74
0200
0310
0020
0130
,  // measure 75
2000
0100
0010
3001
,  // measure 76
0001
0010
0001
0000
1000
0010
1000
0000
,  // measure 77
0020
1000
0001
0130
,  // measure 78
0100
0001
0100
0000
0010
1000
0010
0000
,  // measure 79
0220
0000
0330
0000
;

//---------------dance-single - ----------------
#NOTES:
     dance-single:
     :
     Challenge:
     9:
     0.665,0.777,0.685,0.272,0.111: // measure 1
0000
0000
0000
0000
,  // measure 2
0000
0000
0000
0000
,  // measure 3
0000
0000
0000
0000
,  // measure 4
0000
0000
0000
0000
,  // measure 5
0001
0000
0000
0000
1100
0000
0000
0000
0001
0000
0000
0100
0001
0000
0000
0000
,  // measure 6
0100
0000
0000
0000
1010
0000
0000
0000
0100
0000
0000
0001
1000
0000
0000
0000
,  // measure 7
0001
0000
0000
0000
0110
0000
0000
0000
1000
0000
0000
0001
1000
0000
0000
0000
,  // measure 8
1100
1010
1001
0110
,  // measure 9
1000
0100
0010
0100
1000
0100
0010
0100
,  // measure 10
1000
0011
1010
1100
,  // measure 11
0001
0010
0100
0010
0001
0010
0100
0010
,  // measure 12
0001
0110
0011
1001
,  // measure 13
2100
0000
3001
0000
0001
0010
0100
0000
,  // measure 14
0210
0000
1300
0000
1000
0100
0010
0000
,  // measure 15
0100
0010
0001
0000
1000
0001
0010
0000
,  // measure 16
0001
0100
0010
0100
0001
1000
0010
1000
,  // measure 17
0001
0011
1100
1001
,  // measure 18
0001
0000
0010
0000
0100
0000
1000
0000
0001
0010
0000
0100
1000
0000
0001
0000
,  // measure 19
2001
0000
3010
0000
0001
1000
0001
0100
,  // measure 20
0000
0010
1000
0010
0000
1000
1100
0000
,  // measure 21
0120
0000
1030
0000
0001
0010
0100
0010
,  // measure 22
0000
0001
1000
0100
0000
1000
1010
0000
,  // measure 23
0001
0000
0100
0000
0001
0000
0000
1000
0100
0000
0000
0000
1100
0000
0000
0000
,  // measure 24
0010
0000
1000
0000
0010
0000
0000
0100
0001
0000
0000
0000
0101
0000
0000
0000
,  // measure 25
0110
0000
0000
0001
1000
0000
0000
0000
0110
0000
0000
1000
0001
0000
0000
0000
,  // measure 26
1000
0100
0010
0100
0001
0100
1000
0001
,  // measure 27
1200
0000
0310
0000
0001
0010
0001
0000
,  // measure 28
0001
0100
1000
0100
0000
0001
0011
0000
,  // measure 29
0102
0000
1003
0000
1000
0100
1000
0000
,  // measure 30
0001
0100
0001
0010
0000
0001
0101
0000
,  // measure 31
0110
0000
0000
0000
1000
0000
0010
0000
0100
0000
0000
0010
1000
0000
0000
0000
,  // measure 32
1001
0000
0000
0000
0010
0000
0001
0000
0100
0000
0000
0001
0010
0000
0000
0000
,  // measure 33
0001
0010
1000
0000
0001
0100
1000
0000
,  // measure 34
0001
0010
0001
0100
0010
1000
0100
1000
,  // measure 35
0001
0100
1010
0000
1000
0010
0101
0000
,  // measure 36
0102
1003
2010
3001
,  // measure 37
0010
0100
0011
0000
0100
0010
1100
0000
,  // measure 38
1020
0130
0210
0301
,  // measure 39
1000
0100
0001
0000
1000
0100
0001
0000
,  // measure 40
1000
0100
0001
0100
1000
0000
1001
0000
,  // measure 41
0110
0000
0001
1000
0010
0000
0010
1000
,  // measure 42
0001
0100
0001
1000
0010
0000
0110
0000
,  // measure 43
1001
0000
0000
0001
0010
0000
0000
0010
0100
0000
0000
0100
1000
0000
0000
0000
,  // measure 44
0110
0000
0000
1000
0010
0000
0000
0010
0100
0000
0000
0100
0001
0000
0000
0000
,  // measure 45
1000
0100
0001
0100
1000
0010
0001
0010
,  // measure 46
2000
3001
0011
1010
,  // measure 47
0001
0000
0000
1000
0100
0000
1000
0000
0000
0000
0010
0000
1010
0000
0000
0000
,  // measure 48
1000
0000
0000
0001
0010
0000
0001
0000
0000
0000
0100
0000
0101
0000
0000
0000
,  // measure 49
0001
0010
0100
0010
0001
1000
0100
0010
,  // measure 50
1100
1010
1001
0101
,  // measure 51
1000
0100
1100
0000
0010
0001
0011
0000
,  // measure 52
0100
0001
1010
0000
0010
1000
0101
0000
,  // measure 53
1000
0100
0010
0001
0010
0100
1001
0000
,  // measure 54
0120
0130
1100
0101
,  // measure 55
1000
0000
0000
0010
0100
0000
0010
0000
0000
0000
1000
0000
1100
0000
0000
0000
,  // measure 56
0001
0000
0000
0100
0010
0000
0100
0000
0000
0000
0001
0000
0011
0000
0000
0000
,  // measure 57
0100
0001
0100
0010
1000
0001
1000
0100
,  // measure 58
0011
0110
1010
0101
,  // measure 59
1000
0010
1010
0000
0100
0001
0101
0000
,  // measure 60
1000
0100
0011
0000
0001
0010
1100
0000
,  // measure 61
0001
0010
1000
0010
0001
0010
1000
0010
,  // measure 62
1000
0010
0100
1000
0010
1000
0001
1000
,  // measure 63
0022
0000
0030
0200
0000
0300
2000
0000
3000
0200
0000
0300
0013
0000
0000
0000
,  // measure 64
2200
0000
0300
0020
0000
0030
0002
0000
0003
0020
0000
0030
3100
0000
0000
0000
,  // measure 65
0220
0000
0300
2000
0000
3000
0002
0000
0003
2000
0000
3000
0130
0000
0000
0000
,  // measure 66
2002
3003
0110
1001
,  // measure 67
0100
0001
1000
0010
1000
0001
0100
0001
,  // measure 68
1000
0100
0001
0100
1000
0100
0001
0100
,  // measure 69
1000
0010
1000
0001
0100
0001
1000
0010
,  // measure 70
0100
0001
0010
1000
0010
0001
0100
0010
,  // measure 71
1000
0100
0001
0100
1000
0100
0010
0001
,  // measure 72
1000
0001
0010
1000
0010
0001
1000
0100
,  // measure 73
2000
3001
0012
1003
,  // measure 74
1000
0100
0010
0001
1000
0100
0010
0001
,  // measure 75
1100
0000
0101
0000
1000
0100
0001
0000
,  // measure 76
1000
0100
0001
1000
0100
0010
0001
0000
,  // measure 77
0011
0000
1010
0000
0001
0010
1000
0000
,  // measure 78
0001
0010
1000
0001
0010
0100
1000
0000
,  // measure 79
2002
0000
3003
0000
;
