#TITLE:TiK ToK;
#SUBTITLE:;
#ARTIST:Ke$ha;
#TITLETRANSLIT:;
#SUBTITLETRANSLIT:;
#ARTISTTRANSLIT:Kesha;
#GENRE:;
#CREDIT:;
#MENUCOLOR:;
#METERTYPE:DDR;
#BANNER:Free Week 2 - TiK ToK.png;
#BACKGROUND:Free Week 2 - TiK ToK-BG.png;
#LYRICSPATH:;
#CDTITLE:;
#MUSIC:Free Week 2 - TiK ToK.mp3;
#OFFSET:-0.200;
#SAMPLESTART:15.700;
#SAMPLELENGTH:12.000;
#SELECTABLE:YES;
#LISTSORT:;
#BPMS:0.000=120.000;
#STOPS:28.000=1.000
,122.000=1.000
,148.000=1.000
,150.000=1.000
;
#TICKCOUNT:0.000=2;
#BGCHANGES:-0.000=Free Week 2 - TiK ToK.avi=1.000=1=1=0,
99999=-nosongbg-=1.000=0=0=0 // don't automatically add -songbackground-
;
#KEYSOUNDS:;
#ATTACKS:;

//---------------dance-single - BEGINNER----------------
#NOTES:
     dance-single:
     BEGINNER:
     Beginner:
     1:
     0.132,0.163,0.000,0.000,0.000: // measure 1
0000
0000
0000
0000
,  // measure 2
0000
0000
0000
0000
,  // measure 3
0000
0000
0000
0000
,  // measure 4
0000
0000
0000
0000
,  // measure 5
0001
0000
0001
0000
,  // measure 6
1000
0000
1000
0000
,  // measure 7
0100
0000
0010
0000
,  // measure 8
0100
0000
1000
0000
,  // measure 9
1000
0000
0001
0000
,  // measure 10
1000
0000
0001
0000
,  // measure 11
0001
0000
1000
0000
,  // measure 12
0001
0000
0010
0000
,  // measure 13
0010
0000
0100
0000
,  // measure 14
0010
0000
1000
1000
,  // measure 15
1000
0000
0001
0001
,  // measure 16
0001
0000
1000
0000
,  // measure 17
0100
0000
1000
0000
,  // measure 18
0100
0000
0010
0000
,  // measure 19
0001
0000
0010
0000
,  // measure 20
0001
0000
1000
0000
,  // measure 21
0100
0000
0010
0000
,  // measure 22
0001
0000
0100
0100
,  // measure 23
0100
0000
0010
0010
,  // measure 24
0010
0000
0001
0000
,  // measure 25
0100
0000
0001
0000
,  // measure 26
0100
0000
0010
0000
,  // measure 27
1000
0000
0010
0000
,  // measure 28
1000
0000
0001
0000
,  // measure 29
0100
0000
1000
0000
,  // measure 30
0100
0000
0001
0000
,  // measure 31
0010
0000
1000
0000
,  // measure 32
1000
0000
0010
0000
,  // measure 33
0001
0000
0010
0000
,  // measure 34
1000
0000
0100
0000
,  // measure 35
0001
0000
0100
0000
,  // measure 36
1000
0000
0100
0000
,  // measure 37
0001
0000
0010
0000
,  // measure 38
1000
0000
0001
0000
,  // measure 39
0100
0000
0100
0000
,  // measure 40
0010
0000
0010
0000
,  // measure 41
0001
0000
0001
0000
,  // measure 42
1000
0000
1000
0000
,  // measure 43
0001
0000
0100
0000
,  // measure 44
1000
0000
0010
0000
,  // measure 45
0100
0100
0100
0000
,  // measure 46
0010
0010
0010
0000
,  // measure 47
0001
0000
0000
0000
;

//---------------dance-single - BASIC----------------
#NOTES:
     dance-single:
     BASIC:
     Easy:
     3:
     0.226,0.210,0.000,0.142,0.000: // measure 1
0000
0000
0000
0000
,  // measure 2
0000
0000
0000
0000
,  // measure 3
0000
0000
0000
0000
,  // measure 4
0000
0000
0000
0000
,  // measure 5
0002
0003
0001
0000
,  // measure 6
2000
3000
1000
0000
,  // measure 7
0200
0300
0010
0000
,  // measure 8
0100
0010
1000
1000
,  // measure 9
0001
0001
1000
0001
,  // measure 10
1000
0010
1000
0001
,  // measure 11
0001
1000
1000
0001
,  // measure 12
0100
0010
1000
0100
,  // measure 13
0100
0010
0010
0001
,  // measure 14
0100
0010
1000
0001
,  // measure 15
2000
3000
0001
1000
,  // measure 16
0002
0003
1000
0100
,  // measure 17
1000
0100
1000
0010
,  // measure 18
0001
0010
1000
0001
,  // measure 19
0100
1000
0010
0001
,  // measure 20
0100
0010
1000
0100
,  // measure 21
1000
0010
0001
0100
,  // measure 22
0001
1000
0100
0010
,  // measure 23
0200
0300
0010
0100
,  // measure 24
0020
0030
0001
0000
,  // measure 25
0100
0000
0001
1000
,  // measure 26
0100
0100
0010
0000
,  // measure 27
0001
0000
0100
1000
,  // measure 28
0010
0000
0001
0010
,  // measure 29
0100
0000
1000
0010
,  // measure 30
0100
0000
0010
1000
,  // measure 31
0001
0100
0010
0000
,  // measure 32
1000
0001
0020
0030
,  // measure 33
0001
1000
0020
0030
,  // measure 34
1000
0001
0200
0300
,  // measure 35
0010
1000
0100
0000
,  // measure 36
1000
0100
0002
0003
,  // measure 37
0001
0010
2000
3000
,  // measure 38
0010
0000
0100
0010
,  // measure 39
0100
0001
0100
1000
,  // measure 40
0010
0001
0100
0010
,  // measure 41
1000
0001
0100
0001
,  // measure 42
0010
0100
1000
0001
,  // measure 43
1000
0001
0100
0001
,  // measure 44
1000
0010
0001
0100
,  // measure 45
0010
0100
0020
0030
,  // measure 46
0100
0010
0200
0300
,  // measure 47
0001
0000
0000
0000
;

//---------------dance-single - DIFFICULT----------------
#NOTES:
     dance-single:
     DIFFICULT:
     Medium:
     4:
     0.323,0.350,0.203,0.233,0.000: // measure 1
0000
0000
0000
0000
,  // measure 2
0000
0000
0000
0000
,  // measure 3
0000
0000
0000
0000
,  // measure 4
0000
0000
0000
0000
,  // measure 5
0020
0030
0020
0030
,  // measure 6
0100
1000
0001
0100
,  // measure 7
0002
0003
2000
3000
,  // measure 8
0100
0000
0010
0000
1001
0000
1000
0100
,  // measure 9
1000
0000
0001
0100
0001
0000
1000
0000
,  // measure 10
0001
0000
0010
0000
1000
0000
0010
1000
,  // measure 11
0010
0000
0100
0001
0100
0000
0001
0000
,  // measure 12
0100
0000
0110
0000
1001
0000
0001
0010
,  // measure 13
0001
0000
1000
0100
1000
0001
1000
0000
,  // measure 14
0010
0100
2000
3001
,  // measure 15
0220
0330
0002
1003
,  // measure 16
0220
0000
0330
0000
0010
0000
1000
0100
,  // measure 17
1000
0000
0010
0001
0010
0000
0001
0000
,  // measure 18
0100
0000
0010
0000
1000
0000
0100
0010
,  // measure 19
0100
0000
1000
0001
1000
0000
0001
0000
,  // measure 20
0100
0000
0010
0000
1000
0000
0001
0010
,  // measure 21
0001
0000
1000
0100
1000
0001
1000
0000
,  // measure 22
0001
0100
2000
3001
,  // measure 23
0202
0303
0002
1003
,  // measure 24
2020
3030
0010
0010
,  // measure 25
0100
0100
0001
0100
,  // measure 26
0010
1000
0001
0100
,  // measure 27
1000
0100
0001
0100
,  // measure 28
0010
1000
0100
1000
,  // measure 29
0010
0001
0100
0001
,  // measure 30
0010
0000
1000
0000
0010
1000
0100
0000
,  // measure 31
0010
0001
0100
0000
0010
0000
0000
0000
,  // measure 32
1000
0001
0110
0110
,  // measure 33
0001
1000
0110
0110
,  // measure 34
0010
0100
1001
1001
,  // measure 35
0100
0010
0200
0300
,  // measure 36
1000
0001
0011
1100
,  // measure 37
0001
1000
1010
0101
,  // measure 38
0010
1000
0100
0010
,  // measure 39
1001
0000
0001
0010
0001
0000
1000
0100
,  // measure 40
1000
0001
0010
0100
,  // measure 41
1000
0000
0010
0100
0010
0000
1000
0001
,  // measure 42
1000
0001
0100
0001
,  // measure 43
0010
0000
0100
1000
0100
0000
0010
0001
,  // measure 44
0010
0100
1000
0000
0001
0000
0100
0000
,  // measure 45
0002
1003
0220
0330
,  // measure 46
0200
0310
2002
3003
,  // measure 47
0100
0000
0000
0000
;

//---------------dance-single - EXPERT----------------
#NOTES:
     dance-single:
     EXPERT:
     Hard:
     7:
     0.437,0.419,0.284,0.071,0.081: // measure 1
0000
0000
0000
0000
,  // measure 2
0000
0000
0000
0000
,  // measure 3
0000
0000
0000
0000
,  // measure 4
0000
0000
0000
0000
,  // measure 5
0010
0000
0100
1000
0010
0000
0100
0001
,  // measure 6
1000
0010
0100
0001
0000
0010
0100
1000
,  // measure 7
0001
0000
1000
0100
0010
0001
1000
0000
,  // measure 8
0100
0000
0110
0000
1001
0000
0001
0100
,  // measure 9
0001
0000
1000
0100
1000
0001
0010
0100
,  // measure 10
1000
0000
0011
0000
1100
0000
0001
0100
,  // measure 11
1000
0000
0001
0010
1000
0010
0001
0100
,  // measure 12
1000
0000
1010
0000
1100
0000
0001
0100
,  // measure 13
0001
0000
1000
0010
1000
0100
0010
0000
,  // measure 14
0001
0000
0000
0000
1000
0000
0000
0000
0001
0000
0100
0010
0000
0100
0010
0000
,  // measure 15
2000
0000
0000
0000
3001
0000
0000
0000
1000
0000
0100
0010
0000
0100
0010
0000
,  // measure 16
0002
0000
0000
0000
1003
0000
0000
0000
0001
0000
0000
0100
0000
0000
0010
0000
,  // measure 17
1000
0000
1000
0100
1000
0001
0100
0001
,  // measure 18
1000
0000
0000
0000
0110
0000
0000
0000
1000
0000
0000
0100
0000
0000
0001
0000
,  // measure 19
0010
0000
0100
1000
0010
1000
0100
0010
,  // measure 20
0001
0000
0000
0000
0011
0000
0000
0000
1100
0000
0000
1000
0000
0000
0001
0000
,  // measure 21
0010
0000
0001
0100
1000
0100
0001
0000
,  // measure 22
1000
0000
0010
0000
0001
0000
0000
0000
0001
0000
0100
0010
0000
1000
0010
0000
,  // measure 23
0200
0000
0000
0000
0301
0000
0000
0000
1000
0000
0100
0010
0000
0001
0010
0000
,  // measure 24
0200
0000
1300
0001
1000
0000
0001
0100
,  // measure 25
0001
0000
0001
1000
0010
0100
0001
1000
,  // measure 26
0000
0100
0010
1000
0010
1000
0100
1000
,  // measure 27
0001
0100
0001
0010
0001
0100
0010
1000
,  // measure 28
0000
0001
0010
0100
1000
0010
0100
0001
,  // measure 29
0010
0000
0010
0100
1000
0010
1000
0001
,  // measure 30
0010
0001
1000
0100
0010
0001
1000
0100
,  // measure 31
0010
0001
1000
0100
0010
0100
0010
1000
,  // measure 32
0001
0100
0010
1000
0101
0000
1100
0000
,  // measure 33
0001
0100
0010
1000
1100
0000
0011
0000
,  // measure 34
0100
1000
0010
0100
0101
0000
0011
0000
,  // measure 35
1200
0000
0000
1000
0000
0000
1300
0000
0000
0000
0010
0000
0001
0000
1000
0000
,  // measure 36
0001
0010
0001
0100
0011
0000
0101
0000
,  // measure 37
0010
0100
0001
1000
1010
0000
1100
0000
,  // measure 38
0110
0100
1001
0010
,  // measure 39
1001
0000
0100
1000
0001
0000
0100
0001
,  // measure 40
1000
0010
0100
0001
1000
0000
0011
0000
,  // measure 41
1010
0000
0001
0100
1000
0000
0010
0100
,  // measure 42
0001
0010
0001
1000
0100
0000
0011
0000
,  // measure 43
1100
0000
0010
0100
0010
0000
0001
1000
,  // measure 44
0001
0010
1000
0000
1000
0100
0001
0000
,  // measure 45
0001
0000
1000
0100
0000
0001
0100
0000
2000
0000
0000
0000
3010
0000
0000
0000
,  // measure 46
1000
0000
0001
0010
0000
1000
0010
0000
0002
0000
0000
0000
0103
0000
0000
0000
,  // measure 47
1100
0000
0000
0000
;
