#TITLE:The Sad But True Story Of Ray Mingus, The Lumberjack Of Bulk Rock City, And His Never Slacking Stribe In Exploiting The So Far Undiscovered Areas Of The Intention To Bodily Intercourse From The Opposite Species Of His Kind, During Intake Of All The Mental Condition That Could Be Derived From Fermentation;
#SUBTITLE:;
#ARTIST:Rednex;
#TITLETRANSLIT:;
#SUBTITLETRANSLIT:;
#ARTISTTRANSLIT:;
#CREDIT:;
#BANNER:;
#BACKGROUND:;
#LYRICSPATH:The Sad But True Story Of Ray Mingus.lrc;
#CDTITLE:;
#MUSIC:The Sad But True Story Of Ray Mingus.mp3;
#OFFSET:-8.170;
#SAMPLESTART:40.260;
#SAMPLELENGTH:16.300;
#SELECTABLE:YES;
#DISPLAYBPM:118.000;
#BPMS:0.000=117.800;
#STOPS:;
#BGCHANGES:;

//---------------dance-single - ----------------
#NOTES:
     dance-single:
     :
     Hard:
     8:
     0.493,0.453,0.126,0.059,0.215:
1000
0000
0000
0100
0000
0000
1000
0000
0001
0100
0001
0000
1000
0000
0000
0000
,
0001
0000
0010
0000
0100
0000
0010
0000
0001
1000
0001
0000
0000
0000
1000
0000
,
0100
0000
0000
0010
0000
0000
0100
0000
0010
0001
1000
0000
0001
0000
0100
0000
,
0001
0000
1000
0000
0000
0100
0000
0000
0010
0000
0000
0000
1001
0000
0000
0000
,
1000
0000
0001
0010
0100
0000
0010
0000
0001
0000
0100
0000
0101
0000
0000
0000
,
1000
0010
0100
0001
1000
0000
0001
0000
,
0010
0001
1000
0100
0010
0100
1000
0000
,
0001
0100
0010
1000
0001
0000
1000
0100
,
1000
0000
0001
0010
0001
0100
0010
0000
,
0100
0001
1000
0000
0100
0000
0010
0000
0001
0000
0000
0000
1100
0000
0000
0000
,
0010
0001
1000
0001
0100
0010
0001
0010
,
1000
0000
0010
0000
0100
0000
0000
0001
1000
0001
1000
0000
0001
0100
0001
0000
,
1000
0000
0100
0000
0010
0000
0100
0000
1000
0000
0001
0100
0000
0100
0010
0000
,
0100
0001
1000
0100
0010
0000
1001
0000
,
1000
0010
0100
0001
1000
0100
0000
0010
,
0012
0100
2000
3003
,
1000
0000
0010
0000
0100
0000
0001
1000
0000
1000
0001
0000
1000
0000
0100
0000
,
0010
0000
0100
0000
1000
0000
0001
0010
0000
0001
1000
0000
0001
0000
0100
0000
,
0001
0000
0000
0000
0100
0000
0000
0000
0010
1000
0000
0010
0000
0000
0100
0000
,
0001
0010
0001
1000
0100
0000
0110
0000
,
0010
0000
0100
0000
1000
0000
0100
0010
0000
0010
0001
0000
0100
0000
1000
0000
,
0100
0000
0001
0000
1000
0000
0001
1000
0000
1000
0001
0000
0100
0000
0010
0000
,
1000
0000
0100
0000
0010
0001
0010
0001
,
1000
0010
0001
0010
0100
0000
0000
0000
,
0010
0000
1000
0010
0100
0000
0010
0000
1010
0000
0000
0000
0101
0000
0000
0000
,
0001
0010
0001
0000
1000
0000
0100
0000
0000
0000
0010
0000
0100
0000
0000
0000
,
0010
0000
0000
0010
0001
0000
0000
0001
1000
0000
0000
1000
0010
0000
0000
0010
,
0100
0001
1000
0100
0220
0000
0330
0000
,
1000
0001
1000
0000
0001
0000
0100
0000
0010
0000
0100
0000
0001
0000
1000
0000
,
0100
0010
0001
0010
0001
0100
0000
0100
,
0001
1000
0001
0000
1000
0000
0100
0000
0010
0000
0100
0000
1000
0000
0010
0000
,
0001
0010
0100
0001
1000
0001
0000
1000
,
0100
0010
0001
0100
0010
0100
0001
0000
,
1000
0100
0010
0100
1000
0001
0010
0000
,
0001
0000
1000
0000
0010
0000
0100
0001
0100
0000
0001
0000
1000
0000
0100
0000
,
0010
0000
0100
0000
0010
0001
0000
0000
1000
0100
1000
0000
0001
0100
0001
0000
,
1000
0000
0010
0000
0100
0000
0001
0000
1000
0000
0001
0010
0000
0100
1000
0100
,
1000
0100
1000
0001
0100
0000
0101
0000
,
0001
1000
0100
0010
0100
0010
0001
0000
,
2002
0000
0000
3003
,
1000
0000
0010
0000
0100
0000
0001
1000
0000
1000
0100
0000
0010
0000
0100
0000
,
0010
0000
0001
0000
1000
0000
0001
0100
0000
0000
0001
0000
1001
0000
0000
0000
,
1000
0100
0001
0100
1000
0010
0100
0000
,
0010
0000
0100
0000
0001
0000
1000
0000
0100
0000
0000
0010
0001
0000
1000
0000
,
0001
0000
1000
0000
0010
0000
0100
0001
0000
0001
0100
0000
0001
0000
1000
0000
,
0100
0000
0010
0000
0100
0000
0010
0001
0000
0000
1000
0000
1001
0000
0000
0000
,
1000
0010
0100
0010
0001
0010
0100
0000
,
0001
1000
0100
0010
0100
0000
0011
0000
,
1001
0000
1000
0000
0010
0100
0001
1000
,
0100
0000
0000
0000
0010
0000
0000
0000
0100
0000
0010
0001
0010
0000
0001
0000
,
1000
0000
0010
0000
0100
0001
0100
0010
,
1000
0000
0010
0000
0100
0000
0001
0000
1000
0000
0001
1000
0100
0000
0010
0000
,
0100
0000
0000
0100
0000
0000
0100
0000
0010
0001
0010
0000
0002
0000
0000
0000
,
0003
0000
1000
0000
0000
0001
0000
0000
0100
0000
0010
1000
0001
0000
0000
0000
;

//---------------dance-single - ----------------
#NOTES:
     dance-single:
     :
     Medium:
     5:
     0.322,0.340,0.126,0.143,0.000:
1000
0001
1000
0000
0001
0000
0100
0000
,
0010
0000
0100
0000
0001
1000
0001
1000
,
0100
0010
0100
0010
,
0001
0000
2002
3003
,
1000
0010
1000
0010
1000
0000
0000
0000
,
0001
0010
0001
0010
0001
0000
0000
0000
,
1000
0100
0010
0001
,
0100
0000
0010
0100
0010
0000
0000
0000
,
0100
0001
1000
0001
1000
0000
0000
0000
,
0001
1000
0100
1000
0100
0000
0000
0000
,
0010
0001
0100
0010
,
1000
0000
0001
1000
0001
0000
0000
0000
,
1000
1000
0100
0000
0010
0000
0100
0000
,
0010
0010
0001
0000
1000
0000
0001
0000
,
0100
0001
0100
0000
0010
1000
0010
0000
,
2002
0000
0000
3003
,
1000
0100
0010
0100
0010
0000
0100
0000
,
0010
0001
1000
0001
1000
0000
0010
0000
,
0100
0001
0100
0000
0001
1000
0001
0000
,
1000
0010
0110
0000
,
0100
0010
0100
0001
1000
0000
0001
0000
,
1000
0100
1000
0001
0010
0000
0001
0000
,
0100
0001
1000
0000
0010
1000
0100
0000
,
0010
0001
1001
0000
,
2000
0000
0000
0000
0000
0000
0000
0001
,
3002
0010
1000
0100
,
2003
0010
0001
0100
,
3020
0100
2000
3030
,
1000
0000
0001
0000
0010
0001
0100
0000
,
0010
0100
1001
0000
,
1000
0000
0100
0000
0010
0001
0100
0000
,
0010
1000
1001
0000
,
1000
0010
1000
0000
0001
0100
0001
0000
,
1000
0100
0011
0000
,
0010
0001
0100
0000
0010
1000
0100
0000
,
0010
0100
1001
0000
,
0001
0001
0100
0000
0010
0010
0100
0000
,
0010
1000
0001
0000
,
1000
1000
0100
0000
0010
0010
0100
0000
,
2002
0000
0000
3003
,
1000
0010
1000
0001
0100
0000
0000
0000
,
0001
0010
0001
0010
0100
0000
0000
0000
,
0010
0001
1000
0010
,
0100
0001
0101
0000
,
0001
1000
0001
0000
1000
0000
0010
0000
,
0100
0001
0100
0000
0001
0000
1000
0000
,
0100
0010
0100
0000
0010
0001
0010
0000
,
0011
1100
2002
3003
,
1000
0010
0100
0000
0010
0000
0100
0001
,
0100
0001
1000
0000
0001
0000
0010
0001
,
0100
0010
0100
0000
0010
0000
1000
0010
,
0100
0001
0100
0000
0001
0000
1000
0000
,
2002
0000
0000
3003
,
0000
0220
0000
0000
0000
0000
0330
0000
;

//---------------dance-single - ----------------
#NOTES:
     dance-single:
     :
     Easy:
     2:
     0.164,0.181,0.017,0.017,0.000:
1000
0000
0001
0010
,
0001
0000
1000
0000
,
0100
0000
0010
0100
,
0010
0000
0100
0000
,
0001
0001
0001
0000
,
1000
0000
0001
0000
,
0100
0100
0100
0000
,
0010
0000
0100
0000
,
0001
0100
0001
0000
,
1000
0000
0100
0000
,
0010
0001
0010
0000
,
0001
0000
1000
0000
,
0001
0100
0001
0100
,
0001
0000
1000
0000
,
0100
1000
0100
1000
,
0001
0000
0000
0000
,
1000
0000
0001
0000
,
0100
0010
0100
0000
,
0001
0000
1000
0000
,
0100
1000
0100
0000
,
0010
0000
0001
0000
,
1000
0001
1000
0000
,
0001
0000
0100
0000
,
0010
0100
0010
0000
,
1000
0000
0000
0000
,
0001
0000
0000
0000
,
0100
0000
0001
0000
,
1000
0001
1000
0000
,
1000
0000
0100
0000
,
0010
0001
0010
0000
,
0001
0000
0100
0000
,
0010
1000
0010
0000
,
1000
0000
0001
0000
,
0100
0010
0100
0000
,
0001
0000
1000
0000
,
0100
0010
0100
0000
,
0010
0010
0010
0000
,
0001
0000
1000
0000
,
0001
0001
0001
0000
,
1001
0000
0000
0000
,
1000
0010
1000
0000
,
0001
0100
0001
0000
,
1000
0000
0100
0000
,
0010
0100
0010
0000
,
0100
0010
0100
0000
,
0010
0001
0010
0000
,
0001
0000
1000
0000
,
0010
1000
0010
0000
,
1000
0001
1000
0001
,
0100
0000
0010
0000
,
0100
0010
0100
0010
,
1000
0000
0001
0000
,
2002
0000
0000
0000
,
0000
0000
0000
3003
;

//---------------dance-single - ----------------
#NOTES:
     dance-single:
     :
     Beginner:
     1:
     0.118,0.153,0.025,0.000,0.000:
1000
0000
0001
0000
,
1000
0000
0000
0000
,
0001
0000
0010
0000
,
0001
0000
0000
0000
,
1000
0000
1000
0000
,
0001
0000
0100
0000
,
0010
0000
0010
0000
,
0100
0000
0000
0000
,
0001
0000
0001
0000
,
1000
0000
0100
0000
,
0010
0000
0010
0000
,
0100
0000
0000
0000
,
0010
0000
0001
0000
,
0100
0000
0010
0000
,
1000
0000
0000
0000
,
1001
0000
0000
0000
,
0110
0000
0100
0000
,
0010
0000
0010
0000
,
1000
0000
0001
0000
,
0100
0100
0100
0000
,
0001
0000
1000
0000
,
0100
0000
0010
0000
,
0100
0000
0010
0000
,
0001
0001
0001
0000
,
1000
0000
0000
0000
,
0100
0000
0000
0000
,
0010
0000
0000
0000
,
0001
0000
0000
0000
,
1000
0000
0010
0000
,
1000
0000
0000
0000
,
0001
0000
1000
0000
,
0001
0000
0000
0000
,
1000
0000
0100
0000
,
0010
0000
0000
0000
,
0100
0000
1000
0000
,
0001
0000
0000
0000
,
1000
0000
1000
0000
,
0001
0000
0100
0000
,
0010
0000
0010
0000
,
0100
0000
0000
0000
,
0010
0000
1000
0000
,
0001
0000
0001
0000
,
1000
0000
0100
0000
,
0010
0010
0010
0000
,
0100
0000
0010
0000
,
0001
0000
0001
0000
,
1000
0000
0010
0000
,
0100
0100
0100
0000
,
0001
0000
0100
0000
,
0001
0000
1000
0000
,
0100
0000
0010
0000
,
0001
0001
0001
0000
,
1001
0000
0000
0000
;

//---------------dance-double - ----------------
#NOTES:
     dance-double:
     :
     Hard:
     8:
     0.501,0.453,0.135,0.126,0.211:
00001000
00000000
01000000
00010000
00000000
00010000
01000000
00000000
00100000
00000000
10000000
00000000
01000000
00000000
00100000
00000000
,
01000000
00000000
00100000
00000000
00001000
00000000
00010000
00000000
00000100
00001000
00000100
00000000
00000000
00000000
00000010
00000000
,
00000001
00000000
00001000
00000010
00000000
00000010
00000100
00000000
00000010
00000000
00001000
00000000
00000100
00000000
00010000
00000000
,
00001000
00000000
00100000
00000000
00000000
00010000
00000000
00000000
10000000
00000000
00000000
00000000
10010000
00000000
00000000
00000000
,
10000000
01000000
00010000
00001000
00000100
00000100
00000010
00000000
,
00000100
00000010
00010000
00001000
00000010
00001000
00010000
00000000
,
00000010
00001000
00000100
00000000
00000010
00000001
00000100
00000000
,
00000001
00000100
00001000
00010000
00011000
00000000
00000000
00000000
,
00001000
00100000
00010000
00100000
01000000
00100000
00010000
00000000
,
10000000
00100000
00010000
00100000
01000000
00000000
00010000
00000000
,
00100000
00001000
00010000
00000100
00000010
00000100
00010000
00000000
,
00001000
00000000
00000100
00000000
00000010
00000000
00000000
00000100
00000001
00000100
00000001
00000000
00001000
00000100
00001000
00000000
,
00000001
00000000
00001000
00000000
00000100
00000000
00001000
00000000
00000010
00000000
00001000
00000100
00000000
00000100
00010000
00000000
,
00001000
00100000
00001000
01000000
00010000
01000000
01100000
00000000
,
00100000
10000000
01000000
00100000
01000000
00100000
00001000
00010000
,
00020100
00000010
00002000
00033000
,
00010000
00000000
00000100
00000000
00001000
00000000
00000100
00000010
00000000
00000100
00000010
00000000
00000001
00000000
00001000
00000000
,
00000010
00000000
00001000
00000000
00000100
00000000
00010000
00001000
00000000
00001000
00010000
00000000
00011000
00000000
00000000
00000000
,
00001000
01000000
00100000
01000000
00001000
01000000
00100000
00000000
,
10000000
01000000
00010000
01000000
00100000
00000000
01100000
00000000
,
00100000
00000000
00001000
00000000
00010000
00000000
00000100
00001000
00000000
00001000
00000100
00000000
00010000
00000000
00001000
00000000
,
00010000
00000000
00000100
00000000
00000010
00000000
00000100
00001000
00000000
00001000
00000100
00000000
00000010
00000000
00000000
00000000
,
00000001
00000100
00001000
00000100
00000010
00001000
00000100
00000000
,
00010000
00001000
00100000
00010000
20020000
00000000
30030000
00000000
,
10000000
00000000
00010000
00000000
00100000
00000000
00000000
00000000
00001000
00000000
00000000
00100000
00000000
00000000
00001000
00000000
,
00010000
00000100
00000001
00000100
00000000
00001100
00000000
00000000
,
00001000
00000000
00000000
00000100
00000010
00000000
00000000
00000001
00001000
00000000
00000000
00001000
00000100
00000000
00000000
00000100
,
00010000
00001000
01000000
00010000
02000000
00000000
03000000
00000000
,
00010000
10000000
01000000
00000000
00100000
00010000
00100000
00001000
,
00010000
00000000
00001000
00000000
00010000
00000000
00000000
00010000
00000100
00000000
00000010
00000000
00000011
00000000
00000000
00000000
,
00000001
00001000
00000100
00001000
00000100
00010000
00001000
01000000
,
00100000
00000000
01000000
00000000
00010000
00000000
00000000
10000000
01000000
00000000
00100000
00000000
00110000
00000000
00000000
00000000
,
00100000
00001000
00010000
00001000
00000010
00001000
00010000
00000000
,
00002000
00000100
00020000
00033000
,
00010000
00000000
00000100
00000000
00000010
00000000
00000001
00000000
00000100
00000010
00000100
00000000
00000010
00000000
00001000
00000000
,
00000100
00000000
00010000
00000000
00001000
00010000
00000000
00001000
00010000
00000000
00001000
00000000
00100000
00010000
00100000
00000000
,
00010000
00000000
00010000
00000000
10000000
00000000
10000000
00000000
01000000
00000000
00100000
00010000
00000000
00010000
00100000
00000000
,
00001000
00001000
00010000
00010000
00000100
00000010
00000011
00000000
,
00000001
00001000
00000100
00001000
00000100
00010000
00001000
01000000
,
02200000
00000000
00000000
03300000
,
00100000
00000000
10000000
00000000
01000000
00000000
00100000
00010000
00000000
00010000
00100000
00000000
00001000
00010000
00001000
00000000
,
00010000
00000100
00000010
00000100
00010000
00001000
00011000
00000000
,
00001000
00000000
00100000
00000000
00010000
00000000
10000000
00000000
01000000
00000000
00100000
00000000
00010000
00000000
00000000
01000000
,
00010000
00100000
00001000
00010000
00000100
00000010
00000110
00000000
,
00000010
00000000
00000001
00000000
00001000
00000000
00000010
00001000
00000000
00001000
00000100
00000000
00010000
00000100
00010000
00000000
,
00001000
00000000
01000000
00000000
00010000
00000000
10000000
01000000
00000000
10000000
01000000
00000000
10000000
00000000
00010000
00000000
,
00100000
00000000
00001000
00000000
00010000
00000000
00001000
00000000
00000100
00000000
00001000
00000000
00010000
00000000
00000000
00010000
,
00000100
00000010
00000001
00001000
00002002
00000000
00003003
00000000
,
00001000
00000000
00000100
00000000
00010000
00000000
00000100
00001000
00000000
00000000
00000001
00000000
00000010
00000000
00000001
00000000
,
00000100
00000000
00000010
00000000
00001000
00000000
00000100
00020000
00000000
00000000
00000000
00000000
00031000
00000000
00010000
00000000
,
00001000
00000000
01000000
00000000
00100000
00000000
01000000
00020000
00000000
00000000
00000000
00000000
10030000
00000000
00010000
00000000
,
10000000
00000000
01000000
00000000
00100000
00000000
00010000
00200000
00000000
00000000
00000000
00000000
00300000
00000000
00000000
00000000
,
00100000
00000000
00001000
00010000
00000000
00010000
00001000
00000000
00010000
00001000
00010000
00000000
00000100
00000000
00001000
00000000
,
00000002
00000000
00000010
00000000
00000000
00001000
00000000
00000000
00000103
00000000
00000000
00000000
00001001
00000000
00000000
00000000
;

//---------------dance-double - ----------------
#NOTES:
     dance-double:
     :
     Medium:
     5:
     0.360,0.340,0.185,0.152,0.004: // measure 1
10000000
00000000
00000000
01000000
00000000
00000000
10000000
00000000
00010000
00000000
00000000
00000000
00100000
00000000
00000000
00000000
,  // measure 2
00001000
00010000
00000000
00010000
00000100
00001000
00000000
00000000
,  // measure 3
00000001
00000000
00000100
00000000
00001000
00000100
00000001
00000000
,  // measure 4
00001000
00000100
00000000
00010000
00001000
00000000
00011000
00000000
,  // measure 5
00001000
01000000
00010000
00000000
10000000
00100000
10000000
00000000
,  // measure 6
00010000
00000000
00100000
00000000
01000000
00100000
00010000
00000000
,  // measure 7
00100000
00000000
00001000
00000000
00010000
00000100
00010000
00000000
,  // measure 8
00000100
00000010
00000001
00000000
00001001
00000000
00000000
00000000
,  // measure 9
00001000
00000000
00000010
00000000
00001000
00000100
00010000
00000000
,  // measure 10
00001000
00100000
00001000
00000000
00100000
00000000
00110000
00000000
,  // measure 11
00010000
10000000
01000000
00000000
00100000
00010000
01000000
00000000
,  // measure 12
10000000
01000000
00010000
00000000
01010000
00000000
00000000
00000000
,  // measure 13
01000000
00000000
00010000
00000000
00100000
00010000
00100000
00001000
,  // measure 14
00010000
00000100
00000110
00000000
,  // measure 15
00000010
00000000
00000001
00000000
00001000
00000010
00001000
00000010
,  // measure 16
00000200
00000010
00000002
00000303
,  // measure 17
00001000
00000000
00000100
00000000
00001000
00000000
00000100
00010000
,  // measure 18
00001000
00100000
00010000
10000000
,  // measure 19
00100000
01000000
00010000
00000000
00010000
10000000
01000000
00000000
,  // measure 20
00100000
00000000
00001000
00010000
00001000
00000000
00000000
00000000
,  // measure 21
00010000
00000000
00000100
00000000
00000010
00000001
00000100
00000000
,  // measure 22
00000010
00001000
00000100
00000000
00000010
00000001
00001000
00000000
,  // measure 23
00000010
00000000
00010000
00000000
00001000
00100000
00010000
00000000
,  // measure 24
00100000
00010000
10000000
00020000
20000000
00000000
30030000
00000000
,  // measure 25
00010000
01000000
00002000
00000000
00010000
00000000
00000100
00000000
,  // measure 26
00013000
00001000
00010000
00000100
00000000
00001000
00000100
00000000
,  // measure 27
00000020
00000032
00002003
00003200
,  // measure 28
00010300
00000000
00001000
00000000
00010000
00001000
01000000
00000000
,  // measure 29
01010000
00000000
10010000
00000000
10000000
01000000
10000000
00000000
,  // measure 30
00110000
00101000
00001000
00010000
,  // measure 31
00010100
00000000
00001100
00000000
00000100
00000010
00000001
00000000
,  // measure 32
00001000
00000010
00001000
00000000
00000001
00000100
00000001
00000000
,  // measure 33
00001010
00000000
00001100
00000000
00000100
00010000
00001000
00000000
,  // measure 34
00011000
01001000
01000000
00010000
,  // measure 35
10010000
00000000
11000000
00000000
00100000
00010000
01000000
00000000
,  // measure 36
00010000
01000000
00001000
00000000
00010000
00000000
00000100
00000000
,  // measure 37
00001100
00000000
00001000
00000000
00000010
00000001
00000010
00000000
,  // measure 38
00000010
00001000
00000010
00000000
00000100
00000000
00000001
00000000
,  // measure 39
00001000
00000000
00000100
00000000
00010000
00001000
01000000
00000000
,  // measure 40
02020000
00000000
00000000
03030000
,  // measure 41
00010000
10000000
00010000
00000000
10000000
00000000
01000000
00000000
,  // measure 42
00100000
00010000
01000000
00000000
00010000
00000000
00100000
00000000
,  // measure 43
00001000
00010000
00001000
00000000
00010000
00000100
00001000
00000000
,  // measure 44
00000100
00000000
00000010
00000001
00000100
00000000
00000010
00000000
,  // measure 45
00001000
00000100
00010000
00000000
00001000
00010000
00000100
00000000
,  // measure 46
00001000
00100000
00010000
01000000
,  // measure 47
00010000
01000000
00001000
00000000
00010000
00001000
01000000
00000000
,  // measure 48
00100000
10000000
00010000
00000000
20020000
00000000
30030000
00000000
,  // measure 49
10000000
01000000
10000000
01000000
00100000
00000000
00010000
00000000
,  // measure 50
00100000
00001000
00100000
00001000
00010000
00000000
00000100
00000000
,  // measure 51
00000010
00000100
00001000
00000100
00000010
00000000
00000001
00000000
,  // measure 52
00001000
00000010
00001000
00000010
00000200
00000000
00000300
00000000
,  // measure 53
00002020
00000000
00000000
00003030
,  // measure 54
00000000
00002002
00000000
00000000
00000000
00000000
00003003
00000000
;

//---------------dance-double - ----------------
#NOTES:
     dance-double:
     :
     Easy:
     3:
     0.211,0.204,0.034,0.059,0.000:
10000000
00010000
01000000
00000000
,
00010000
00000000
10000000
00000000
,
01000000
00100000
00010000
00000000
,
00100000
00000000
00001000
00010000
,
00000100
00000010
00000100
00000000
,
00001000
00000100
00001000
00000000
,
00000010
00000001
00000010
00001000
,
00000100
00010000
00001000
00000000
,
00010000
00001000
01000000
00000000
,
00100000
10000000
01000000
00000000
,
10000000
01000000
00010000
01000000
,
10000000
00100000
01000000
00000000
,
00010000
00100000
00001000
00000000
,
00010000
00000100
00001000
00000000
,
00000100
00000000
00000010
00000000
,
00000002
00001000
00002000
00003003
,
00000001
00000100
00000010
00001000
,
00000100
00010000
00001000
00000000
,
00010000
00001000
00100000
00010000
,
01000000
00100000
01100000
00000000
,
00100000
10000000
00010000
10000000
,
01000000
00100000
00010000
00000000
,
00100000
00001000
00010000
00001000
,
00000010
00000001
00001001
00000000
,
00001000
00000000
00000100
00000000
,
00010000
00001000
00100000
00010000
,
10000000
00000000
01000000
00000000
,
00100000
00010000
00200000
00300000
,
00100000
00001000
00010000
00000000
,
00010000
00001000
01000000
00000000
,
00010000
10000000
01000000
00100000
,
00001000
00010000
00000100
00000000
,
00000010
00000001
00000100
00000000
,
00000010
00001000
00000100
00000000
,
00010000
00001000
00100000
00010000
,
10000000
01000000
00100000
00000000
,
01000000
00000000
00100000
00000000
,
00001000
00010000
00001000
00010000
,
00000100
00000000
00000010
00000000
,
00002002
00000000
00000000
00003003
,
00001000
00000010
00000001
00000010
,
00001000
00000100
00010000
00000000
,
00001000
00100000
00010000
01000000
,
10000000
01000000
00010000
00000000
,
10000000
01000000
00100000
01000000
,
00100000
00010000
00100000
00000000
,
00001000
00010000
00001000
00000100
,
00000010
00000100
00000001
00000000
,
00001000
00000100
00010000
00000000
,
00001000
00010000
00000100
00000000
,
00010000
00001000
01000000
00010000
,
01000000
00100000
01000000
00000000
,
20020000
00000000
00000000
00000000
,
00000000
00000000
00000000
30030000
;
