#TITLE:Telephone;
#SUBTITLE:;
#ARTIST:Lady GaGa;
#TITLETRANSLIT:;
#SUBTITLETRANSLIT:;
#ARTISTTRANSLIT:;
#GENRE:;
#CREDIT:;
#MENUCOLOR:;
#BANNER:Telephone.png;
#BACKGROUND:;
#LYRICSPATH:;
#CDTITLE:.\CDTitles\SpyHunter29 Originals.png;
#MUSIC:Telephone.mp3;
#OFFSET:-0.170;
#SAMPLESTART:39.500;
#SAMPLELENGTH:12.000;
#SELECTABLE:YES;
#LISTSORT:;
#DISPLAYBPM:122.000;
#BPMS:0.000=122.000;
#STOPS:;
#TICKCOUNT:0.000=2;
#BGCHANGES: 15.75=Bubble1.avi=1.342=1=1=0=1,
31.75=Robot14.avi=1.342=1=0=1=1,
39.75=Robot15.avi=1.342=1=0=1=1,
47.75=Web1.avi=1.342=1=0=1=1,
55.75=Water1.avi=1.342=1=0=1=1,
63.75=Web1.avi=1.342=1=0=1=1,
71.75=Water1.avi=1.342=1=0=1=1,
79.75=Robot16.avi=1.342=1=0=1=1,
87.75=Robot17.avi=1.342=1=0=1=1,
95.75=Robot16.avi=1.342=1=0=1=1,
103.75=Robot17.avi=1.342=1=0=1=1,
111.75=Circle2.avi=1.342=1=0=1=1,
115.75=Circle6.avi=0.939=1=0=1=1,
119.75=Circle3.avi=1.342=1=0=1=1,
123.75=Circle6R.avi=0.939=1=0=1=1,
127.75=Circle2.avi=1.342=1=0=1=1,
131.75=Circle6.avi=0.939=1=0=1=1,
135.75=Circle3.avi=1.342=1=0=1=1,
139.75=Circle6R.avi=0.939=1=0=1=1,
143.75=Robot14.avi=1.342=1=0=1=1,
151.75=Robot15.avi=1.342=1=0=1=1,
159.75=Robot14.avi=1.342=1=0=1=1,
167.75=Robot15.avi=1.342=1=0=1=1,
175.75=Wheel1.avi=1.342=1=0=1=1,
183.75=Fire1.avi=0.894=1=0=1=1,
191.75=Wheel1.avi=1.342=1=0=1=1,
199.75=Fire1.avi=0.894=1=0=1=1,
203.75=Telephone-BG.png=1=0=1=1;
#KEYSOUNDS:;
#ATTACKS:;

//---------------dance-single - BEGINNER----------------
#NOTES:
     dance-single:
     BEGINNER:
     Beginner:
     1:
     0.144,0.177,0.078,0.088,0.000: // measure 1
0000
0000
0000
0000
,  // measure 2
0000
0000
0000
0000
,  // measure 3
0000
0000
0000
0000
,  // measure 4
0000
0000
0000
0000
,  // measure 5
0002
0000
0003
0000
,  // measure 6
1000
0000
0000
0000
,  // measure 7
0001
0000
0000
0000
,  // measure 8
1000
0000
0000
0000
,  // measure 9
0100
0100
0100
0000
,  // measure 10
0010
0010
0010
0000
,  // measure 11
0100
0000
0010
0000
,  // measure 12
0100
0100
0100
0000
,  // measure 13
0001
0000
0000
0000
,  // measure 14
1000
0000
1000
0000
,  // measure 15
0001
0000
0000
0000
,  // measure 16
0001
0000
0001
0000
,  // measure 17
1000
0000
0000
0000
,  // measure 18
1000
0000
1000
0000
,  // measure 19
0001
0000
0000
0000
,  // measure 20
1000
1000
1000
0000
,  // measure 21
0110
0000
0110
0000
,  // measure 22
0100
0000
0010
0000
,  // measure 23
0100
0000
0000
0000
,  // measure 24
0010
0000
0000
0000
,  // measure 25
1001
0000
1001
0000
,  // measure 26
0001
0000
1000
0000
,  // measure 27
0001
0000
0000
0000
,  // measure 28
0100
0000
0010
0000
,  // measure 29
1000
1000
1000
1000
,  // measure 30
1000
0000
0000
0000
,  // measure 31
0001
0001
0001
0001
,  // measure 32
0001
0000
0000
0000
,  // measure 33
0100
0100
0100
0100
,  // measure 34
0100
0000
0000
0000
,  // measure 35
0010
0010
0010
0010
,  // measure 36
0010
0000
0000
0000
,  // measure 37
2000
3000
2000
3000
,  // measure 38
1000
0000
0000
0000
,  // measure 39
0002
0003
0002
0003
,  // measure 40
0001
0000
0000
0000
,  // measure 41
0200
0300
0200
0300
,  // measure 42
0100
0000
0000
0000
,  // measure 43
0020
0030
0020
0030
,  // measure 44
0010
0000
0000
0000
,  // measure 45
0110
0000
0000
0000
,  // measure 46
1001
0000
0000
0000
,  // measure 47
1000
0000
0001
0000
,  // measure 48
1000
0000
0001
0000
,  // measure 49
1001
0000
0000
0000
,  // measure 50
0110
0000
0000
0000
,  // measure 51
0010
0000
0100
0000
,  // measure 52
0010
0000
0100
0100
;

//---------------dance-single - BASIC----------------
#NOTES:
     dance-single:
     BASIC:
     Easy:
     3:
     0.251,0.328,0.107,0.185,0.000: // measure 1
0000
0000
0000
0000
,  // measure 2
0000
0000
0000
0000
,  // measure 3
0000
0000
0000
0000
,  // measure 4
0000
0000
0000
0000
,  // measure 5
2000
0000
3000
0000
,  // measure 6
0002
0000
0003
0000
,  // measure 7
1000
0000
0001
0000
,  // measure 8
0001
1000
0100
0000
,  // measure 9
0110
0000
0100
0000
,  // measure 10
0110
0000
0010
0000
,  // measure 11
0001
0100
0010
0010
,  // measure 12
1000
0100
0010
0000
,  // measure 13
0001
0000
0001
0000
,  // measure 14
1000
0100
0001
0000
,  // measure 15
1000
0000
1000
0000
,  // measure 16
0001
0010
1000
0000
,  // measure 17
0010
0000
0100
0000
,  // measure 18
0001
0100
0010
0000
,  // measure 19
0010
0000
0100
0000
,  // measure 20
0010
1000
0100
0000
,  // measure 21
1001
0000
0110
0000
,  // measure 22
0010
0001
0100
1000
,  // measure 23
0010
0001
0100
0001
,  // measure 24
0010
1000
0001
0100
,  // measure 25
0110
0000
1001
0000
,  // measure 26
1000
0001
0100
0001
,  // measure 27
0010
0000
1000
0000
,  // measure 28
0001
1000
0100
0100
,  // measure 29
1000
1000
1000
1000
,  // measure 30
0001
0001
1000
0001
,  // measure 31
1000
1000
0001
0001
,  // measure 32
0100
0010
0000
0110
,  // measure 33
0010
0010
0010
0010
,  // measure 34
0100
0100
0010
0100
,  // measure 35
0001
0001
0001
0001
,  // measure 36
1000
0200
0300
0010
,  // measure 37
0002
0103
0002
0103
,  // measure 38
0001
0100
0010
1000
,  // measure 39
0020
0030
2000
3000
,  // measure 40
0001
1000
0100
0100
,  // measure 41
0020
0130
0020
0130
,  // measure 42
1000
0100
0001
0100
,  // measure 43
2000
3000
0002
0003
,  // measure 44
0100
0001
1000
0010
,  // measure 45
0220
0330
0001
1000
,  // measure 46
0220
0330
1000
0001
,  // measure 47
1000
1000
0001
0001
,  // measure 48
1000
0100
0010
0001
,  // measure 49
2002
3003
0001
1000
,  // measure 50
2002
3003
1000
0001
,  // measure 51
0100
0100
0010
0010
,  // measure 52
1000
0001
0100
0010
;

//---------------dance-single - DIFFICULT----------------
#NOTES:
     dance-single:
     DIFFICULT:
     Medium:
     4:
     0.350,0.404,0.312,0.273,0.000: // measure 1
0000
0000
0000
0000
,  // measure 2
0000
0000
0000
0000
,  // measure 3
0000
0000
0000
0000
,  // measure 4
0000
0000
0000
0000
,  // measure 5
0200
0300
0020
0030
,  // measure 6
0100
0001
0010
0000
,  // measure 7
2000
3000
0200
0300
,  // measure 8
0010
0001
0100
0000
,  // measure 9
0010
1000
0001
0000
0100
0000
0000
0000
,  // measure 10
0010
0001
1000
0000
0100
0000
0000
0000
,  // measure 11
0001
0100
0001
0000
1000
0100
1000
0000
,  // measure 12
0010
1000
0001
0000
0100
0000
0000
0000
,  // measure 13
0001
0001
0100
0010
,  // measure 14
1000
0100
0010
0001
1000
0000
0000
0000
,  // measure 15
0010
0010
1000
0100
,  // measure 16
0001
0100
1000
0000
2200
0000
3300
0000
,  // measure 17
0001
0100
0001
0010
,  // measure 18
0100
1000
0010
0100
0001
0000
0000
0000
,  // measure 19
0001
1000
0100
1000
,  // measure 20
0101
1100
0101
0000
,  // measure 21
0120
1030
0120
1030
,  // measure 22
0001
0100
0001
0000
1000
0100
1000
0000
,  // measure 23
0001
0010
0100
0100
,  // measure 24
1000
0010
0100
0100
,  // measure 25
0102
0013
0102
0013
,  // measure 26
0001
0100
0010
0000
1000
0100
0010
0000
,  // measure 27
0001
0010
0100
1000
,  // measure 28
0001
1000
0100
0010
,  // measure 29
0001
0001
1000
1000
,  // measure 30
0001
0010
1000
0000
1000
0010
0001
0000
,  // measure 31
0100
0100
0010
0010
,  // measure 32
1000
0010
0200
0000
0300
0000
0001
0000
,  // measure 33
1000
1000
0001
0001
,  // measure 34
1000
0100
0001
0000
0001
0100
1000
0000
,  // measure 35
0010
0010
0100
0100
,  // measure 36
0010
1000
0002
0000
0003
0000
1000
0000
,  // measure 37
1001
1001
0011
0011
,  // measure 38
0001
1000
0001
0100
,  // measure 39
2020
3030
0202
0303
,  // measure 40
0100
0010
1000
0001
,  // measure 41
0110
0110
1100
1100
,  // measure 42
0001
1000
0100
0100
,  // measure 43
2200
3300
0022
0033
,  // measure 44
0010
1000
0001
0001
,  // measure 45
0220
0000
0330
0000
0001
1000
0001
0000
,  // measure 46
2002
0000
3003
0000
0010
0100
0010
0000
,  // measure 47
1010
1010
0101
0101
,  // measure 48
0010
0100
0001
1000
,  // measure 49
0220
0330
1000
0001
,  // measure 50
0220
0330
0001
1000
,  // measure 51
1001
1010
1001
0011
,  // measure 52
0001
1000
0010
0100
;

//---------------dance-single - EXPERT----------------
#NOTES:
     dance-single:
     EXPERT:
     Hard:
     8:
     0.548,0.555,0.176,0.215,0.156: // measure 1
0000
0000
0000
0000
,  // measure 2
0000
0000
0000
0000
,  // measure 3
0000
0000
0000
0000
,  // measure 4
0000
0000
0000
0000
,  // measure 5
1000
1000
2000
0000
3001
0001
0001
0000
,  // measure 6
1000
0100
0010
0001
0100
0000
0000
0000
,  // measure 7
0010
0100
0001
0100
0010
0100
1000
0100
,  // measure 8
0010
1000
0020
0000
0130
0000
0001
0000
,  // measure 9
1000
0001
0110
0000
2002
0000
3003
0000
,  // measure 10
0001
1000
0110
0000
2002
0000
3003
0000
,  // measure 11
1000
0100
0010
0100
1000
0010
0100
0001
,  // measure 12
0100
0010
2000
0000
0002
0000
3003
0000
,  // measure 13
0001
0100
0001
0100
0010
0100
0010
0100
,  // measure 14
0010
1000
0100
0010
0001
0000
1000
0000
,  // measure 15
1000
0100
0010
0100
1000
0001
0100
0010
,  // measure 16
1000
0001
0100
0000
0100
0000
0010
0000
,  // measure 17
0010
1000
0100
0010
0001
0100
0010
0100
,  // measure 18
0001
0010
0001
0100
0010
1000
0001
0000
,  // measure 19
1000
0100
1000
0010
0100
0001
0100
0001
,  // measure 20
1000
1000
0001
0000
0100
0100
0010
0000
,  // measure 21
0110
0000
0001
1000
0110
0000
1000
0001
,  // measure 22
0110
1000
0001
0100
0001
1000
0001
0100
,  // measure 23
0001
0010
0100
1000
0020
0000
1030
0100
,  // measure 24
0010
0001
1000
1100
0000
0101
0000
0000
,  // measure 25
1001
0000
0100
0010
1001
0000
0010
0100
,  // measure 26
1001
0100
1000
0010
1000
0100
1000
0010
,  // measure 27
0000
0100
0010
1000
0002
0000
1003
0100
,  // measure 28
0010
0001
1000
1100
0000
0011
0000
0000
,  // measure 29
0001
0001
1000
1000
0001
0001
1000
1000
,  // measure 30
0001
0100
0001
0010
0001
0100
0001
0010
,  // measure 31
0100
0100
0010
0010
0100
0100
0010
0010
,  // measure 32
0100
1000
0002
0000
1003
0100
2000
0000
,  // measure 33
3001
0001
1000
1000
0001
0001
1000
1000
,  // measure 34
0001
0100
0001
1000
0100
0010
0100
1000
,  // measure 35
0010
0010
0100
0100
0010
0010
0100
0100
,  // measure 36
0001
1000
0020
0000
1030
0100
0020
0000
,  // measure 37
0031
0000
1000
0100
1000
0000
0001
0010
0001
0000
0010
0000
0100
0000
0010
0001
,  // measure 38
0010
0000
0001
0100
0001
0000
1000
0000
0010
0000
1000
0000
0100
0000
0000
1000
,  // measure 39
0100
0000
1000
0100
1000
0000
0001
0010
0001
0010
0001
0000
1000
0000
0010
0100
,  // measure 40
0001
0000
0100
0001
1000
0000
0010
0000
1000
0000
0001
0000
0100
0000
0000
0000
,  // measure 41
0010
0000
1000
0010
1000
0000
0001
0100
0001
0000
0100
0000
0010
0000
1000
0001
,  // measure 42
1000
0000
0100
1000
0100
0000
0010
0000
0001
0000
1000
0000
0100
0000
0000
0010
,  // measure 43
0001
0000
1000
0100
1000
0000
0001
0100
1000
0100
0001
0000
1000
0000
0001
0100
,  // measure 44
0010
0000
1000
0010
0100
0000
0001
0000
0010
0000
0100
0000
1000
0000
0000
0000
,  // measure 45
2002
0000
3003
0010
0100
1000
0010
0000
,  // measure 46
0220
0000
0000
0000
0330
0000
0010
0000
0100
0000
0001
0000
0010
0000
0000
1000
,  // measure 47
0100
0000
1000
0100
1000
0000
0001
0010
0001
0010
0001
0000
1000
0000
0010
0100
,  // measure 48
0010
0000
1000
0001
1000
0000
0001
0000
0100
0000
1000
0000
0100
0000
0000
0000
,  // measure 49
0202
0000
0303
1000
0010
0100
0001
0000
,  // measure 50
2020
0000
0000
0000
3030
0000
1000
0000
0010
0000
0100
0000
0001
0000
0000
1000
,  // measure 51
0010
0000
0100
0001
0100
0000
0010
0100
0001
0100
0010
0000
1000
0000
0001
0100
,  // measure 52
1000
0000
0100
0001
1000
0000
0010
0000
1000
0000
0001
0000
0100
0000
0000
0000
;
