#TITLE:TOGETHER & FOREVER;
#SUBTITLE:;
#ARTIST:CAPTAIN JACK;
#TITLETRANSLIT:;
#SUBTITLETRANSLIT:;
#ARTISTTRANSLIT:;
#CREDIT:;
#BANNER:TOGETHER & FOREVER.png;
#BACKGROUND:TOGETHER & FOREVER-bg.png;
#LYRICSPATH:;
#CDTITLE:./CDTITLES/DANCEMANIA DELUX 2.PNG;
#MUSIC:02 - Together And Forever .mp3;
#OFFSET:-1.386;
#SAMPLESTART:34.980;
#SAMPLELENGTH:12.000;
#SELECTABLE:YES;
#DISPLAYBPM:150.000;
#BPMS:0.000=150.000;
#STOPS:;
#BGCHANGES:0.000=4ever.mpeg=1.000=0=0=1,
246.000=TOGETHER & FOREVER-bg.png=1.000=0=0=1,
99999=-nosongbg-=1.000=0=0=0 // don't automatically add -songbackground-
;

//---------------dance-single - ----------------
#NOTES:
     dance-single:
     :
     Hard:
     7:
     0.480,0.482,0.323,0.137,0.010: // measure 1
0000
0000
0000
0000
,  // measure 2
0000
0000
0000
0000
,  // measure 3
0000
0000
0000
0000
,  // measure 4
0000
0000
0000
0000
,  // measure 5
0000
0000
0000
0000
,  // measure 6
0000
0000
0000
0000
,  // measure 7
0000
0000
0000
0000
,  // measure 8
0000
0000
0000
0000
,  // measure 9
1000
0100
0010
0001
1000
0100
0010
0001
,  // measure 10
1000
0000
0100
0000
1000
0000
0000
0000
0001
0000
0100
0000
0001
0000
0000
0001
,  // measure 11
0010
0100
1000
0001
0100
0000
0110
0000
,  // measure 12
0010
1000
0001
0000
0100
0001
1000
0000
,  // measure 13
0001
0010
1000
0100
0001
0000
1001
0000
,  // measure 14
1000
0000
0100
0000
0010
0000
0100
0000
1000
0000
0001
0000
0100
0000
0000
0001
,  // measure 15
1000
0100
0001
0100
1000
0000
0110
0000
,  // measure 16
0010
1000
0100
0000
0100
0010
0001
0000
,  // measure 17
1000
0100
0001
0010
1000
0000
1001
0000
,  // measure 18
2001
0100
3010
0101
,  // measure 19
0201
0010
1300
0010
,  // measure 20
1000
0010
0100
0001
1000
0010
0100
0001
,  // measure 21
1001
1001
1001
1001
,  // measure 22
1000
0100
0010
0001
0000
0001
1000
0010
,  // measure 23
0100
0011
0110
1100
,  // measure 24
0001
0010
0100
0010
0000
0100
1000
0001
,  // measure 25
0100
1010
0110
1001
,  // measure 26
1000
0100
0001
0100
0000
0010
0001
1000
,  // measure 27
0001
1010
0110
1001
,  // measure 28
0001
0010
1000
0010
0000
0100
1000
0001
,  // measure 29
1000
1010
0011
1001
,  // measure 30
0200
1000
0010
1300
,  // measure 31
0001
0010
1000
0010
0001
0000
0011
0000
,  // measure 32
0002
1000
0100
1003
,  // measure 33
1000
0100
0001
0100
1000
0000
0110
0000
,  // measure 34
2000
0010
0100
3010
,  // measure 35
0100
0001
1000
0001
0010
0000
0101
0000
,  // measure 36
0020
0001
0100
0031
,  // measure 37
1000
0100
0010
0001
1000
0100
0010
0001
,  // measure 38
1000
0100
1000
0100
0000
1000
0010
0100
,  // measure 39
0001
0100
0010
0100
0000
0010
1000
0010
,  // measure 40
1000
0100
0010
0100
0000
0010
0001
1000
,  // measure 41
0001
1000
0100
1000
0000
0001
0100
1000
,  // measure 42
0100
0001
0100
0001
0000
0010
0001
1000
,  // measure 43
0010
1000
0001
0100
0000
0100
0001
0010
,  // measure 44
0100
1000
0010
0100
0000
0001
0100
0010
,  // measure 45
1000
0100
0010
0001
0000
0001
0100
0010
,  // measure 46
1000
0001
1000
0100
0000
0010
0001
0010
,  // measure 47
0011
0000
0101
0000
0100
0000
0010
1000
,  // measure 48
1010
1000
0010
0100
0000
0010
0100
0001
,  // measure 49
0010
0000
0110
0000
0001
0000
1001
0001
,  // measure 50
1000
0100
1000
0001
0000
1000
0001
0100
,  // measure 51
0001
0000
0110
0000
0001
0000
1100
1000
,  // measure 52
1000
0010
0100
0001
0000
0001
0100
1000
,  // measure 53
0100
0001
0010
1000
0010
0100
1000
0002
,  // measure 54
0000
0000
0000
0000
,  // measure 55
1003
0100
0000
0010
0000
0000
0001
0200
,  // measure 56
0000
0000
0300
0000
0000
0000
0010
0100
,  // measure 57
0001
1000
0000
0001
0000
0000
1000
0020
,  // measure 58
0000
0030
0000
0000
,  // measure 59
0010
0100
0000
0001
0000
0000
1000
0020
,  // measure 60
0000
0000
0030
0000
0000
0000
1000
0100
,  // measure 61
0002
0000
0203
0000
2300
0000
3100
0020
,  // measure 62
0000
0000
0030
0000
;

//---------------dance-solo - ----------------
#NOTES:
     dance-solo:
     :
     Beginner:
     3:
     0.246,0.304,0.039,0.000,0.000:
000000
000000
000000
000000
,
000000
000000
000000
000000
,
000000
000000
000000
000000
,
000000
000000
000000
000000
,
001000
000000
001000
000000
,
000010
000000
010000
000000
,
001000
000000
001000
000000
,
010000
000000
000010
000000
,
010000
000010
010000
000010
,
010000
000010
010000
000010
,
001000
000010
001000
000010
,
010010
010010
001000
000010
,
010000
000010
010000
000010
,
010000
000010
010000
000010
,
010000
001000
001000
001000
,
010010
010010
001000
000010
,
010000
000000
001000
000000
,
001000
000000
010000
000000
,
000010
010000
000010
010000
,
001000
001000
001000
001000
,
010000
000000
000010
000000
,
001000
001000
001000
001000
,
000010
000000
010000
000000
,
001000
001000
001000
001000
,
001000
000000
001000
000000
,
010000
000010
010000
000010
,
001000
000000
001000
000000
,
000010
010000
000010
010000
,
001000
001000
010000
001000
,
010000
000010
010000
000010
,
001000
001000
000010
010000
,
000010
001000
000010
010000
,
001000
010000
000010
001000
,
001000
000010
001000
000010
,
001000
000010
010000
000010
,
001000
001000
000010
000010
,
010000
000000
001000
000000
,
010000
000000
000010
000000
,
001000
000000
000010
000000
,
010000
000000
000010
000000
,
010000
000010
001000
000010
,
010000
001000
010000
000010
,
010000
000010
010000
000010
,
001000
000010
010000
000010
,
001000
000000
001000
000000
,
000010
001000
000010
000010
,
010000
000000
001000
000000
,
010000
001000
010000
010000
,
000010
000000
010000
000000
,
000010
010000
000010
010000
,
001000
000000
001000
000000
,
010000
000010
010000
000010
,
001000
000010
010000
001000
,
001000
010000
000010
001000
,
001000
001000
000010
010000
,
001000
000000
001000
000000
,
001000
000000
001000
000000
;

//---------------dance-single - ----------------
#NOTES:
     dance-single:
     :
     Medium:
     5:
     0.358,0.482,0.245,0.323,0.000:
0000
0000
0000
0000
,
0000
0000
0000
0000
,
0000
0000
0000
0000
,
0000
0000
0000
0000
,
0000
0000
0000
0000
,
0000
0000
0000
0000
,
0000
0000
0000
0000
,
0000
0000
0000
0000
,
0001
0100
1000
0010
,
0011
0011
1100
1100
,
1000
0000
0002
1000
1003
0000
0110
0000
,
0010
1010
0001
0101
,
1100
0011
1001
0000
,
1010
1010
0101
0101
,
0010
0000
2000
0001
3001
0000
0100
0000
,
0001
1001
0010
0110
,
1100
0101
0110
1001
,
2001
0100
3100
1000
,
2001
0010
3010
0000
,
0100
0001
0010
1000
,
0100
0100
0100
0100
,
0000
0001
0010
0001
0000
0100
1000
0100
,
0000
0002
1000
0103
,
0010
0001
1000
0001
0000
0010
0100
0010
,
2000
0100
3010
1000
,
0001
1000
0010
1000
0000
0001
0100
0001
,
0200
0001
0310
1000
,
0010
0100
0001
1000
0000
0010
1000
0001
,
1000
0100
0010
0001
,
2002
0000
0000
3003
,
0002
0100
0100
0103
,
0020
1000
1000
1030
,
0001
1000
0001
0010
,
0001
0100
1000
0100
,
0001
0100
0010
1000
,
0100
0010
0001
1000
,
2002
0000
0000
0000
0000
0000
0000
3003
,
1000
0000
0010
0100
0000
0001
1000
0000
,
0100
0000
0010
0001
0000
0001
0010
0000
,
0100
0000
1000
0100
0000
0100
1000
0000
,
0010
0000
1000
0001
0000
0010
0100
0000
,
1000
0000
0001
0010
0000
0100
1000
0000
,
0010
0000
0100
0001
0000
0001
0010
0000
,
0100
0000
0100
1000
0000
1000
0010
0000
,
0100
0000
0001
1000
0000
1000
0001
0100
,
0020
1030
0200
0310
,
0002
1000
0000
1003
,
0002
0103
0020
1030
,
2000
0001
0000
3001
,
0200
0301
0020
0130
,
0200
0010
0000
0310
,
0002
1003
2000
3001
,
0010
0100
1000
0001
,
2002
0000
0000
3003
,
2000
0000
0000
0000
,
3002
0000
0000
0000
,
0023
0000
0000
0000
,
0032
0000
0000
0000
,
2003
0000
0000
0000
,
3200
0000
0000
0000
,
2300
0000
0000
0000
,
0000
0000
3000
0000
;

//---------------dance-single - ----------------
#NOTES:
     dance-single:
     :
     Easy:
     3:
     0.249,0.323,0.069,0.186,0.000:
0000
0000
0000
0000
,
0000
0000
0000
0000
,
0000
0000
0000
0000
,
0000
0000
0000
0000
,
0000
0000
0000
0000
,
0000
0000
0000
0000
,
0000
0000
0000
0000
,
0000
0000
0000
0000
,
0001
0001
1000
1000
,
0020
0130
0020
0130
,
1000
0001
1001
0000
,
1000
0100
0001
0001
,
0100
1000
1001
0000
,
0010
0010
0100
0100
,
0002
1003
2000
3001
,
0001
0100
1000
1000
,
0100
0001
0010
0100
,
0220
0000
0330
0001
,
2002
0000
3003
0000
,
1000
0001
1000
0001
,
2000
0000
0002
0000
,
3003
0100
0000
0100
,
0010
1000
0010
1000
,
0001
0000
0001
0000
,
0100
0001
0100
0001
,
0010
0000
0010
0000
,
0100
0010
0100
0010
,
0001
0000
0001
0000
,
1000
1000
1000
1000
,
2002
0000
0000
3003
,
0002
0000
0003
0000
,
0020
0000
0030
0000
,
0200
0000
0300
0000
,
2000
0000
3000
0001
,
0011
0010
0000
0010
,
0100
0100
0000
0100
,
1000
0001
1000
0001
,
0010
0010
0010
0010
,
0001
0001
1000
1000
,
0100
0100
0100
0100
,
0010
0010
0001
0001
,
1000
1000
1000
1000
,
0010
0010
0100
0100
,
0001
0001
0001
0001
,
2000
0000
0000
0000
,
3001
0100
0001
0100
,
0010
1000
1000
1000
,
0010
0100
0010
1000
,
0001
0001
0001
0010
,
0100
1000
0100
0010
,
0001
0001
0001
0001
,
1000
0100
1000
0010
,
0100
0100
0100
0100
,
0220
0000
0000
0330
,
0010
0000
0000
0000
,
1000
0000
0000
0000
,
0100
0000
0000
0000
,
0010
0000
0000
0000
,
0001
0000
0000
0000
,
1000
0000
0000
0000
,
0001
0000
0000
0000
;

//---------------dance-double - Copied from----------------
#NOTES:
     dance-double:
     Copied from:
     Hard:
     7:
     0.488,0.512,0.460,0.235,0.000:
00000000
00000000
00000000
00000000
,
00000000
00000000
00000000
00000000
,
00000000
00000000
00000000
00000000
,
00000000
00000000
00000000
00000000
,
00000000
00000000
00000000
00000000
,
00000000
00000000
00000000
00000000
,
00000000
00000000
00000000
00000000
,
00000000
00000000
00000000
00000000
,
00010000
00001000
00010000
00001000
00010000
00001000
00010000
00001000
,
01000000
00100000
10000000
00000000
10000000
01000000
00010000
00000000
,
00110000
00000000
00011000
00000000
00001100
00000000
00000100
00000100
,
00001000
00000001
00001000
00000000
00000001
00000010
00000100
00000000
,
00001100
00000000
00011000
00000000
01010000
00000000
01000000
01000000
,
00100000
10000000
01000000
00010000
01000000
10000000
00100000
00000000
,
01100000
00000000
00110000
00000000
00011000
00000000
00010000
00010000
,
00001000
00000100
00000010
00000000
00000100
00000010
00001000
00000000
,
00000011
00000110
00001100
00010000
,
00012000
00010000
00013000
01000000
,
21000000
00000000
01000000
00000000
31000000
00000000
10000000
10000000
,
01000000
00010000
00001000
00000100
00000001
00000010
00001000
00010000
,
00001000
00010000
00001000
00010000
,
00001000
01000000
00100000
10000000
00000000
01000000
00100000
01000000
,
00000000
00000000
01100000
00000000
01010000
00000000
00100000
00002000
,
00000000
00013000
00001000
00010000
00000000
00000100
00000010
00000001
,
00000011
00000000
00000101
00000000
00001100
00000000
00010000
00002000
,
00000000
00013000
01000000
10000000
00000000
00100000
10000000
00100000
,
00000000
00000000
10100000
00000000
01010000
00000000
00100000
02000000
,
00000000
03010000
10000000
01000000
00000000
10000000
00010000
10000000
,
10010000
00110000
00011000
00001100
,
00001002
00001000
00001000
00001003
,
00000001
00000100
00001000
00010000
00000000
00000000
00010000
00001000
,
00011000
00110000
11000000
10100000
,
01010000
00000000
00011000
00000000
00001100
00000000
00000010
00000100
,
00000002
00000000
00000100
00000000
00000103
00000000
00000010
00001000
,
00000001
00000100
00001000
00020000
00000000
00000000
00031000
00100000
,
00110000
10010000
11000000
00110000
,
00011000
00001100
00011000
00110000
,
00010000
00100000
01000000
10000000
00000000
10000000
01000000
00100000
,
00010000
00100000
01000000
10000000
00000000
10000000
01000000
00010000
,
00001000
00000100
00000010
00000100
00000000
00000001
00001000
00000001
,
00000010
00000100
00000010
00000001
00000000
00000010
00000001
00000100
,
00001000
00010000
01000000
00100000
00000000
00100000
00010000
10000000
,
01000000
10000000
00010000
10000000
00010000
10000000
01000000
00010000
,
00001000
00000100
00000010
00000100
00000000
00000001
00001000
00000001
,
00000010
00000100
00000010
00000001
00000000
00000100
00001000
00010000
,
00002000
00000000
00013000
00001000
01000000
00000000
01100000
00000000
,
10000000
01000000
00200000
00000000
00320000
00000000
10030000
20000000
,
00000000
31000000
00010000
00001000
00000000
00001000
00010000
00001000
,
00000200
00000000
00000320
00000000
00001030
00000000
00000001
00000200
,
00000000
00000301
00001000
00000100
00000000
00001000
00000001
00001000
,
00000100
00000000
00020000
00000000
02030000
00000000
03100000
00200000
,
00000000
00310000
10000000
01000000
00000000
10000000
00100000
01000000
,
01100000
00110000
00011000
00001100
,
00000220
00000000
00000000
00000330
,
00001000
00000010
00000000
00000100
00000000
00000000
00000001
00001000
,
00000000
00000000
00000000
00000000
00000000
00000000
00001000
00000001
,
00000100
00001000
00000000
00010000
00000000
00000000
01000000
00100000
,
00000000
00000000
00000000
00000000
,
01000000
00010000
00000000
10000000
00000000
00000000
10000000
00100000
,
00000000
00000000
00000000
00000000
00000000
00000000
10000000
00010000
,
02000000
00000000
03200000
00000000
00320000
00000000
00031000
00020000
,
00000000
00000000
00030000
00000000
;
