#TITLE:TEARS FOR THE TIME;
#SUBTITLE:;
#ARTIST:kors k vs L.E.D.;
#TITLETRANSLIT:;
#SUBTITLETRANSLIT:;
#ARTISTTRANSLIT:;
#GENRE:;
#CREDIT:;
#MENUCOLOR:;
#METERTYPE:DDR;
#BANNER:TEARS FOR THE TIME-bn.png;
#BACKGROUND:TEARS FOR THE TIME-bg.png;
#LYRICSPATH:;
#CDTITLE:;
#MUSIC:TEARS FOR THE TIME.mp3;
#OFFSET:-0.405;
#SAMPLESTART:107.420;
#SAMPLELENGTH:14.000;
#SELECTABLE:YES;
#LISTSORT:;
#BPMS:0.000=148.010;
#STOPS:69.000=0.203
,69.500=0.405
,70.000=0.405
,73.000=0.405
,73.500=0.203
,74.000=0.405
,74.500=0.203
,75.500=0.203
,79.000=0.203
,79.500=0.405
,80.000=0.203
,81.000=0.203
,91.000=1.013
;
#BGCHANGES:;
#ATTACKS:;

//---------------dance-single - ----------------
#NOTES:
     dance-single:
     :
     Hard:
     8:
     0.545,0.747,0.237,0.244,0.129: // measure 1
0000
0000
0000
0000
,  // measure 2
0000
0000
0000
0000
,  // measure 3
0000
0000
0000
0000
,  // measure 4
0000
0000
0000
0000
,  // measure 5
1010
0000
0010
0000
0101
0000
0100
0010
,  // measure 6
1000
0001
0020
0000
0000
0000
0000
0000
,  // measure 7
1030
0000
0000
0100
0000
0010
0000
0000
0001
0000
0100
0000
0000
0010
0000
0000
,  // measure 8
1000
0000
0100
0000
0000
0100
0010
0100
0010
0000
0000
0001
0000
0000
1000
0000
,  // measure 9
0010
0000
0010
0000
0010
0000
0010
0000
0100
0001
0000
0000
0100
0010
0100
0010
,  // measure 10
1000
0000
0100
0000
0002
0000
0103
0020
,  // measure 11
1000
0000
0100
0000
1030
0200
0000
0320
,  // measure 12
1000
0100
0001
0100
,  // measure 13
0031
0200
0000
0320
0000
1030
0010
0002
,  // measure 14
0000
0203
0010
0000
0310
0001
0010
0100
,  // measure 15
1000
0020
0100
0000
1030
0010
0100
0002
,  // measure 16
1000
0000
0010
0000
0000
0103
0010
1000
,  // measure 17
1001
0101
0120
0001
,  // measure 18
2030
0000
3001
0101
1100
0110
0010
0100
,  // measure 19
0010
0001
1001
1100
0011
1010
0101
0110
,  // measure 20
1100
0000
0010
0100
0020
0000
0000
0000
0130
0000
0000
0000
0011
0000
1010
0000
,  // measure 21
0101
0000
0100
0000
1100
0000
0110
0000
0000
1100
0000
0000
0101
0000
0100
0000
,  // measure 22
0000
1001
0000
0011
0000
1000
1100
0000
,  // measure 23
0100
0110
0000
0011
0000
1100
0110
0020
,  // measure 24
0000
1030
0001
0010
,  // measure 25
0100
1000
0001
0100
,  // measure 26
0010
1000
0001
0010
,  // measure 27
1000
0100
0001
1000
,  // measure 28
0010
0000
0100
0001
1000
0100
0010
0001
,  // measure 29
0100
1000
0100
0010
0001
0010
1000
0100
,  // measure 30
0010
0001
0100
0010
0001
0010
0100
0001
,  // measure 31
0010
0100
0001
0200
0000
0000
1300
0001
,  // measure 32
0010
0100
0010
0100
0001
0100
0000
0001
,  // measure 33
1000
0100
0010
0001
0100
0010
0000
1000
,  // measure 34
0001
0010
0100
1000
0001
0100
0000
0001
,  // measure 35
0010
0100
1000
0001
0100
0010
0001
0010
,  // measure 36
0100
0010
1000
0100
0010
0001
0000
1000
,  // measure 37
0001
0100
0010
1000
0100
1000
0000
0001
,  // measure 38
0010
0100
0001
0100
0010
0001
0000
0100
,  // measure 39
0001
1000
0010
0100
0001
1000
0100
0010
,  // measure 40
0001
1000
0010
0000
0100
0000
0010
0000
,  // measure 41
0100
0000
0001
0000
0010
0100
0010
0000
0100
0000
0001
0000
2000
0000
0000
0000
,  // measure 42
0100
0000
0000
0000
3010
0000
0000
0000
1000
0000
0000
0100
1000
0000
0000
0010
,  // measure 43
0000
0000
1000
0000
0010
0000
0000
0100
0001
0000
0100
0000
0000
1000
0000
0000
,  // measure 44
0010
0001
0010
0100
0010
1000
0010
0100
,  // measure 45
0010
0000
0001
0000
0100
1000
0100
1000
0100
0000
0010
0000
1000
0000
0100
0000
,  // measure 46
0001
0000
0000
0000
1100
0000
0000
0000
0101
0000
0000
0000
0100
0001
0100
0001
,  // measure 47
0010
0000
1100
0000
0000
0200
0310
1000
,  // measure 48
0001
0010
0100
0001
1000
0100
0010
0001
,  // measure 49
0100
1000
0100
0010
0001
0010
1000
0100
,  // measure 50
0010
0001
0010
0100
0001
0100
0010
0001
,  // measure 51
0100
0010
0001
0010
0100
0010
1000
0100
,  // measure 52
0010
0001
0100
0010
0001
0010
0100
0001
,  // measure 53
1000
0100
0010
0001
0100
0010
0001
0010
,  // measure 54
1000
0100
0010
0001
0100
0010
0001
0010
,  // measure 55
0100
0001
1000
0000
0001
0000
0010
0100
,  // measure 56
1000
0001
0100
0001
0010
0100
0001
0100
,  // measure 57
0010
0001
0100
0010
0001
0010
0100
0010
,  // measure 58
1000
0100
0010
0100
0001
0100
0010
0001
,  // measure 59
0100
0010
0001
0010
1000
0100
0010
0001
,  // measure 60
0100
0010
0001
0010
1000
0100
0001
0100
,  // measure 61
0010
0001
0100
0010
0001
0010
0100
0010
,  // measure 62
1000
0100
0001
0100
0010
0100
1000
0010
,  // measure 63
0001
0000
0010
0000
0200
0000
0000
0000
0302
0000
0000
0000
1003
0000
0000
0010
,  // measure 64
0000
0000
0100
0000
2000
0000
0000
0000
0001
0000
0000
0000
0100
0000
0000
0100
,  // measure 65
0000
0000
0100
0000
3020
0000
0000
0000
0100
0000
0000
0000
1000
0000
0000
1000
,  // measure 66
0000
0000
1000
0000
0032
0000
0000
0000
0100
0000
0000
0000
0010
0000
0000
0010
,  // measure 67
0000
0000
0010
0000
2003
0000
0000
0000
0100
0000
0000
0000
0001
0000
0000
0001
,  // measure 68
0000
0000
0001
0000
3200
0000
0000
0000
0010
0000
0000
0000
1000
0000
0000
1000
,  // measure 69
0000
0000
1000
0000
0320
0000
0000
0000
0001
0000
0000
0000
0100
0000
0000
0100
,  // measure 70
0000
0000
0100
0000
2030
0000
0000
0000
0010
0000
0000
0000
0001
0000
0000
0001
,  // measure 71
0000
0000
0001
0000
3100
0000
1000
0000
0010
0000
0000
0000
0100
0000
0000
0001
,  // measure 72
0000
0000
0010
0000
0201
0000
0000
0000
0010
0000
0000
0000
0001
0000
0000
1000
,  // measure 73
0000
0000
0010
0000
0302
0000
0000
0000
0100
0000
0000
0000
0010
0000
0000
0100
,  // measure 74
0000
0000
0010
0000
2003
0000
0000
0000
0100
0000
0000
0000
0001
0000
0000
0010
,  // measure 75
0000
0000
0100
0000
3002
0000
0000
0000
1000
0000
0000
0000
0100
0000
0000
0010
,  // measure 76
0000
0000
1000
0000
0023
0000
0000
0000
1000
0000
0000
0000
0001
0000
0000
0100
,  // measure 77
0000
0000
1000
0000
0230
0000
0000
0000
0010
0000
0000
0000
0001
0000
0000
1000
,  // measure 78
0000
0000
0001
0000
0320
0000
0000
0000
0100
0000
0000
0000
1000
0000
0000
0100
,  // measure 79
0000
0000
1000
0000
0032
0000
0000
0000
0010
0000
0000
0000
0100
0000
0000
1000
,  // measure 80
0000
0013
1001
0000
0000
0000
0000
0000
;

//---------------dance-single - ----------------
#NOTES:
     dance-single:
     :
     Medium:
     6:
     0.457,0.692,0.293,0.244,0.059: // measure 1
0000
0000
0000
0000
,  // measure 2
0000
0000
0000
0000
,  // measure 3
0000
0000
0000
0000
,  // measure 4
0000
0000
0000
0000
,  // measure 5
1010
0010
0101
0001
,  // measure 6
0100
0010
0200
0000
0000
0000
0000
0000
,  // measure 7
0310
0000
0000
0100
0000
0010
0000
0000
1000
0000
0010
0000
0000
0100
0000
0000
,  // measure 8
0001
0000
0010
0000
0000
0000
0100
0000
1000
0000
0000
0001
0000
0000
1000
0000
,  // measure 9
0010
0100
0010
0100
0001
0000
1000
0010
,  // measure 10
1010
0000
1000
0000
0020
0000
0130
0002
,  // measure 11
0000
0000
0000
0000
1003
0020
0000
0230
,  // measure 12
0000
0000
0000
0000
,  // measure 13
0301
2000
0000
3020
0000
0130
0001
2000
,  // measure 14
0000
3020
0000
0000
0000
0130
0001
1000
,  // measure 15
0100
0020
0000
0000
0031
1000
0010
0200
,  // measure 16
0000
0000
0000
0000
0000
0000
0301
0010
,  // measure 17
0011
0110
0102
0010
,  // measure 18
2003
0000
3010
0110
0101
1001
1000
0000
,  // measure 19
0100
0000
1010
0011
1001
1100
0110
0110
,  // measure 20
1001
1000
0020
0000
0130
0000
1001
0101
,  // measure 21
1100
0000
0001
0000
0101
0000
1100
0000
0000
1010
0000
0000
1001
0000
0000
0000
,  // measure 22
0000
0101
0000
1100
0000
0000
0011
0000
,  // measure 23
0000
1010
0000
0110
0000
0011
0011
0200
,  // measure 24
0000
1300
1000
0001
,  // measure 25
0001
0010
0010
0100
,  // measure 26
0100
0001
0001
0100
,  // measure 27
0100
0001
0001
0010
,  // measure 28
0010
0000
0100
0010
0100
0000
0001
0010
,  // measure 29
0001
0000
1000
0010
1000
0000
0001
0100
,  // measure 30
0001
0000
1000
0001
1000
0000
0010
0100
,  // measure 31
0010
0000
1000
0020
0000
0000
0130
0001
,  // measure 32
1000
0000
0010
0000
0001
1000
0000
0010
,  // measure 33
0100
0001
1000
0000
0001
0010
0000
0001
,  // measure 34
0100
0010
1000
0000
0001
0010
0000
0001
,  // measure 35
1000
0100
0010
0000
0001
0000
0010
0100
,  // measure 36
1000
0001
0100
0000
0001
0010
0000
1000
,  // measure 37
0001
0100
0001
0000
0010
0100
0000
1000
,  // measure 38
0001
0100
0010
0000
1000
0100
0000
0001
,  // measure 39
0010
0100
1000
0000
0001
0000
0100
0010
,  // measure 40
1000
0001
0010
0000
0100
0000
0001
0000
,  // measure 41
1000
0010
0100
0001
1000
0001
0020
0000
,  // measure 42
0100
0000
0000
0000
0130
0000
0000
0000
0001
0000
0000
0000
1010
0000
0000
1000
,  // measure 43
0000
0000
1000
0000
0010
0000
0000
0000
0100
0000
0010
0000
0000
0100
0000
0000
,  // measure 44
1001
0011
1100
0110
,  // measure 45
0011
0000
1000
0001
0100
0000
1001
0000
,  // measure 46
0011
0000
1100
0000
0110
0000
0001
0010
,  // measure 47
0100
1000
0010
0000
0100
0002
1003
0000
,  // measure 48
0010
0100
0010
0000
1000
0001
0000
0010
,  // measure 49
0001
0100
0001
0000
1000
0010
0000
0100
,  // measure 50
0001
0010
0100
0000
1000
0001
0000
0100
,  // measure 51
0010
0001
0010
0000
1000
0000
0001
0010
,  // measure 52
0100
1000
0001
0000
0100
0010
0000
1000
,  // measure 53
0100
0010
0001
0000
0100
0010
0000
1000
,  // measure 54
0100
1000
0001
0000
0100
0001
0000
0010
,  // measure 55
0001
0100
0010
0000
1000
0000
0001
0010
,  // measure 56
0100
1000
0010
0000
0100
0001
0000
0001
,  // measure 57
1000
0010
0100
0000
0001
0010
0000
0001
,  // measure 58
1000
0100
0010
0000
1000
0010
0000
0100
,  // measure 59
0010
0001
0010
0000
1000
0000
0001
0010
,  // measure 60
0001
0100
0010
0000
1000
0100
0000
0010
,  // measure 61
0001
0100
0010
0000
1000
0001
0000
0010
,  // measure 62
1000
0100
0010
0000
0001
1000
0000
1000
,  // measure 63
0100
0000
0010
0000
0002
0000
0000
0000
2003
0000
0000
0000
3010
0000
0000
0100
,  // measure 64
0000
0010
0200
0000
0001
0000
0010
0000
,  // measure 65
0000
0302
1000
0010
,  // measure 66
0000
2003
0010
0100
,  // measure 67
0000
3020
0100
1000
,  // measure 68
0000
0230
0001
0010
,  // measure 69
0000
0302
0010
0100
,  // measure 70
0000
0023
1000
0100
,  // measure 71
0000
0000
0000
0000
0130
0000
1000
0000
0001
0000
0000
0000
0100
0000
0000
0001
,  // measure 72
0000
0000
0100
0000
0102
0000
0000
0000
0010
0000
0000
0000
0100
0000
0000
0100
,  // measure 73
0000
0000
0100
0000
2003
0000
0000
0000
0010
0000
0000
0000
0001
0000
0000
0001
,  // measure 74
0000
0000
0001
0000
3020
0000
0000
0000
1000
0000
0000
0000
0100
0000
0000
0100
,  // measure 75
0000
0000
0100
0000
2030
0000
0000
0000
0100
0000
0000
0000
0010
0000
0000
0010
,  // measure 76
0000
0000
0010
0000
3200
0000
0000
0000
0010
0000
0000
0000
0001
0000
0000
0001
,  // measure 77
0000
0000
0001
0000
0320
0000
0000
0000
0100
0000
0000
0000
1000
0000
0000
1000
,  // measure 78
0000
0000
1000
0000
0032
0000
0000
0000
0100
0000
0000
0000
0010
0000
0000
0010
,  // measure 79
0000
0000
0010
0000
2003
0000
0000
0000
0100
0000
0000
0000
0001
0000
0000
0001
,  // measure 80
0000
3001
1001
0000
0000
0000
0000
0000
;

//---------------dance-single - ----------------
#NOTES:
     dance-single:
     :
     Easy:
     4:
     0.303,0.415,0.105,0.258,0.000:
0000
0000
0000
0000
,
0000
0000
0000
0000
,
0000
0000
0000
0000
,
0000
0000
0000
0000
,
1010
1000
0101
0001
,
0100
0020
0000
0000
,
0130
0001
1000
0010
,
0100
0000
1000
0001
,
0010
0100
0010
0000
,
0110
0000
0000
0000
0002
0000
0000
0203
,
0000
0000
0000
0000
0320
0000
0000
2030
,
0000
0000
0000
0000
0000
0000
0000
3002
,
0000
0000
0000
0203
0000
0320
0000
2030
,
0000
3002
0000
0000
0000
0000
0203
0000
,
0000
0320
0000
0000
2030
0000
0000
3002
,
0000
0000
0000
1003
,
1010
0110
0102
1000
,
0023
0000
0031
1000
0010
0100
0000
0000
,
0010
0000
1000
0001
0010
0010
0100
0000
,
0001
0000
2000
0000
3001
0000
0100
0010
,
0001
0000
1000
0010
0000
0000
0100
0000
,
0000
0001
0000
0100
0000
0000
0010
0000
,
0000
1000
0000
0010
0000
0100
0000
0020
,
0000
0130
0100
0100
,
0100
0001
0001
0001
,
0001
1000
1000
1000
,
1000
0010
0010
0010
,
0010
0100
0001
1000
,
0001
0010
0100
1000
,
0010
0100
0010
1000
,
0001
0020
0000
1030
,
0000
0001
1000
0000
,
0010
0100
0001
0000
,
1000
0100
0010
0000
,
0001
1000
0010
0100
,
0001
1000
0100
0000
,
0001
0010
0100
0000
,
1000
0001
0100
0000
,
0010
1000
0001
0010
,
0100
1000
0001
1000
,
0010
0100
0001
2000
,
0000
3010
0100
0001
,
1000
0001
1000
0001
,
0000
0110
1100
0011
,
0101
0010
0000
1001
,
0101
1100
0110
0001
,
1000
0100
0000
0000
,
0000
0010
1000
0000
,
0001
0010
0001
0000
,
1000
0010
0100
0000
,
0001
1000
0001
0010
,
0100
1000
0010
0000
,
0100
0001
1000
0000
,
0100
0010
0001
0000
,
0100
0010
1000
0001
,
0010
0100
0010
0000
,
1000
0001
0100
0000
,
0010
1000
0001
0000
,
0100
0001
0010
0001
,
1000
0010
0100
0000
,
0001
1000
0100
0000
,
0010
0001
0100
0000
,
0010
2000
3002
0103
,
0000
0020
0100
0100
,
0000
2030
0001
0001
,
0000
3020
0100
0100
,
0000
2030
0001
0001
,
0000
3020
0100
0100
,
0000
2030
0001
0001
,
0000
3020
1000
1000
,
0000
0130
0001
1000
,
0000
0020
0100
0100
,
0100
2030
0001
0001
,
0001
3020
0100
0100
,
0100
2030
0001
0001
,
0001
3200
0010
0010
,
0010
2300
0001
0001
,
0001
3020
0100
0100
,
0100
2030
0001
0001
,
3001
1001
0000
0000
;
