#TITLE:Prayer for the Weekend;
#SUBTITLE:;
#ARTIST:The Ark;
#TITLETRANSLIT:;
#SUBTITLETRANSLIT:;
#ARTISTTRANSLIT:;
#CREDIT:;
#BANNER:;
#BACKGROUND:;
#LYRICSPATH:;
#CDTITLE:;
#MUSIC:Prayer for the Weekend.mp3;
#OFFSET:-7.880;
#SAMPLESTART:39.340;
#SAMPLELENGTH:15.740;
#SELECTABLE:YES;
#BPMS:0.000=122.000;
#STOPS:;
#BGCHANGES:;

//---------------dance-single - ----------------
#NOTES:
     dance-single:
     :
     Hard:
     7:
     0.400,0.374,0.313,0.271,0.013: // measure 1
1000
0000
0010
0000
1000
0000
0000
0001
0000
0000
0100
0000
0001
0000
0100
0000
,  // measure 2
0002
1000
0200
0303
,  // measure 3
1000
0010
1000
0000
0001
0010
0001
0000
,  // measure 4
1000
0000
0100
0000
0010
0100
0010
0000
,  // measure 5
0001
0000
0100
0000
0010
0000
0000
1000
0000
0000
0010
0000
0100
0000
0001
0000
,  // measure 6
2000
0010
0002
3003
,  // measure 7
0202
0000
0000
0000
0303
0000
0000
0000
1000
0010
1000
0000
0001
0000
1000
0000
,  // measure 8
0200
0001
2000
3300
,  // measure 9
0011
0000
0101
0000
1000
0010
0100
0001
,  // measure 10
1000
0100
0010
0001
0100
0000
0001
0000
,  // measure 11
1000
0100
0010
0001
0000
0011
0000
0010
,  // measure 12
0100
1000
0010
1000
0000
1010
0000
0010
,  // measure 13
0100
0000
0010
1000
0010
0000
0100
0001
,  // measure 14
1000
0001
1000
0100
0010
0000
0001
0000
,  // measure 15
1000
0010
0100
0001
0000
0101
0000
0100
,  // measure 16
0110
0000
0010
1000
2002
0000
3003
0000
,  // measure 17
0101
0001
1000
0100
2000
0000
3010
0100
,  // measure 18
0002
0010
2000
3003
,  // measure 19
1010
1100
1010
1100
,  // measure 20
0011
0000
0001
0100
0010
0000
1000
0000
,  // measure 21
0001
0100
0010
0100
0002
0000
1003
0100
,  // measure 22
0020
0100
0002
0033
,  // measure 23
1100
0101
1100
1010
,  // measure 24
0110
0000
0001
0100
0001
0000
0000
0000
,  // measure 25
1000
0010
0100
0001
1000
0100
0010
0001
,  // measure 26
0200
0320
2000
3030
,  // measure 27
0101
1010
1100
0011
,  // measure 28
1001
0000
1000
0100
0010
0000
0000
0000
,  // measure 29
0110
0000
0010
0001
0010
0000
0001
0100
,  // measure 30
0001
0000
1000
0010
1000
0000
0001
0100
,  // measure 31
0002
0010
1000
0100
,  // measure 32
2000
3000
0010
1000
,  // measure 33
0200
0000
0000
0303
,  // measure 34
2020
0000
0000
3030
,  // measure 35
0220
0000
0000
0330
,  // measure 36
1001
0110
0101
1010
,  // measure 37
1000
0100
0001
0100
1000
0100
0010
0100
,  // measure 38
2000
0000
0100
0000
3010
0000
0001
0100
,  // measure 39
0001
0100
0010
1000
0010
1000
0001
0010
,  // measure 40
0001
0010
0100
0100
0100
0000
0000
0000
,  // measure 41
0010
0001
0100
0001
0010
0001
0100
0001
,  // measure 42
0200
0000
1000
0000
0301
0000
0010
1000
,  // measure 43
1100
0110
0011
1001
,  // measure 44
1000
0010
0100
0001
1000
0000
0000
0000
,  // measure 45
0001
0100
0010
0100
0001
1000
0100
0010
,  // measure 46
0100
1000
0001
0000
1001
0000
1000
0010
,  // measure 47
0200
1000
0001
0010
,  // measure 48
0302
0010
1000
0100
,  // measure 49
1003
0100
0010
0001
0100
0010
0100
0010
,  // measure 50
1000
0100
1000
0001
0010
0000
0001
0100
,  // measure 51
0002
0010
1000
0100
,  // measure 52
2003
0010
0001
3100
,  // measure 53
0110
0000
0000
0000
;

//---------------dance-single - ----------------
#NOTES:
     dance-single:
     :
     Medium:
     4:
     0.282,0.286,0.119,0.068,0.000: // measure 1
1000
0000
0001
0000
1000
0000
0010
1000
,  // measure 2
0010
1000
0100
0000
,  // measure 3
0010
0001
0010
0000
,  // measure 4
0100
1000
0100
0000
,  // measure 5
0010
0000
0001
0000
1000
0000
0001
0100
,  // measure 6
0001
1000
0001
0000
,  // measure 7
1000
0100
1000
0001
,  // measure 8
0100
0001
0100
0001
0000
0000
0000
0000
,  // measure 9
1000
0100
0010
0001
,  // measure 10
0100
0010
0110
0000
,  // measure 11
0010
1000
0010
1000
0000
0001
0000
0010
,  // measure 12
0001
0010
0001
0010
0000
0001
0000
0001
,  // measure 13
1000
0001
1000
0001
,  // measure 14
0100
0010
0110
0000
,  // measure 15
0010
0100
0010
0100
0000
0001
0000
1000
,  // measure 16
0001
0000
1000
0100
1000
0000
0000
0000
,  // measure 17
1001
0000
1000
0000
0100
0000
0010
0001
,  // measure 18
0010
0001
0100
0000
,  // measure 19
0001
0001
0100
0100
,  // measure 20
0010
0000
0100
0010
0100
0000
0000
0000
,  // measure 21
0010
0000
1000
0010
1000
0000
0001
0100
,  // measure 22
0001
1000
0100
0010
,  // measure 23
0100
0100
1000
1000
,  // measure 24
0001
0000
1000
0001
1000
0000
0000
0000
,  // measure 25
0110
0000
0100
0000
0001
0000
0010
0001
,  // measure 26
0010
0001
1000
0000
,  // measure 27
0001
1000
0001
1000
,  // measure 28
0010
0000
1000
0010
1000
0000
0000
0000
,  // measure 29
0001
0010
0001
1000
,  // measure 30
0010
1000
0001
0100
0000
0000
0001
0100
,  // measure 31
0001
0100
0010
1000
,  // measure 32
0200
0000
1000
1300
,  // measure 33
2200
0000
0000
3300
,  // measure 34
0022
0000
0000
0033
,  // measure 35
0202
0000
0000
0303
,  // measure 36
2000
0010
0001
3100
,  // measure 37
1000
0100
0010
0001
,  // measure 38
0011
0000
0101
0000
1010
0000
1000
0010
,  // measure 39
1000
0001
0100
0001
,  // measure 40
0010
0000
0001
0010
0001
0000
1000
0000
,  // measure 41
0010
0100
0001
0010
,  // measure 42
0001
0000
1000
0000
0010
0000
0100
0001
,  // measure 43
0100
0001
1000
0100
,  // measure 44
0010
0100
1000
0000
,  // measure 45
0001
1000
0010
0100
,  // measure 46
0110
0000
1010
0000
0101
0000
0001
1000
,  // measure 47
0001
1000
0100
0010
,  // measure 48
0001
0000
1000
0010
1000
0000
0001
0000
,  // measure 49
0100
0001
1000
0100
,  // measure 50
0010
0000
0100
0000
1000
0000
0010
0100
,  // measure 51
0010
0100
0001
1000
,  // measure 52
0100
0000
0010
0001
1000
0000
0001
0000
,  // measure 53
1001
0000
0000
0000
;

//---------------dance-single - ----------------
#NOTES:
     dance-single:
     :
     Easy:
     3:
     0.202,0.220,0.017,0.034,0.000: // measure 1
1000
0001
1000
0001
,  // measure 2
0100
0000
0010
0000
,  // measure 3
1000
0100
1000
0000
,  // measure 4
0001
0100
0001
0000
,  // measure 5
1000
0100
1000
0100
,  // measure 6
0010
0000
0001
0000
,  // measure 7
1000
0000
0001
1000
,  // measure 8
0100
0010
0100
0000
,  // measure 9
0010
0000
0001
0000
,  // measure 10
0100
0001
0100
0000
,  // measure 11
0010
1000
0001
0001
,  // measure 12
1000
0100
0010
0010
,  // measure 13
0100
0000
0010
0000
,  // measure 14
0001
1000
0001
0000
,  // measure 15
1000
0010
1000
0000
,  // measure 16
0001
1000
1001
0000
,  // measure 17
1000
0010
0100
0001
,  // measure 18
1000
1000
1000
0000
,  // measure 19
0001
0000
0100
0000
,  // measure 20
0010
0100
0001
0000
,  // measure 21
1000
0100
0010
0001
,  // measure 22
0010
0010
0010
0000
,  // measure 23
0001
0000
0100
0000
,  // measure 24
0010
0100
0001
0000
,  // measure 25
1000
0100
1000
0100
,  // measure 26
0010
0001
0010
0001
,  // measure 27
0100
0000
0001
0000
,  // measure 28
1000
0010
1000
0000
,  // measure 29
0001
0100
0010
1000
,  // measure 30
0010
0100
0001
1000
,  // measure 31
0100
0010
0100
0000
,  // measure 32
0010
0000
0001
1000
,  // measure 33
0002
0000
0000
0000
,  // measure 34
2003
0000
0000
0000
,  // measure 35
3020
0000
0000
0000
,  // measure 36
0230
0000
0000
0000
,  // measure 37
0301
0000
1000
0000
,  // measure 38
0100
0010
0100
0010
,  // measure 39
0001
0001
1000
1000
,  // measure 40
0010
0100
0010
0000
,  // measure 41
1000
0010
0100
0001
,  // measure 42
1000
0010
0100
0000
,  // measure 43
0001
0001
1000
1000
,  // measure 44
0100
0100
0010
0000
,  // measure 45
0100
1000
0100
0010
,  // measure 46
0001
0010
0001
0000
,  // measure 47
1000
0001
1000
0001
,  // measure 48
0100
0001
0100
0000
,  // measure 49
0001
1000
0010
1000
,  // measure 50
0001
0100
0001
1000
,  // measure 51
0100
0010
0001
0100
,  // measure 52
0010
1000
0010
0100
,  // measure 53
0110
0000
0000
0000
;

//---------------dance-single - ----------------
#NOTES:
     dance-single:
     :
     Beginner:
     2:
     0.134,0.154,0.068,0.000,0.000:
1000
0000
0001
0000
,
0100
0100
0100
0000
,
0010
0000
0100
0000
,
0001
0000
1000
0000
,
0001
0000
1000
0000
,
0100
0100
0100
0000
,
1000
0000
0001
0000
,
0010
0000
0100
0000
,
0010
0000
0001
0000
,
1000
0000
0000
0000
,
0001
0000
1000
0000
,
0010
0000
0000
0000
,
0100
0000
0010
0000
,
0100
0000
0000
0000
,
0001
0000
1000
0000
,
0001
0000
1001
0000
,
0110
0000
0000
0000
,
0010
0010
0010
0000
,
1000
0000
0100
0000
,
0010
0000
0001
0000
,
1000
0000
0000
0000
,
0001
0001
0001
0000
,
1000
0000
0010
0000
,
0100
0000
0001
0000
,
0100
0000
0010
0000
,
0100
0100
0100
0000
,
0001
0000
1000
0000
,
0100
0000
0010
0000
,
0001
0000
1000
0000
,
0010
0010
0010
0000
,
0100
0000
0001
0000
,
1000
0000
0000
0000
,
1001
0000
0000
0000
,
1001
0000
0000
0000
,
0110
0000
0000
0000
,
0110
0000
0000
0000
,
1001
0000
1000
0000
,
0100
0000
0010
0000
,
0001
0000
0100
0000
,
0010
0000
1000
0000
,
0001
0000
0001
0000
,
1000
0000
1000
0000
,
0100
0000
0010
0000
,
0100
0000
0010
0000
,
0001
0000
1000
0000
,
0010
0010
0010
0000
,
1000
0000
0100
0000
,
0010
0000
0100
0000
,
0010
0000
0001
0000
,
1000
1000
1000
0000
,
0001
0000
0100
0000
,
0010
0000
1000
0000
,
1001
0000
0000
0000
;

//---------------dance-double - ----------------
#NOTES:
     dance-double:
     :
     Hard:
     1:
     0.000,0.000,0.000,0.000,0.000:
00000000
00000000
00000000
00000000
;

//---------------dance-double - ----------------
#NOTES:
     dance-double:
     :
     Medium:
     1:
     0.000,0.000,0.000,0.000,0.000:
00000000
00000000
00000000
00000000
;

//---------------dance-double - ----------------
#NOTES:
     dance-double:
     :
     Easy:
     1:
     0.000,0.000,0.000,0.000,0.000:
00000000
00000000
00000000
00000000
;
