#TITLE:LISTEN TO YOUR HARDCORE;
#SUBTITLE:;
#ARTIST:ALEX TUNE;
#TITLETRANSLIT:;
#SUBTITLETRANSLIT:;
#ARTISTTRANSLIT:;
#CREDIT:;
#BANNER:LISTEN TO YOUR HARDCORE-bn.PNG;
#BACKGROUND:LISTEN TO YOUR HARDCORE-bg.PNG;
#LYRICSPATH:;
#CDTITLE:./CDTITLES/Dance Dance Revolution MAX 3.PNG;
#MUSIC:LISTEN TO YOUR HARDCORE.mp3;
#OFFSET:-0.020;
#SAMPLESTART:40.540;
#SAMPLELENGTH:19.600;
#SELECTABLE:YES;
#BPMS:0.000=105.000,36.000=52.000,38.000=210.001,94.000=52.000,96.000=210.000,108.000=105.000,110.000=210.000,122.000=105.000,132.000=210.000,228.000=105.000,232.000=210.000,252.000=105.000,254.000=210.000,266.000=105.000,276.000=210.000;
#STOPS:;
#BGCHANGES:8.000=Bubble1R.avi=0.800=1=0=1,
24.000=Crystal1.avi=0.800=0=0=1,
36.000=Bubble1R.avi=1.000=0=0=1,
36.250=Bubble1R.avi=0.900=0=0=1,
36.500=Bubble1R.avi=0.800=0=0=1,
36.750=Bubble1R.avi=0.700=0=0=1,
37.000=Bubble1R.avi=0.600=0=0=1,
37.250=Bubble1R.avi=0.500=0=0=1,
37.500=Bubble1R.avi=0.400=0=0=1,
37.750=Bubble1R.avi=0.300=0=0=1,
38.000=Comets.avi=1.200=0=0=1,
70.000=Fire1.avi=1.200=0=0=1,
94.000=Bubble1R.avi=1.000=0=0=1,
94.250=Bubble1R.avi=0.900=0=0=1,
94.500=Bubble1R.avi=0.800=0=0=1,
94.750=Bubble1R.avi=0.700=0=0=1,
95.000=Bubble1R.avi=0.600=0=0=1,
95.250=Bubble1R.avi=0.500=0=0=1,
95.500=Bubble1R.avi=0.400=0=0=1,
95.750=Bubble1R.avi=0.300=0=0=1,
96.000=A.PNG=1.000=0=0=1,
96.250=B.PNG=1.000=0=0=1,
96.500=A.PNG=1.000=0=0=1,
96.750=B.PNG=1.000=0=0=1,
97.000=A.PNG=1.000=0=0=1,
97.250=B.PNG=1.000=0=0=1,
97.500=A.PNG=1.000=0=0=1,
97.750=B.PNG=1.000=0=0=1,
98.000=A.PNG=1.000=0=0=1,
98.250=B.PNG=1.000=0=0=1,
98.500=A.PNG=1.000=0=0=1,
98.750=B.PNG=1.000=0=0=1,
99.000=A.PNG=1.000=0=0=1,
99.250=B.PNG=1.000=0=0=1,
99.500=A.PNG=1.000=0=0=1,
99.750=B.PNG=1.000=0=0=1,
100.000=A.PNG=1.000=0=0=1,
100.250=B.PNG=1.000=0=0=1,
100.500=A.PNG=1.000=0=0=1,
100.750=B.PNG=1.000=0=0=1,
101.000=A.PNG=1.000=0=0=1,
101.250=B.PNG=1.000=0=0=1,
101.500=A.PNG=1.000=0=0=1,
101.750=B.PNG=1.000=0=0=1,
102.000=A.PNG=1.000=0=0=1,
102.250=B.PNG=1.000=0=0=1,
102.500=A.PNG=1.000=0=0=1,
102.750=B.PNG=1.000=0=0=1,
103.000=A.PNG=1.000=0=0=1,
103.250=B.PNG=1.000=0=0=1,
103.500=A.PNG=1.000=0=0=1,
103.750=B.PNG=1.000=0=0=1,
104.000=A.PNG=1.000=0=0=1,
104.250=B.PNG=1.000=0=0=1,
104.500=A.PNG=1.000=0=0=1,
104.750=B.PNG=1.000=0=0=1,
105.000=A.PNG=1.000=0=0=1,
105.250=B.PNG=1.000=0=0=1,
105.500=A.PNG=1.000=0=0=1,
105.750=B.PNG=1.000=0=0=1,
106.000=A.PNG=1.000=0=0=1,
106.250=B.PNG=1.000=0=0=1,
106.500=A.PNG=1.000=0=0=1,
106.750=B.PNG=1.000=0=0=1,
107.000=A.PNG=1.000=0=0=1,
107.250=B.PNG=1.000=0=0=1,
107.500=A.PNG=1.000=0=0=1,
107.750=B.PNG=1.000=0=0=1,
108.000=A.PNG=1.000=0=0=1,
108.500=B.PNG=1.000=0=0=1,
110.000=A.PNG=1.000=0=0=1,
110.125=B.PNG=1.000=0=0=1,
110.250=A.PNG=1.000=0=0=1,
110.375=B.PNG=1.000=0=0=1,
110.500=A.PNG=1.000=0=0=1,
110.625=B.PNG=1.000=0=0=1,
110.750=A.PNG=1.000=0=0=1,
110.875=B.PNG=1.000=0=0=1,
111.000=A.PNG=1.000=0=0=1,
111.125=B.PNG=1.000=0=0=1,
111.250=A.PNG=1.000=0=0=1,
111.375=B.PNG=1.000=0=0=1,
111.500=A.PNG=1.000=0=0=1,
111.625=B.PNG=1.000=0=0=1,
111.750=A.PNG=1.000=0=0=1,
111.875=B.PNG=1.000=0=0=1,
112.000=A.PNG=1.000=0=0=1,
112.125=B.PNG=1.000=0=0=1,
112.250=A.PNG=1.000=0=0=1,
112.375=B.PNG=1.000=0=0=1,
112.500=A.PNG=1.000=0=0=1,
112.625=B.PNG=1.000=0=0=1,
112.750=A.PNG=1.000=0=0=1,
112.875=B.PNG=1.000=0=0=1,
113.000=A.PNG=1.000=0=0=1,
113.125=B.PNG=1.000=0=0=1,
113.250=A.PNG=1.000=0=0=1,
113.375=B.PNG=1.000=0=0=1,
113.500=A.PNG=1.000=0=0=1,
113.625=B.PNG=1.000=0=0=1,
113.750=A.PNG=1.000=0=0=1,
113.875=B.PNG=1.000=0=0=1,
114.000=A.PNG=1.000=0=0=1,
114.125=B.PNG=1.000=0=0=1,
114.250=A.PNG=1.000=0=0=1,
114.375=B.PNG=1.000=0=0=1,
114.500=A.PNG=1.000=0=0=1,
114.625=B.PNG=1.000=0=0=1,
114.750=A.PNG=1.000=0=0=1,
114.875=B.PNG=1.000=0=0=1,
115.000=A.PNG=1.000=0=0=1,
115.125=B.PNG=1.000=0=0=1,
115.250=A.PNG=1.000=0=0=1,
115.375=B.PNG=1.000=0=0=1,
115.500=A.PNG=1.000=0=0=1,
115.625=B.PNG=1.000=0=0=1,
115.750=A.PNG=1.000=0=0=1,
115.875=B.PNG=1.000=0=0=1,
116.000=A.PNG=1.000=0=0=1,
116.125=B.PNG=1.000=0=0=1,
116.250=A.PNG=1.000=0=0=1,
116.375=B.PNG=1.000=0=0=1,
116.500=A.PNG=1.000=0=0=1,
116.625=B.PNG=1.000=0=0=1,
116.750=A.PNG=1.000=0=0=1,
116.875=B.PNG=1.000=0=0=1,
117.000=A.PNG=1.000=0=0=1,
117.125=B.PNG=1.000=0=0=1,
117.250=A.PNG=1.000=0=0=1,
117.375=B.PNG=1.000=0=0=1,
117.500=A.PNG=1.000=0=0=1,
117.625=B.PNG=1.000=0=0=1,
117.750=A.PNG=1.000=0=0=1,
117.875=B.PNG=1.000=0=0=1,
118.000=A.PNG=1.000=0=0=1,
118.125=B.PNG=1.000=0=0=1,
118.250=A.PNG=1.000=0=0=1,
118.375=B.PNG=1.000=0=0=1,
118.500=A.PNG=1.000=0=0=1,
118.625=B.PNG=1.000=0=0=1,
118.750=A.PNG=1.000=0=0=1,
118.875=B.PNG=1.000=0=0=1,
119.000=A.PNG=1.000=0=0=1,
119.125=B.PNG=1.000=0=0=1,
119.250=A.PNG=1.000=0=0=1,
119.375=B.PNG=1.000=0=0=1,
119.500=A.PNG=1.000=0=0=1,
119.625=B.PNG=1.000=0=0=1,
119.750=A.PNG=1.000=0=0=1,
119.875=B.PNG=1.000=0=0=1,
120.000=A.PNG=1.000=0=0=1,
120.125=B.PNG=1.000=0=0=1,
120.250=A.PNG=1.000=0=0=1,
120.375=B.PNG=1.000=0=0=1,
120.500=A.PNG=1.000=0=0=1,
120.625=B.PNG=1.000=0=0=1,
120.750=A.PNG=1.000=0=0=1,
120.875=B.PNG=1.000=0=0=1,
121.000=A.PNG=1.000=0=0=1,
121.125=B.PNG=1.000=0=0=1,
121.250=A.PNG=1.000=0=0=1,
121.375=B.PNG=1.000=0=0=1,
121.500=A.PNG=1.000=0=0=1,
121.625=B.PNG=1.000=0=0=1,
121.750=A.PNG=1.000=0=0=1,
121.875=B.PNG=1.000=0=0=1,
122.000=A.PNG=1.000=0=0=1,
122.500=B.PNG=1.000=0=0=1,
124.000=A.PNG=1.000=0=0=1,
124.500=B.PNG=1.000=0=0=1,
125.000=A.PNG=1.000=0=0=1,
125.500=B.PNG=1.000=0=0=1,
126.000=A.PNG=1.000=0=0=1,
126.500=B.PNG=1.000=0=0=1,
127.000=A.PNG=1.000=0=0=1,
127.500=B.PNG=1.000=0=0=1,
128.000=A.PNG=1.000=0=0=1,
128.500=B.PNG=1.000=0=0=1,
129.000=A.PNG=1.000=0=0=1,
129.500=B.PNG=1.000=0=0=1,
130.000=A.PNG=1.000=0=0=1,
130.500=B.PNG=1.000=0=0=1,
131.000=A.PNG=1.000=0=0=1,
131.500=B.PNG=1.000=0=0=1,
132.000=A.PNG=1.000=0=0=1,
132.063=B.PNG=1.000=0=0=1,
132.125=A.PNG=1.000=0=0=1,
132.188=B.PNG=1.000=0=0=1,
132.250=A.PNG=1.000=0=0=1,
132.313=B.PNG=1.000=0=0=1,
132.375=A.PNG=1.000=0=0=1,
132.438=B.PNG=1.000=0=0=1,
132.500=A.PNG=1.000=0=0=1,
132.563=B.PNG=1.000=0=0=1,
132.625=A.PNG=1.000=0=0=1,
132.688=B.PNG=1.000=0=0=1,
132.750=A.PNG=1.000=0=0=1,
132.813=B.PNG=1.000=0=0=1,
132.875=A.PNG=1.000=0=0=1,
132.938=B.PNG=1.000=0=0=1,
133.000=A.PNG=1.000=0=0=1,
133.063=B.PNG=1.000=0=0=1,
133.125=A.PNG=1.000=0=0=1,
133.188=B.PNG=1.000=0=0=1,
133.250=A.PNG=1.000=0=0=1,
133.313=B.PNG=1.000=0=0=1,
133.375=A.PNG=1.000=0=0=1,
133.438=B.PNG=1.000=0=0=1,
133.500=A.PNG=1.000=0=0=1,
133.563=B.PNG=1.000=0=0=1,
133.625=A.PNG=1.000=0=0=1,
133.688=B.PNG=1.000=0=0=1,
133.750=A.PNG=1.000=0=0=1,
133.813=B.PNG=1.000=0=0=1,
133.875=A.PNG=1.000=0=0=1,
133.938=B.PNG=1.000=0=0=1,
134.000=A.PNG=1.000=0=0=1,
134.063=B.PNG=1.000=0=0=1,
134.125=A.PNG=1.000=0=0=1,
134.188=B.PNG=1.000=0=0=1,
134.250=A.PNG=1.000=0=0=1,
134.313=B.PNG=1.000=0=0=1,
134.375=A.PNG=1.000=0=0=1,
134.438=B.PNG=1.000=0=0=1,
134.500=A.PNG=1.000=0=0=1,
134.563=B.PNG=1.000=0=0=1,
134.625=A.PNG=1.000=0=0=1,
134.688=B.PNG=1.000=0=0=1,
134.750=A.PNG=1.000=0=0=1,
134.813=B.PNG=1.000=0=0=1,
134.875=A.PNG=1.000=0=0=1,
134.938=B.PNG=1.000=0=0=1,
135.000=A.PNG=1.000=0=0=1,
135.063=B.PNG=1.000=0=0=1,
135.125=A.PNG=1.000=0=0=1,
135.188=B.PNG=1.000=0=0=1,
135.250=A.PNG=1.000=0=0=1,
135.313=B.PNG=1.000=0=0=1,
135.375=A.PNG=1.000=0=0=1,
135.438=B.PNG=1.000=0=0=1,
135.500=A.PNG=1.000=0=0=1,
135.563=B.PNG=1.000=0=0=1,
135.625=A.PNG=1.000=0=0=1,
135.688=B.PNG=1.000=0=0=1,
135.750=A.PNG=1.000=0=0=1,
135.813=B.PNG=1.000=0=0=1,
135.875=A.PNG=1.000=0=0=1,
135.938=B.PNG=1.000=0=0=1,
136.000=A.PNG=1.000=0=0=1,
136.063=B.PNG=1.000=0=0=1,
136.125=A.PNG=1.000=0=0=1,
136.188=B.PNG=1.000=0=0=1,
136.250=A.PNG=1.000=0=0=1,
136.313=B.PNG=1.000=0=0=1,
136.375=A.PNG=1.000=0=0=1,
136.438=B.PNG=1.000=0=0=1,
136.500=A.PNG=1.000=0=0=1,
136.563=B.PNG=1.000=0=0=1,
136.625=A.PNG=1.000=0=0=1,
136.688=B.PNG=1.000=0=0=1,
136.750=A.PNG=1.000=0=0=1,
136.813=B.PNG=1.000=0=0=1,
136.875=A.PNG=1.000=0=0=1,
136.938=B.PNG=1.000=0=0=1,
137.000=A.PNG=1.000=0=0=1,
137.063=B.PNG=1.000=0=0=1,
137.125=A.PNG=1.000=0=0=1,
137.188=B.PNG=1.000=0=0=1,
137.250=A.PNG=1.000=0=0=1,
137.313=B.PNG=1.000=0=0=1,
137.375=A.PNG=1.000=0=0=1,
137.438=B.PNG=1.000=0=0=1,
137.500=A.PNG=1.000=0=0=1,
137.563=B.PNG=1.000=0=0=1,
137.625=A.PNG=1.000=0=0=1,
137.688=B.PNG=1.000=0=0=1,
137.750=A.PNG=1.000=0=0=1,
137.813=B.PNG=1.000=0=0=1,
137.875=A.PNG=1.000=0=0=1,
137.938=B.PNG=1.000=0=0=1,
138.000=A.PNG=1.000=0=0=1,
138.063=B.PNG=1.000=0=0=1,
138.125=A.PNG=1.000=0=0=1,
138.188=B.PNG=1.000=0=0=1,
138.250=A.PNG=1.000=0=0=1,
138.313=B.PNG=1.000=0=0=1,
138.375=A.PNG=1.000=0=0=1,
138.438=B.PNG=1.000=0=0=1,
138.500=A.PNG=1.000=0=0=1,
138.563=B.PNG=1.000=0=0=1,
138.625=A.PNG=1.000=0=0=1,
138.688=B.PNG=1.000=0=0=1,
138.750=A.PNG=1.000=0=0=1,
138.813=B.PNG=1.000=0=0=1,
138.875=A.PNG=1.000=0=0=1,
138.938=B.PNG=1.000=0=0=1,
139.000=A.PNG=1.000=0=0=1,
139.063=B.PNG=1.000=0=0=1,
139.125=A.PNG=1.000=0=0=1,
139.188=B.PNG=1.000=0=0=1,
139.250=A.PNG=1.000=0=0=1,
139.313=B.PNG=1.000=0=0=1,
139.375=A.PNG=1.000=0=0=1,
139.438=B.PNG=1.000=0=0=1,
139.500=A.PNG=1.000=0=0=1,
139.563=B.PNG=1.000=0=0=1,
139.625=A.PNG=1.000=0=0=1,
139.688=B.PNG=1.000=0=0=1,
139.750=A.PNG=1.000=0=0=1,
139.813=B.PNG=1.000=0=0=1,
139.875=A.PNG=1.000=0=0=1,
139.938=B.PNG=1.000=0=0=1,
140.000=A.PNG=1.000=0=0=1,
140.063=B.PNG=1.000=0=0=1,
140.125=A.PNG=1.000=0=0=1,
140.188=B.PNG=1.000=0=0=1,
140.250=A.PNG=1.000=0=0=1,
140.313=B.PNG=1.000=0=0=1,
140.375=A.PNG=1.000=0=0=1,
140.438=B.PNG=1.000=0=0=1,
140.500=A.PNG=1.000=0=0=1,
140.563=B.PNG=1.000=0=0=1,
140.625=A.PNG=1.000=0=0=1,
140.688=B.PNG=1.000=0=0=1,
140.750=A.PNG=1.000=0=0=1,
140.813=B.PNG=1.000=0=0=1,
140.875=A.PNG=1.000=0=0=1,
140.938=B.PNG=1.000=0=0=1,
141.000=A.PNG=1.000=0=0=1,
141.063=B.PNG=1.000=0=0=1,
141.125=A.PNG=1.000=0=0=1,
141.188=B.PNG=1.000=0=0=1,
141.250=A.PNG=1.000=0=0=1,
141.313=B.PNG=1.000=0=0=1,
141.375=A.PNG=1.000=0=0=1,
141.438=B.PNG=1.000=0=0=1,
141.500=A.PNG=1.000=0=0=1,
141.563=B.PNG=1.000=0=0=1,
141.625=A.PNG=1.000=0=0=1,
141.688=B.PNG=1.000=0=0=1,
141.750=A.PNG=1.000=0=0=1,
141.813=B.PNG=1.000=0=0=1,
141.875=A.PNG=1.000=0=0=1,
141.938=B.PNG=1.000=0=0=1,
142.000=A.PNG=1.000=0=0=1,
142.063=B.PNG=1.000=0=0=1,
142.125=A.PNG=1.000=0=0=1,
142.188=B.PNG=1.000=0=0=1,
142.250=A.PNG=1.000=0=0=1,
142.313=B.PNG=1.000=0=0=1,
142.375=A.PNG=1.000=0=0=1,
142.438=B.PNG=1.000=0=0=1,
142.500=A.PNG=1.000=0=0=1,
142.563=B.PNG=1.000=0=0=1,
142.625=A.PNG=1.000=0=0=1,
142.688=B.PNG=1.000=0=0=1,
142.750=A.PNG=1.000=0=0=1,
142.813=B.PNG=1.000=0=0=1,
142.875=A.PNG=1.000=0=0=1,
142.938=B.PNG=1.000=0=0=1,
143.000=A.PNG=1.000=0=0=1,
143.063=B.PNG=1.000=0=0=1,
143.125=A.PNG=1.000=0=0=1,
143.188=B.PNG=1.000=0=0=1,
143.250=A.PNG=1.000=0=0=1,
143.313=B.PNG=1.000=0=0=1,
143.375=A.PNG=1.000=0=0=1,
143.438=B.PNG=1.000=0=0=1,
143.500=A.PNG=1.000=0=0=1,
143.563=B.PNG=1.000=0=0=1,
143.625=A.PNG=1.000=0=0=1,
143.688=B.PNG=1.000=0=0=1,
143.750=A.PNG=1.000=0=0=1,
143.813=B.PNG=1.000=0=0=1,
143.875=A.PNG=1.000=0=0=1,
143.938=B.PNG=1.000=0=0=1,
144.000=A.PNG=1.000=0=0=1,
144.063=B.PNG=1.000=0=0=1,
144.125=A.PNG=1.000=0=0=1,
144.188=B.PNG=1.000=0=0=1,
144.250=A.PNG=1.000=0=0=1,
144.313=B.PNG=1.000=0=0=1,
144.375=A.PNG=1.000=0=0=1,
144.438=B.PNG=1.000=0=0=1,
144.500=A.PNG=1.000=0=0=1,
144.563=B.PNG=1.000=0=0=1,
144.625=A.PNG=1.000=0=0=1,
144.688=B.PNG=1.000=0=0=1,
144.750=A.PNG=1.000=0=0=1,
144.813=B.PNG=1.000=0=0=1,
144.875=A.PNG=1.000=0=0=1,
144.938=B.PNG=1.000=0=0=1,
145.000=A.PNG=1.000=0=0=1,
145.063=B.PNG=1.000=0=0=1,
145.125=A.PNG=1.000=0=0=1,
145.188=B.PNG=1.000=0=0=1,
145.250=A.PNG=1.000=0=0=1,
145.313=B.PNG=1.000=0=0=1,
145.375=A.PNG=1.000=0=0=1,
145.438=B.PNG=1.000=0=0=1,
145.500=A.PNG=1.000=0=0=1,
145.563=B.PNG=1.000=0=0=1,
145.625=A.PNG=1.000=0=0=1,
145.688=B.PNG=1.000=0=0=1,
145.750=A.PNG=1.000=0=0=1,
145.813=B.PNG=1.000=0=0=1,
145.875=A.PNG=1.000=0=0=1,
145.938=B.PNG=1.000=0=0=1,
146.000=A.PNG=1.000=0=0=1,
146.063=B.PNG=1.000=0=0=1,
146.125=A.PNG=1.000=0=0=1,
146.188=B.PNG=1.000=0=0=1,
146.250=A.PNG=1.000=0=0=1,
146.313=B.PNG=1.000=0=0=1,
146.375=A.PNG=1.000=0=0=1,
146.438=B.PNG=1.000=0=0=1,
146.500=A.PNG=1.000=0=0=1,
146.563=B.PNG=1.000=0=0=1,
146.625=A.PNG=1.000=0=0=1,
146.688=B.PNG=1.000=0=0=1,
146.750=A.PNG=1.000=0=0=1,
146.813=B.PNG=1.000=0=0=1,
146.875=A.PNG=1.000=0=0=1,
146.938=B.PNG=1.000=0=0=1,
147.000=A.PNG=1.000=0=0=1,
147.500=B.PNG=1.000=0=0=1,
148.000=Light3.avi=1.000=0=0=1,
180.000=Comets.avi=1.200=0=0=1,
212.000=Fire1.avi=1.200=0=0=1,
228.000=Light3.avi=1.000=0=0=1,
232.000=LISTEN TO YOUR HARDCORE-bg.PNG=1.000=0=0=1,
232.125=LISTEN TO YOUR HARDCORE-bginv.PNG=1.000=0=0=1,
232.250=LISTEN TO YOUR HARDCORE-bg.PNG=1.000=0=0=1,
232.375=LISTEN TO YOUR HARDCORE-bginv.PNG=1.000=0=0=1,
232.500=LISTEN TO YOUR HARDCORE-bg.PNG=1.000=0=0=1,
232.625=LISTEN TO YOUR HARDCORE-bginv.PNG=1.000=0=0=1,
232.750=LISTEN TO YOUR HARDCORE-bg.PNG=1.000=0=0=1,
232.875=LISTEN TO YOUR HARDCORE-bginv.PNG=1.000=0=0=1,
233.000=LISTEN TO YOUR HARDCORE-bg.PNG=1.000=0=0=1,
233.125=LISTEN TO YOUR HARDCORE-bginv.PNG=1.000=0=0=1,
233.250=LISTEN TO YOUR HARDCORE-bg.PNG=1.000=0=0=1,
233.375=LISTEN TO YOUR HARDCORE-bginv.PNG=1.000=0=0=1,
233.500=LISTEN TO YOUR HARDCORE-bg.PNG=1.000=0=0=1,
233.625=LISTEN TO YOUR HARDCORE-bginv.PNG=1.000=0=0=1,
233.750=LISTEN TO YOUR HARDCORE-bg.PNG=1.000=0=0=1,
233.875=LISTEN TO YOUR HARDCORE-bginv.PNG=1.000=0=0=1,
234.000=LISTEN TO YOUR HARDCORE-bg.PNG=1.000=0=0=1,
234.125=LISTEN TO YOUR HARDCORE-bginv.PNG=1.000=0=0=1,
234.250=LISTEN TO YOUR HARDCORE-bg.PNG=1.000=0=0=1,
234.375=LISTEN TO YOUR HARDCORE-bginv.PNG=1.000=0=0=1,
234.500=LISTEN TO YOUR HARDCORE-bg.PNG=1.000=0=0=1,
234.625=LISTEN TO YOUR HARDCORE-bginv.PNG=1.000=0=0=1,
234.750=LISTEN TO YOUR HARDCORE-bg.PNG=1.000=0=0=1,
234.875=LISTEN TO YOUR HARDCORE-bginv.PNG=1.000=0=0=1,
235.000=LISTEN TO YOUR HARDCORE-bg.PNG=1.000=0=0=1,
235.125=LISTEN TO YOUR HARDCORE-bginv.PNG=1.000=0=0=1,
235.250=LISTEN TO YOUR HARDCORE-bg.PNG=1.000=0=0=1,
235.375=LISTEN TO YOUR HARDCORE-bginv.PNG=1.000=0=0=1,
235.500=LISTEN TO YOUR HARDCORE-bg.PNG=1.000=0=0=1,
235.625=LISTEN TO YOUR HARDCORE-bginv.PNG=1.000=0=0=1,
235.750=LISTEN TO YOUR HARDCORE-bg.PNG=1.000=0=0=1,
235.875=LISTEN TO YOUR HARDCORE-bginv.PNG=1.000=0=0=1,
236.000=LISTEN TO YOUR HARDCORE-bg.PNG=1.000=0=0=1,
236.125=LISTEN TO YOUR HARDCORE-bginv.PNG=1.000=0=0=1,
236.250=LISTEN TO YOUR HARDCORE-bg.PNG=1.000=0=0=1,
236.375=LISTEN TO YOUR HARDCORE-bginv.PNG=1.000=0=0=1,
236.500=LISTEN TO YOUR HARDCORE-bg.PNG=1.000=0=0=1,
236.625=LISTEN TO YOUR HARDCORE-bginv.PNG=1.000=0=0=1,
236.750=LISTEN TO YOUR HARDCORE-bg.PNG=1.000=0=0=1,
236.875=LISTEN TO YOUR HARDCORE-bginv.PNG=1.000=0=0=1,
237.000=LISTEN TO YOUR HARDCORE-bg.PNG=1.000=0=0=1,
237.125=LISTEN TO YOUR HARDCORE-bginv.PNG=1.000=0=0=1,
237.250=LISTEN TO YOUR HARDCORE-bg.PNG=1.000=0=0=1,
237.375=LISTEN TO YOUR HARDCORE-bginv.PNG=1.000=0=0=1,
237.500=LISTEN TO YOUR HARDCORE-bg.PNG=1.000=0=0=1,
237.625=LISTEN TO YOUR HARDCORE-bginv.PNG=1.000=0=0=1,
237.750=LISTEN TO YOUR HARDCORE-bg.PNG=1.000=0=0=1,
237.875=LISTEN TO YOUR HARDCORE-bginv.PNG=1.000=0=0=1,
238.000=LISTEN TO YOUR HARDCORE-bg.PNG=1.000=0=0=1,
238.125=LISTEN TO YOUR HARDCORE-bginv.PNG=1.000=0=0=1,
238.250=LISTEN TO YOUR HARDCORE-bg.PNG=1.000=0=0=1,
238.375=LISTEN TO YOUR HARDCORE-bginv.PNG=1.000=0=0=1,
238.500=LISTEN TO YOUR HARDCORE-bg.PNG=1.000=0=0=1,
238.625=LISTEN TO YOUR HARDCORE-bginv.PNG=1.000=0=0=1,
238.750=LISTEN TO YOUR HARDCORE-bg.PNG=1.000=0=0=1,
238.875=LISTEN TO YOUR HARDCORE-bginv.PNG=1.000=0=0=1,
239.000=LISTEN TO YOUR HARDCORE-bg.PNG=1.000=0=0=1,
239.125=LISTEN TO YOUR HARDCORE-bginv.PNG=1.000=0=0=1,
239.250=LISTEN TO YOUR HARDCORE-bg.PNG=1.000=0=0=1,
239.375=LISTEN TO YOUR HARDCORE-bginv.PNG=1.000=0=0=1,
239.500=LISTEN TO YOUR HARDCORE-bg.PNG=1.000=0=0=1,
239.625=LISTEN TO YOUR HARDCORE-bginv.PNG=1.000=0=0=1,
239.750=LISTEN TO YOUR HARDCORE-bg.PNG=1.000=0=0=1,
239.875=LISTEN TO YOUR HARDCORE-bginv.PNG=1.000=0=0=1,
240.000=A.PNG=1.000=0=0=1,
240.250=B.PNG=1.000=0=0=1,
240.500=A.PNG=1.000=0=0=1,
240.750=B.PNG=1.000=0=0=1,
241.000=A.PNG=1.000=0=0=1,
241.250=B.PNG=1.000=0=0=1,
241.500=A.PNG=1.000=0=0=1,
241.750=B.PNG=1.000=0=0=1,
242.000=A.PNG=1.000=0=0=1,
242.250=B.PNG=1.000=0=0=1,
242.500=A.PNG=1.000=0=0=1,
242.750=B.PNG=1.000=0=0=1,
243.000=A.PNG=1.000=0=0=1,
243.250=B.PNG=1.000=0=0=1,
243.500=A.PNG=1.000=0=0=1,
243.750=B.PNG=1.000=0=0=1,
244.000=A.PNG=1.000=0=0=1,
244.250=B.PNG=1.000=0=0=1,
244.500=A.PNG=1.000=0=0=1,
244.750=B.PNG=1.000=0=0=1,
245.000=A.PNG=1.000=0=0=1,
245.250=B.PNG=1.000=0=0=1,
245.500=A.PNG=1.000=0=0=1,
245.750=B.PNG=1.000=0=0=1,
246.000=A.PNG=1.000=0=0=1,
246.250=B.PNG=1.000=0=0=1,
246.500=A.PNG=1.000=0=0=1,
246.750=B.PNG=1.000=0=0=1,
247.000=A.PNG=1.000=0=0=1,
247.250=B.PNG=1.000=0=0=1,
247.500=A.PNG=1.000=0=0=1,
247.750=B.PNG=1.000=0=0=1,
248.000=A.PNG=1.000=0=0=1,
248.250=B.PNG=1.000=0=0=1,
248.500=A.PNG=1.000=0=0=1,
248.750=B.PNG=1.000=0=0=1,
249.000=A.PNG=1.000=0=0=1,
249.250=B.PNG=1.000=0=0=1,
249.500=A.PNG=1.000=0=0=1,
249.750=B.PNG=1.000=0=0=1,
250.000=A.PNG=1.000=0=0=1,
250.250=B.PNG=1.000=0=0=1,
250.500=A.PNG=1.000=0=0=1,
250.750=B.PNG=1.000=0=0=1,
251.000=A.PNG=1.000=0=0=1,
251.250=B.PNG=1.000=0=0=1,
251.500=A.PNG=1.000=0=0=1,
251.750=B.PNG=1.000=0=0=1,
252.000=A.PNG=1.000=0=0=1,
252.500=B.PNG=1.000=0=0=1,
254.000=A.PNG=1.000=0=0=1,
254.125=B.PNG=1.000=0=0=1,
254.250=A.PNG=1.000=0=0=1,
254.375=B.PNG=1.000=0=0=1,
254.500=A.PNG=1.000=0=0=1,
254.625=B.PNG=1.000=0=0=1,
254.750=A.PNG=1.000=0=0=1,
254.875=B.PNG=1.000=0=0=1,
255.000=A.PNG=1.000=0=0=1,
255.125=B.PNG=1.000=0=0=1,
255.250=A.PNG=1.000=0=0=1,
255.375=B.PNG=1.000=0=0=1,
255.500=A.PNG=1.000=0=0=1,
255.625=B.PNG=1.000=0=0=1,
255.750=A.PNG=1.000=0=0=1,
255.875=B.PNG=1.000=0=0=1,
256.000=A.PNG=1.000=0=0=1,
256.125=B.PNG=1.000=0=0=1,
256.250=A.PNG=1.000=0=0=1,
256.375=B.PNG=1.000=0=0=1,
256.500=A.PNG=1.000=0=0=1,
256.625=B.PNG=1.000=0=0=1,
256.750=A.PNG=1.000=0=0=1,
256.875=B.PNG=1.000=0=0=1,
257.000=A.PNG=1.000=0=0=1,
257.125=B.PNG=1.000=0=0=1,
257.250=A.PNG=1.000=0=0=1,
257.375=B.PNG=1.000=0=0=1,
257.500=A.PNG=1.000=0=0=1,
257.625=B.PNG=1.000=0=0=1,
257.750=A.PNG=1.000=0=0=1,
257.875=B.PNG=1.000=0=0=1,
258.000=A.PNG=1.000=0=0=1,
258.125=B.PNG=1.000=0=0=1,
258.250=A.PNG=1.000=0=0=1,
258.375=B.PNG=1.000=0=0=1,
258.500=A.PNG=1.000=0=0=1,
258.625=B.PNG=1.000=0=0=1,
258.750=A.PNG=1.000=0=0=1,
258.875=B.PNG=1.000=0=0=1,
259.000=A.PNG=1.000=0=0=1,
259.125=B.PNG=1.000=0=0=1,
259.250=A.PNG=1.000=0=0=1,
259.375=B.PNG=1.000=0=0=1,
259.500=A.PNG=1.000=0=0=1,
259.625=B.PNG=1.000=0=0=1,
259.750=A.PNG=1.000=0=0=1,
259.875=B.PNG=1.000=0=0=1,
260.000=A.PNG=1.000=0=0=1,
260.125=B.PNG=1.000=0=0=1,
260.250=A.PNG=1.000=0=0=1,
260.375=B.PNG=1.000=0=0=1,
260.500=A.PNG=1.000=0=0=1,
260.625=B.PNG=1.000=0=0=1,
260.750=A.PNG=1.000=0=0=1,
260.875=B.PNG=1.000=0=0=1,
261.000=A.PNG=1.000=0=0=1,
261.125=B.PNG=1.000=0=0=1,
261.250=A.PNG=1.000=0=0=1,
261.375=B.PNG=1.000=0=0=1,
261.500=A.PNG=1.000=0=0=1,
261.625=B.PNG=1.000=0=0=1,
261.750=A.PNG=1.000=0=0=1,
261.875=B.PNG=1.000=0=0=1,
262.000=A.PNG=1.000=0=0=1,
262.125=B.PNG=1.000=0=0=1,
262.250=A.PNG=1.000=0=0=1,
262.375=B.PNG=1.000=0=0=1,
262.500=A.PNG=1.000=0=0=1,
262.625=B.PNG=1.000=0=0=1,
262.750=A.PNG=1.000=0=0=1,
262.875=B.PNG=1.000=0=0=1,
263.000=A.PNG=1.000=0=0=1,
263.125=B.PNG=1.000=0=0=1,
263.250=A.PNG=1.000=0=0=1,
263.375=B.PNG=1.000=0=0=1,
263.500=A.PNG=1.000=0=0=1,
263.625=B.PNG=1.000=0=0=1,
263.750=A.PNG=1.000=0=0=1,
263.875=B.PNG=1.000=0=0=1,
264.000=A.PNG=1.000=0=0=1,
264.125=B.PNG=1.000=0=0=1,
264.250=A.PNG=1.000=0=0=1,
264.375=B.PNG=1.000=0=0=1,
264.500=A.PNG=1.000=0=0=1,
264.625=B.PNG=1.000=0=0=1,
264.750=A.PNG=1.000=0=0=1,
264.875=B.PNG=1.000=0=0=1,
265.000=A.PNG=1.000=0=0=1,
265.125=B.PNG=1.000=0=0=1,
265.250=A.PNG=1.000=0=0=1,
265.375=B.PNG=1.000=0=0=1,
265.500=A.PNG=1.000=0=0=1,
265.625=B.PNG=1.000=0=0=1,
265.750=A.PNG=1.000=0=0=1,
265.875=B.PNG=1.000=0=0=1,
266.000=A.PNG=1.000=0=0=1,
266.500=B.PNG=1.000=0=0=1,
268.000=A.PNG=1.000=0=0=1,
268.500=B.PNG=1.000=0=0=1,
269.000=A.PNG=1.000=0=0=1,
269.500=B.PNG=1.000=0=0=1,
270.000=A.PNG=1.000=0=0=1,
270.500=B.PNG=1.000=0=0=1,
271.000=A.PNG=1.000=0=0=1,
271.500=B.PNG=1.000=0=0=1,
272.000=A.PNG=1.000=0=0=1,
272.500=B.PNG=1.000=0=0=1,
273.000=A.PNG=1.000=0=0=1,
273.500=B.PNG=1.000=0=0=1,
274.000=A.PNG=1.000=0=0=1,
274.500=B.PNG=1.000=0=0=1,
275.000=A.PNG=1.000=0=0=1,
275.500=B.PNG=1.000=0=0=1,
276.000=A.PNG=1.000=0=0=1,
276.063=B.PNG=1.000=0=0=1,
276.125=A.PNG=1.000=0=0=1,
276.188=B.PNG=1.000=0=0=1,
276.250=A.PNG=1.000=0=0=1,
276.313=B.PNG=1.000=0=0=1,
276.375=A.PNG=1.000=0=0=1,
276.438=B.PNG=1.000=0=0=1,
276.500=A.PNG=1.000=0=0=1,
276.563=B.PNG=1.000=0=0=1,
276.625=A.PNG=1.000=0=0=1,
276.688=B.PNG=1.000=0=0=1,
276.750=A.PNG=1.000=0=0=1,
276.813=B.PNG=1.000=0=0=1,
276.875=A.PNG=1.000=0=0=1,
276.938=B.PNG=1.000=0=0=1,
277.000=A.PNG=1.000=0=0=1,
277.063=B.PNG=1.000=0=0=1,
277.125=A.PNG=1.000=0=0=1,
277.188=B.PNG=1.000=0=0=1,
277.250=A.PNG=1.000=0=0=1,
277.313=B.PNG=1.000=0=0=1,
277.375=A.PNG=1.000=0=0=1,
277.438=B.PNG=1.000=0=0=1,
277.500=A.PNG=1.000=0=0=1,
277.563=B.PNG=1.000=0=0=1,
277.625=A.PNG=1.000=0=0=1,
277.688=B.PNG=1.000=0=0=1,
277.750=A.PNG=1.000=0=0=1,
277.813=B.PNG=1.000=0=0=1,
277.875=A.PNG=1.000=0=0=1,
277.938=B.PNG=1.000=0=0=1,
278.000=A.PNG=1.000=0=0=1,
278.063=B.PNG=1.000=0=0=1,
278.125=A.PNG=1.000=0=0=1,
278.188=B.PNG=1.000=0=0=1,
278.250=A.PNG=1.000=0=0=1,
278.313=B.PNG=1.000=0=0=1,
278.375=A.PNG=1.000=0=0=1,
278.438=B.PNG=1.000=0=0=1,
278.500=A.PNG=1.000=0=0=1,
278.563=B.PNG=1.000=0=0=1,
278.625=A.PNG=1.000=0=0=1,
278.688=B.PNG=1.000=0=0=1,
278.750=A.PNG=1.000=0=0=1,
278.813=B.PNG=1.000=0=0=1,
278.875=A.PNG=1.000=0=0=1,
278.938=B.PNG=1.000=0=0=1,
279.000=A.PNG=1.000=0=0=1,
279.063=B.PNG=1.000=0=0=1,
279.125=A.PNG=1.000=0=0=1,
279.188=B.PNG=1.000=0=0=1,
279.250=A.PNG=1.000=0=0=1,
279.313=B.PNG=1.000=0=0=1,
279.375=A.PNG=1.000=0=0=1,
279.438=B.PNG=1.000=0=0=1,
279.500=A.PNG=1.000=0=0=1,
279.563=B.PNG=1.000=0=0=1,
279.625=A.PNG=1.000=0=0=1,
279.688=B.PNG=1.000=0=0=1,
279.750=A.PNG=1.000=0=0=1,
279.813=B.PNG=1.000=0=0=1,
279.875=A.PNG=1.000=0=0=1,
279.938=B.PNG=1.000=0=0=1,
280.000=A.PNG=1.000=0=0=1,
280.063=B.PNG=1.000=0=0=1,
280.125=A.PNG=1.000=0=0=1,
280.188=B.PNG=1.000=0=0=1,
280.250=A.PNG=1.000=0=0=1,
280.313=B.PNG=1.000=0=0=1,
280.375=A.PNG=1.000=0=0=1,
280.438=B.PNG=1.000=0=0=1,
280.500=A.PNG=1.000=0=0=1,
280.563=B.PNG=1.000=0=0=1,
280.625=A.PNG=1.000=0=0=1,
280.688=B.PNG=1.000=0=0=1,
280.750=A.PNG=1.000=0=0=1,
280.813=B.PNG=1.000=0=0=1,
280.875=A.PNG=1.000=0=0=1,
280.938=B.PNG=1.000=0=0=1,
281.000=A.PNG=1.000=0=0=1,
281.063=B.PNG=1.000=0=0=1,
281.125=A.PNG=1.000=0=0=1,
281.188=B.PNG=1.000=0=0=1,
281.250=A.PNG=1.000=0=0=1,
281.313=B.PNG=1.000=0=0=1,
281.375=A.PNG=1.000=0=0=1,
281.438=B.PNG=1.000=0=0=1,
281.500=A.PNG=1.000=0=0=1,
281.563=B.PNG=1.000=0=0=1,
281.625=A.PNG=1.000=0=0=1,
281.688=B.PNG=1.000=0=0=1,
281.750=A.PNG=1.000=0=0=1,
281.813=B.PNG=1.000=0=0=1,
281.875=A.PNG=1.000=0=0=1,
281.938=B.PNG=1.000=0=0=1,
282.000=A.PNG=1.000=0=0=1,
282.063=B.PNG=1.000=0=0=1,
282.125=A.PNG=1.000=0=0=1,
282.188=B.PNG=1.000=0=0=1,
282.250=A.PNG=1.000=0=0=1,
282.313=B.PNG=1.000=0=0=1,
282.375=A.PNG=1.000=0=0=1,
282.438=B.PNG=1.000=0=0=1,
282.500=A.PNG=1.000=0=0=1,
282.563=B.PNG=1.000=0=0=1,
282.625=A.PNG=1.000=0=0=1,
282.688=B.PNG=1.000=0=0=1,
282.750=A.PNG=1.000=0=0=1,
282.813=B.PNG=1.000=0=0=1,
282.875=A.PNG=1.000=0=0=1,
282.938=B.PNG=1.000=0=0=1,
283.000=A.PNG=1.000=0=0=1,
283.063=B.PNG=1.000=0=0=1,
283.125=A.PNG=1.000=0=0=1,
283.188=B.PNG=1.000=0=0=1,
283.250=A.PNG=1.000=0=0=1,
283.313=B.PNG=1.000=0=0=1,
283.375=A.PNG=1.000=0=0=1,
283.438=B.PNG=1.000=0=0=1,
283.500=A.PNG=1.000=0=0=1,
283.563=B.PNG=1.000=0=0=1,
283.625=A.PNG=1.000=0=0=1,
283.688=B.PNG=1.000=0=0=1,
283.750=A.PNG=1.000=0=0=1,
283.813=B.PNG=1.000=0=0=1,
283.875=A.PNG=1.000=0=0=1,
283.938=B.PNG=1.000=0=0=1,
284.000=A.PNG=1.000=0=0=1,
284.063=B.PNG=1.000=0=0=1,
284.125=A.PNG=1.000=0=0=1,
284.188=B.PNG=1.000=0=0=1,
284.250=A.PNG=1.000=0=0=1,
284.313=B.PNG=1.000=0=0=1,
284.375=A.PNG=1.000=0=0=1,
284.438=B.PNG=1.000=0=0=1,
284.500=A.PNG=1.000=0=0=1,
284.563=B.PNG=1.000=0=0=1,
284.625=A.PNG=1.000=0=0=1,
284.688=B.PNG=1.000=0=0=1,
284.750=A.PNG=1.000=0=0=1,
284.813=B.PNG=1.000=0=0=1,
284.875=A.PNG=1.000=0=0=1,
284.938=B.PNG=1.000=0=0=1,
285.000=A.PNG=1.000=0=0=1,
285.063=B.PNG=1.000=0=0=1,
285.125=A.PNG=1.000=0=0=1,
285.188=B.PNG=1.000=0=0=1,
285.250=A.PNG=1.000=0=0=1,
285.313=B.PNG=1.000=0=0=1,
285.375=A.PNG=1.000=0=0=1,
285.438=B.PNG=1.000=0=0=1,
285.500=A.PNG=1.000=0=0=1,
285.563=B.PNG=1.000=0=0=1,
285.625=A.PNG=1.000=0=0=1,
285.688=B.PNG=1.000=0=0=1,
285.750=A.PNG=1.000=0=0=1,
285.813=B.PNG=1.000=0=0=1,
285.875=A.PNG=1.000=0=0=1,
285.938=B.PNG=1.000=0=0=1,
286.000=A.PNG=1.000=0=0=1,
286.063=B.PNG=1.000=0=0=1,
286.125=A.PNG=1.000=0=0=1,
286.188=B.PNG=1.000=0=0=1,
286.250=A.PNG=1.000=0=0=1,
286.313=B.PNG=1.000=0=0=1,
286.375=A.PNG=1.000=0=0=1,
286.438=B.PNG=1.000=0=0=1,
286.500=A.PNG=1.000=0=0=1,
286.563=B.PNG=1.000=0=0=1,
286.625=A.PNG=1.000=0=0=1,
286.688=B.PNG=1.000=0=0=1,
286.750=A.PNG=1.000=0=0=1,
286.813=B.PNG=1.000=0=0=1,
286.875=A.PNG=1.000=0=0=1,
286.938=B.PNG=1.000=0=0=1,
287.000=A.PNG=1.000=0=0=1,
287.063=B.PNG=1.000=0=0=1,
287.125=A.PNG=1.000=0=0=1,
287.188=B.PNG=1.000=0=0=1,
287.250=A.PNG=1.000=0=0=1,
287.313=B.PNG=1.000=0=0=1,
287.375=A.PNG=1.000=0=0=1,
287.438=B.PNG=1.000=0=0=1,
287.500=A.PNG=1.000=0=0=1,
287.563=B.PNG=1.000=0=0=1,
287.625=A.PNG=1.000=0=0=1,
287.688=B.PNG=1.000=0=0=1,
287.750=A.PNG=1.000=0=0=1,
287.813=B.PNG=1.000=0=0=1,
287.875=A.PNG=1.000=0=0=1,
287.938=B.PNG=1.000=0=0=1,
288.000=A.PNG=1.000=0=0=1,
288.063=B.PNG=1.000=0=0=1,
288.125=A.PNG=1.000=0=0=1,
288.188=B.PNG=1.000=0=0=1,
288.250=A.PNG=1.000=0=0=1,
288.313=B.PNG=1.000=0=0=1,
288.375=A.PNG=1.000=0=0=1,
288.438=B.PNG=1.000=0=0=1,
288.500=A.PNG=1.000=0=0=1,
288.563=B.PNG=1.000=0=0=1,
288.625=A.PNG=1.000=0=0=1,
288.688=B.PNG=1.000=0=0=1,
288.750=A.PNG=1.000=0=0=1,
288.813=B.PNG=1.000=0=0=1,
288.875=A.PNG=1.000=0=0=1,
288.938=B.PNG=1.000=0=0=1,
289.000=A.PNG=1.000=0=0=1,
289.063=B.PNG=1.000=0=0=1,
289.125=A.PNG=1.000=0=0=1,
289.188=B.PNG=1.000=0=0=1,
289.250=A.PNG=1.000=0=0=1,
289.313=B.PNG=1.000=0=0=1,
289.375=A.PNG=1.000=0=0=1,
289.438=B.PNG=1.000=0=0=1,
289.500=A.PNG=1.000=0=0=1,
289.563=B.PNG=1.000=0=0=1,
289.625=A.PNG=1.000=0=0=1,
289.688=B.PNG=1.000=0=0=1,
289.750=A.PNG=1.000=0=0=1,
289.813=B.PNG=1.000=0=0=1,
289.875=A.PNG=1.000=0=0=1,
289.938=B.PNG=1.000=0=0=1,
290.000=A.PNG=1.000=0=0=1,
290.063=B.PNG=1.000=0=0=1,
290.125=A.PNG=1.000=0=0=1,
290.188=B.PNG=1.000=0=0=1,
290.250=A.PNG=1.000=0=0=1,
290.313=B.PNG=1.000=0=0=1,
290.375=A.PNG=1.000=0=0=1,
290.438=B.PNG=1.000=0=0=1,
290.500=A.PNG=1.000=0=0=1,
290.563=B.PNG=1.000=0=0=1,
290.625=A.PNG=1.000=0=0=1,
290.688=B.PNG=1.000=0=0=1,
290.750=A.PNG=1.000=0=0=1,
290.813=B.PNG=1.000=0=0=1,
290.875=A.PNG=1.000=0=0=1,
290.938=B.PNG=1.000=0=0=1,
291.000=A.PNG=1.000=0=0=1,
291.500=B.PNG=1.000=0=0=1,
292.000=A.PNG=1.000=0=0=1,
293.000=LISTEN TO YOUR HARDCORE-bg.PNG=1.000=1=0=1,
99999=-nosongbg-=1.000=0=0=0 // don't automatically add -songbackground-
;

//---------------dance-double - xRGTMx----------------
#NOTES:
     dance-double:
     xRGTMx:
     Hard:
     10:
     0.965,1.000,0.616,0.384,0.683:
00000000
00000000
00000000
00000000
,
00000000
00000000
00000000
00000000
,
10010000
10000000
00100000
01000000
00000000
01010000
00000000
00010000
,
10000000
00000000
11000000
00120000
00000000
01000000
01000000
01030000
,
00010000
01000000
00010000
00100000
00001000
00100000
00002000
00000000
00000000
00000000
01000000
00000000
01000000
00000000
01003000
00000000
,
01001000
00000000
01000000
00000000
01100000
00000000
00210000
00000000
00000000
00310000
00001000
00000000
00011000
00000000
01100000
00000000
,
01001000
00001000
00100000
00010000
00000000
01010000
00000000
01000000
,
00001000
00000000
00011000
02100000
00000000
00010000
00010000
03010000
,
00010000
00000100
00010000
00001000
00100000
00001000
00200000
00000000
00000000
00000000
00000100
00000000
00000100
00000000
00300100
00000000
,
00200200
00000000
00000000
00300300
00100000
00001000
00010000
00000100
,
00010000
00000100
00100000
00010000
00100000
00010000
00001000
00000100
,
00100000
00000000
00001000
00000000
00010000
00000100
00010000
00000100
00010000
00000000
00001000
00000000
00100000
00000000
00000100
00000000
,
00010000
00001000
00000010
00001000
00010000
00000100
00001000
00000010
,
00010000
00000000
00000010
00000000
00001000
00000100
00001000
00000100
00010000
00000000
00001000
00000000
00000100
00000000
00000010
00000000
,
00000100
00000010
00010000
00000100
00010000
00000100
00001000
00000010
,
00010000
00000000
00001000
00000000
00000100
00000010
00000100
00000010
00000100
00000000
00001000
00000000
00010000
00000000
00000010
00000000
,
00001000
00000010
00000001
00000010
00001000
00000100
00000010
00000001
,
00001000
00000000
00000001
00000000
00000010
00000100
00000010
00000100
00001000
00000000
00000100
00000000
00000110
00000000
00000010
00000000
,
00000001
00000100
00000110
00000010
00001000
00000010
00000110
00000100
,
00000001
00000010
00000110
00000100
00001000
00000010
00001010
00000010
,
00000010
00000100
00000110
00000100
00010000
00001000
00011000
00001000
,
00000010
00001000
00001010
00001000
00010000
00001000
00010000
00001000
,
00000100
00000010
00000100
00000010
00010000
00001000
00000100
00000010
,
00010000
00001000
00000100
00000010
00010010
00000000
00000000
00000000
,
00100200
00100000
00100000
00100000
00100000
00100000
00100000
00200300
,
00000100
00000100
00000100
00000100
00000100
00000100
00000100
00300200
,
00010000
00010000
00010000
00020300
00001000
00001000
00001000
00031000
,
00100000
00000000
00000000
00000000
00000000
00000000
00000000
00000000
00100000
00000100
00100000
00000100
00100000
00000100
00100000
00000100
,
01000000
00001000
01000000
00001000
01000000
00001000
01000000
00001000
00100000
00010000
00100000
00010000
00100000
00010000
00100000
00010000
,
00100000
00010000
00100000
00010000
00100000
00010000
00100000
00010000
01000000
00001000
01000000
00001000
01000000
00001000
01000000
00001000
,
00100000
00010000
00100000
00010000
00100000
00010000
00100000
00010000
02000000
00000000
00000000
00000000
00000000
00000000
03000000
00000000
,
02001000
03000000
01002000
00003000
00210000
00300000
00120000
00030000
,
20010000
30000000
10020000
00030000
02100000
03000000
01200000
00300000
,
10000000
00010000
10000000
00010000
10000000
00010000
10000000
00010000
10000000
00010000
10000000
00010000
10000000
00010000
10000000
00010000
,
01000000
00100000
01000000
00100000
01000000
00100000
01000000
00100000
01000000
00100000
01000000
00100000
01000000
00100000
01000000
00100000
,
10000000
00010000
10000000
00010000
10000000
00010000
10000000
00010000
10000000
00010000
10000000
00010000
10000000
00010000
10000000
00010000
,
00100000
00010000
00100000
00010000
00100000
00010000
00100000
00010000
00100000
00010000
00100000
00010000
00200000
00000000
00000000
00300000
,
01010000
01100000
00011000
00101000
,
00012000
01000000
00103000
00011000
,
02100000
03010000
00101000
00012000
,
00103000
00101000
00010100
00101000
,
00100000
00010000
00001000
00000100
00001000
00000100
00200000
00000000
,
00301000
00010100
00101000
00010100
,
00100000
00010000
00101000
00010100
,
00000100
00000000
00000000
00000000
00001000
00010000
00001000
00010000
00000200
00000000
00000000
00000000
00001300
00000010
00001000
00000010
,
00000100
00001000
00000100
00001000
00010000
00001000
00000100
00000010
,
00010000
00000100
00001000
00000010
00010000
00000010
00001000
00000100
,
00010000
00001000
00000100
00000010
00001000
00010000
00001000
00000010
,
00000010
00000000
00000100
00000000
00001000
00000000
00000010
00000000
00000100
00000000
00000001
00000000
00001000
00000100
00001000
00000100
,
00000010
00000001
00000100
00000001
00000010
00000100
00001000
00000010
,
00000100
00000001
00001000
00000001
00000010
00000100
00001000
00000010
,
00000100
00000100
00000001
00000001
00001000
00000100
00000012
00000000
,
00001003
00000000
00000000
00000000
00000100
00010000
00000100
00010000
00000010
00001000
00000010
00001000
00000200
00000000
00000000
00000000
,
00001300
00000100
00010100
00010000
00001000
00000100
00000110
00000010
,
00001000
00000100
00010100
00010000
00001000
00000100
00000110
00000010
,
00001000
00000010
00010010
00010000
00001000
00010000
00010010
00000010
,
00001000
00000000
00000100
00000000
00100000
00000000
00100000
00000000
00001000
00100000
00001000
00100000
00000100
00010000
00000100
00010000
,
00001000
00110000
00001000
00010100
00010000
00101000
00010000
00001100
,
00100000
00010000
00100000
00010000
00100000
00010000
00100000
00010000
00100000
00010000
00100000
00010000
00100000
00010000
00100000
00010000
,
00001000
00000100
00001000
00000100
00001000
00000100
00001000
00000100
00001000
00000100
00001000
00000100
00001000
00000100
00001000
00000200
,
00100000
00100000
00100000
00100000
00100000
00100000
00100000
00200300
,
00000100
00000100
00000100
00000100
00000100
00000100
00000100
00300200
,
00010000
00010000
00010000
00020300
00001000
00001000
00001000
00031000
,
00100000
00000000
00000000
00000000
00000000
00000000
00000000
00000000
00100000
00000100
00100000
00000100
00100000
00000100
00100000
00000100
,
01000000
00001000
01000000
00001000
01000000
00001000
01000000
00001000
00100000
00010000
00100000
00010000
00100000
00010000
00100000
00010000
,
00100000
00010000
00100000
00010000
00100000
00010000
00100000
00010000
01000000
00001000
01000000
00001000
01000000
00001000
01000000
00001000
,
00100000
00010000
00100000
00010000
00100000
00010000
00100000
00010000
01000000
00000000
00000000
00000000
00000000
00000000
00000000
00000000
,
02001000
03000000
01002000
00003000
00210000
00300000
00120000
00030000
,
20010000
30000000
10020000
00030000
02100000
03000000
01200000
00300000
,
10000000
00010000
10000000
00010000
10000000
00010000
10000000
00010000
10000000
00010000
10000000
00010000
10000000
00010000
10000000
00010000
,
01000000
00100000
01000000
00100000
01000000
00100000
01000000
00100000
01000000
00100000
01000000
00100000
01000000
00100000
01000000
00100000
,
10000000
00010000
10000000
00010000
10000000
00010000
10000000
00010000
10000000
00010000
10000000
00010000
10000000
00010000
10000000
00010000
,
00100000
00010000
00100000
00010000
00100000
00010000
00100000
00010000
00100000
00010000
00100000
00010000
00200000
00000000
00000000
00300000
,
02002000
00000000
00000000
00000000
,
00000000
00000000
00000000
00000000
,
00000000
00000000
00000000
00000000
,
03003000
00000000
00000000
00000000
;

//---------------dance-single - xRGTMx----------------
#NOTES:
     dance-single:
     xRGTMx:
     Easy:
     8:
     0.541,0.569,0.312,0.125,0.000:
0000
0000
0000
0000
,
0000
0000
0000
0000
,
1000
0001
1000
0001
0000
0100
0000
0010
,
0100
0000
0001
2000
0000
0000
0000
3000
,
0001
0010
0100
1000
0000
0000
0000
0000
,
1001
0000
1000
0001
0000
0001
0100
0000
,
1000
0001
1000
0001
0000
0100
0000
0010
,
0100
0000
0001
2000
0000
0000
0000
3000
,
0001
0010
0100
1000
0000
0000
0000
0000
,
2002
0000
0000
3003
1000
0000
1000
0000
,
0001
0100
0010
0100
,
0001
0000
0010
0100
0010
0000
0100
0000
,
1000
0001
0100
0100
,
0001
0000
1000
0001
1000
0000
0100
0000
,
1000
0010
0100
0001
,
1000
0000
0100
0010
0100
0000
0010
0000
,
0001
0100
0010
1000
,
0001
1000
0001
1000
0001
0000
0001
0000
,
0100
0100
1000
0100
,
0001
0000
1000
0001
1000
0000
1000
0000
,
0100
0000
0100
0000
0001
0000
0100
1000
,
0001
1001
1000
0010
,
0100
0000
0001
0000
1000
0000
0100
0010
,
0100
0000
0010
0002
2000
0000
0000
3003
,
1000
0001
1000
0001
1000
0001
1000
0001
,
1000
0001
1000
0001
1000
0001
1000
0001
,
1000
0001
1000
0001
1000
0001
1000
0001
,
1000
0000
0000
0000
0001
1000
0001
1000
,
0001
1000
0001
1000
0001
1000
0001
1000
,
0001
1000
0001
1000
0001
1000
0001
1000
,
0001
1000
0001
1000
0001
0000
0000
0000
,
1100
0110
0011
1001
,
1010
0110
0101
1001
,
1000
1000
0001
0001
1000
1000
0001
0001
,
1000
1000
0001
0001
1000
1000
0001
0001
,
1000
1000
0001
0001
1000
1000
0001
0001
,
1000
0000
1000
0000
0001
0000
0001
0000
1000
0000
1000
0000
0020
0000
0000
0030
,
1010
0110
0101
1002
,
1000
0203
0010
0310
,
1010
1000
0100
0011
,
1001
0100
0010
0100
,
0001
0010
0001
0010
0100
1000
0100
0000
,
1000
0010
0100
0001
,
1001
0100
1010
0101
,
1000
0000
0001
0100
0001
0000
1000
0100
,
1000
1000
0001
0010
,
0100
0000
0010
0000
0001
0000
0100
0010
,
0100
0010
1000
0001
,
0010
0000
0010
0000
0001
0000
1000
0001
,
1000
0010
1000
0100
,
0010
0000
0001
0000
1000
0000
0010
0100
,
0010
0100
0001
0010
,
0100
0000
1000
0000
0001
1000
0001
1000
,
0001
0001
0010
0010
,
1000
0000
0010
0000
0001
0000
1000
0001
,
1000
1000
0010
0010
,
0001
0000
0010
1000
0001
0000
1001
0000
,
0000
0110
0000
1100
0000
0110
0000
0011
,
2000
0000
0000
0000
,
3002
0000
0000
0000
,
1003
0001
1000
0001
1000
0001
1000
0001
,
1000
0001
1000
0001
1000
0001
1000
0001
,
1000
0001
1000
0001
1000
0001
1000
0001
,
1000
0000
0000
0000
0001
1000
0001
1000
,
0001
1000
0001
1000
0001
1000
0001
1000
,
0001
1000
0001
1000
0001
1000
0001
1000
,
0001
1000
0001
1000
0001
0000
0000
0000
,
1010
0110
0101
1001
,
1100
0110
0011
1001
,
1000
1000
0001
0001
1000
1000
0001
0001
,
1000
1000
0001
0001
1000
1000
0001
0001
,
1000
1000
0001
0001
1000
1000
0001
0001
,
1000
0000
1000
0000
0001
0000
0001
0000
1000
0000
1000
0000
0020
0000
0000
0030
,
2002
0000
0000
0000
,
0000
0000
0000
0000
,
3003
0000
0000
0000
;

//---------------dance-single - xRGTMx----------------
#NOTES:
     dance-single:
     xRGTMx:
     Medium:
     9:
     0.676,0.669,0.687,0.125,0.054:
0000
0000
0000
0000
,
0000
0000
0000
0000
,
1010
1000
0001
0010
0000
1100
0000
0010
,
0001
0000
1000
0120
0000
0100
0100
0130
,
0010
1000
0010
0000
0100
0001
0100
0000
0000
0000
0000
0000
0000
0000
0000
0000
,
1001
0000
0000
0000
0010
0000
0100
0000
0000
0100
0001
0000
1000
0000
0000
0000
,
0011
0001
1000
0010
0000
0101
0000
0010
,
1000
0000
0001
0120
0000
0100
0100
0130
,
0010
0001
0010
0000
0100
1000
0100
0000
0000
0000
0000
0000
0000
0000
0000
0000
,
2002
0000
0000
0000
0000
0000
0000
3003
1000
0000
0100
0000
0010
0000
0000
0000
,
0001
0100
0010
0000
1000
0010
0100
0001
,
1000
0000
1001
0000
1000
0001
0100
0000
,
0010
0100
0001
0000
1000
0100
0010
0001
,
0100
0000
1010
0000
0100
0001
1000
0000
,
0100
1000
0010
0000
0100
0010
1000
0100
,
0010
0000
0011
0000
0100
1000
0001
0000
,
0100
0010
1000
0000
0001
0010
0100
1000
,
0010
0100
0001
1000
1100
0000
0010
0000
,
0101
0010
1100
0110
,
0011
0000
1001
0000
0010
0100
0010
1000
,
0100
0010
0001
1000
0001
0000
1100
0000
,
0001
1000
0001
0100
0110
0000
0101
0000
,
1100
0000
0101
0000
1010
0000
0100
0001
,
0010
0000
0100
0000
1000
0000
0001
0000
2002
0000
0000
0000
0000
0000
0000
3003
,
1001
1000
0001
1000
0001
1000
0001
1000
,
0001
1000
0001
1000
0001
1000
0001
1000
,
0001
1000
0001
1000
0001
1000
0001
1000
,
1001
0000
0000
0000
0110
0010
0100
0010
,
0100
0010
0100
0010
0100
0010
0100
0010
,
0100
0010
0100
0010
0100
0010
0100
0010
,
0100
0010
0100
0010
0110
0000
0000
0000
,
1001
0110
1001
0110
,
1001
0110
1001
0110
,
1001
1000
0001
1000
0001
1000
0001
1000
,
0010
0100
0010
0100
0010
0100
0010
0100
,
0001
1000
0001
1000
0001
1000
0001
1000
,
0100
0010
0100
0010
0100
0010
0200
0000
,
0310
0011
0101
2010
,
0001
0100
3010
0011
,
2100
3001
0101
2010
,
0100
0010
0100
3001
,
1000
0100
0010
0001
0100
1000
0200
0000
,
0010
1000
0001
1300
,
0101
0010
1100
0011
,
1001
0000
0000
0000
1000
0010
0000
0010
1000
0000
0000
0000
0001
0010
0000
0010
,
0001
0100
0010
0000
1000
0100
0010
0000
,
0001
0010
0100
1000
0001
0000
1001
0000
,
0001
1000
0100
0000
0010
0100
1000
0000
,
0001
0100
0010
1000
0100
0000
0011
0000
,
0100
1000
0001
0000
0100
0001
0010
0000
,
0100
0010
0001
0100
0010
0000
1010
0000
,
0200
0010
0010
0301
,
0000
0000
0000
0000
1000
0100
0010
0000
0001
0010
0001
0010
0001
0000
0000
0000
,
0101
0010
0101
0010
,
0101
0110
1010
1001
,
0010
0100
0010
0001
0100
0010
1000
0001
,
1000
0000
0101
0000
1000
0001
1000
0100
,
1000
0110
0001
0110
1000
0110
0001
0110
,
1000
0100
0010
0001
0100
0010
1000
0001
,
1000
0010
0100
0001
0010
0100
1000
0001
,
1001
1000
0001
1000
0001
1000
0001
1000
,
0001
1000
0001
1000
0001
1000
0001
1000
,
0001
1000
0001
1000
0001
1000
0001
1000
,
1001
0000
0000
0000
0110
0010
0100
0010
,
0100
0010
0100
0010
0100
0010
0100
0010
,
0100
0010
0100
0010
0100
0010
0100
0010
,
0100
0010
0100
0010
0110
0000
0000
0000
,
1001
0110
1001
0110
,
1001
0110
1001
0110
,
1001
1000
0001
1000
0001
1000
0001
1000
,
0010
0100
0010
0100
0010
0100
0010
0100
,
0001
1000
0001
1000
0001
1000
0001
1000
,
0100
0010
0100
0010
0100
0010
0110
0000
,
2002
0000
0000
0000
,
0000
0000
0000
0000
,
3003
0000
0000
0000
;

//---------------dance-single - xRGTMx----------------
#NOTES:
     dance-single:
     xRGTMx:
     Hard:
     10:
     0.842,1.000,0.518,0.143,0.353: // measure 1
0000
0000
0000
0000
,  // measure 2
0000
0000
0000
0000
,  // measure 3
1100
0010
0001
1000
0000
1010
0000
0001
,  // measure 4
1100
0000
0010
0102
0000
1000
1000
1003
,  // measure 5
1000
0100
0010
0001
0010
0100
1000
0000
0000
0000
0010
0000
0100
0000
0001
0000
,  // measure 6
1001
0000
0100
0000
0010
0000
1001
0000
0000
1000
0200
0000
0010
0000
0310
0000
,  // measure 7
0011
0100
1000
0001
0000
0101
0000
1000
,  // measure 8
0011
0000
0100
2010
0000
0001
0001
3001
,  // measure 9
0001
0010
0100
1000
0100
0010
0001
0000
0000
0000
0100
0000
0010
0000
1000
0000
,  // measure 10
2002
0000
0000
0000
0000
0000
0000
3003
1000
0000
0100
0000
1000
0000
0100
0000
,  // measure 11
0010
0001
0100
0010
1000
0001
1000
0001
,  // measure 12
0100
0001
0010
0100
1000
0010
0100
0010
,  // measure 13
0100
0001
1000
0100
0001
0100
1000
0001
,  // measure 14
0100
1000
0100
0001
1000
0010
1000
0010
,  // measure 15
0100
0001
0010
0100
1000
0001
1000
0001
,  // measure 16
0010
0001
0100
0010
1000
0100
0010
0100
,  // measure 17
0010
0001
1000
0010
0001
0010
1000
0001
,  // measure 18
0010
1000
0010
0001
1000
1000
0001
0100
,  // measure 19
0010
0010
0100
0001
1000
1000
0100
0010
,  // measure 20
0001
0001
0100
0010
0100
0100
0001
1000
,  // measure 21
0100
0100
0010
0100
1000
1000
0010
0100
,  // measure 22
0001
0001
1000
0100
0010
0010
0100
0100
,  // measure 23
1000
0001
0100
0010
1000
1000
0001
0001
,  // measure 24
1000
0100
0010
0001
2002
0000
0000
3003
,  // measure 25
1001
1000
0001
1000
0001
1000
0001
1000
,  // measure 26
1001
0001
1000
0001
1000
0001
1000
0001
,  // measure 27
1001
1000
0001
1000
1001
0001
1000
0001
,  // measure 28
1001
0000
0000
0000
0000
0000
0000
0000
1000
0001
1000
0000
0001
0000
1000
0000
,  // measure 29
0001
1000
0001
0000
1000
0000
0001
0000
1000
0001
1000
0000
0001
0000
1000
0000
,  // measure 30
0001
1000
0001
0000
1000
0000
0001
0000
1000
0001
1000
0000
0001
0000
1000
0000
,  // measure 31
0001
1000
0001
0000
1000
0000
0001
0000
1001
0000
0000
0000
0000
0000
0000
0000
,  // measure 32
1001
0100
1010
0100
1001
0100
0011
0100
,  // measure 33
1001
0010
1100
0010
1001
0010
0101
0010
,  // measure 34
1000
0001
1000
0001
1000
0000
1000
0000
0001
1000
0001
1000
0001
0000
0001
0000
,  // measure 35
1000
0001
1000
0001
1000
0000
1000
0000
0001
1000
0001
1000
0001
0000
0001
0000
,  // measure 36
1000
0001
1000
0001
1000
0000
1000
0000
0001
1000
0001
1000
0001
0000
0001
0000
,  // measure 37
1000
0001
1000
0001
1000
0000
0001
1000
0001
1000
0001
1000
0002
0000
0000
0003
,  // measure 38
1010
0101
0011
2100
,  // measure 39
3010
0102
1003
0011
,  // measure 40
1200
0310
1100
0102
,  // measure 41
0010
0100
1000
0013
,  // measure 42
0100
0010
1000
0001
0100
1000
0200
0000
,  // measure 43
0001
0010
1000
0310
,  // measure 44
0101
0010
1100
0012
,  // measure 45
1000
0000
0000
0000
0013
0100
0010
0100
1000
0000
0000
0000
0001
1000
0001
1000
,  // measure 46
0001
0100
0001
0100
0010
1000
0100
0010
,  // measure 47
0001
1000
0001
1000
0100
1000
0010
0100
,  // measure 48
0001
0010
0100
0010
0100
1000
0001
0100
,  // measure 49
1000
0100
0001
1000
0100
0001
0100
1000
,  // measure 50
0001
0010
0001
0010
0100
1000
0010
0100
,  // measure 51
0001
1000
0001
1000
0010
1000
0100
0010
,  // measure 52
0001
0100
0010
0100
0010
1000
1001
0000
,  // measure 53
0000
0000
0000
0000
0010
1000
0100
0010
0001
0100
0010
1000
0100
0000
0000
0000
,  // measure 54
0001
0001
1000
0100
0010
0010
0100
1000
,  // measure 55
0001
0001
0100
0010
1000
1000
0100
0010
,  // measure 56
0100
0100
1000
0001
0100
0100
0010
0100
,  // measure 57
0001
0000
0001
0000
0010
0000
0100
0000
1000
0100
0010
0001
0100
0010
1000
0010
,  // measure 58
0100
1010
0100
0011
0100
1010
0100
0011
,  // measure 59
1000
0100
1000
0100
1000
0100
1000
0100
1000
0100
1000
0100
1000
0100
1000
0000
,  // measure 60
0001
0010
0001
0010
0001
0010
0001
0010
0001
0010
0001
0010
0001
0010
0001
0000
,  // measure 61
1001
1000
0001
1000
0001
1000
0001
1000
,  // measure 62
1001
0001
1000
0001
1000
0001
1000
0001
,  // measure 63
1001
1000
0001
1000
1001
0001
1000
0001
,  // measure 64
1001
0000
0000
0000
0000
0000
0000
0000
1000
0001
1000
0000
0001
0000
1000
0000
,  // measure 65
0001
1000
0001
0000
1000
0000
0001
0000
1000
0001
1000
0000
0001
0000
1000
0000
,  // measure 66
0001
1000
0001
0000
1000
0000
0001
0000
1000
0001
1000
0000
0001
0000
1000
0000
,  // measure 67
0001
1000
0001
0000
1000
0000
0001
0000
1001
0000
0000
0000
0000
0000
0000
0000
,  // measure 68
1001
0100
1010
0100
1001
0100
0011
0100
,  // measure 69
1001
0010
1100
0010
1001
0010
0101
0010
,  // measure 70
1000
0001
1000
0001
1000
0000
1000
0000
0001
1000
0001
1000
0001
0000
0001
0000
,  // measure 71
1000
0001
1000
0001
1000
0000
1000
0000
0001
1000
0001
1000
0001
0000
0001
0000
,  // measure 72
1000
0001
1000
0001
1000
0000
1000
0000
0001
1000
0001
1000
0001
0000
0001
0000
,  // measure 73
1000
0001
1000
0001
1000
0000
0001
1000
0001
1000
0001
1000
0001
0000
0000
0000
,  // measure 74
2002
0000
0000
0000
,  // measure 75
0000
0000
0000
0000
,  // measure 76
3003
0000
0000
0000
;

//---------------dance-single - xRGTMx----------------
#NOTES:
     dance-single:
     xRGTMx:
     Challenge:
     10:
     0.954,1.000,0.571,0.170,0.723:
0000
0000
0000
0000
,
0000
0000
0000
0000
,
1001
0100
0010
1000
0000
0011
0000
1000
,
2100
0010
3100
1002
0000
1000
0100
1003
,
0001
0100
1000
0001
0100
1000
0001
0000
0000
0000
1000
0000
0010
0000
0001
0000
,
2100
0000
0010
0000
3001
0000
2100
0000
0000
0001
3001
0000
0101
0000
1010
0000
,
1001
0100
0010
0001
0000
1010
0000
0001
,
0102
0010
0103
2001
0000
0001
0100
3001
,
1000
0100
0001
1000
0100
0001
1000
0000
0000
0000
0001
0000
0010
0000
1000
0000
,
2002
0000
0000
0000
0000
0000
0000
3003
0001
0000
0010
0000
0100
0000
1000
0000
,
0001
0100
1000
0100
0001
1000
0100
0010
,
0001
0000
0100
0000
0010
1000
0000
1000
0010
0000
0100
0000
0001
0000
1000
0000
,
0100
0001
0100
1000
0010
0100
0001
1000
,
0100
0000
0010
0000
0100
1000
0100
1000
0010
0000
0100
0000
1000
0000
0100
0000
,
0001
0100
0010
1000
0010
0001
0010
1000
,
0100
0000
0010
0000
0001
1000
0000
1000
0010
0000
1000
0000
0001
0000
1000
0000
,
0100
0001
0100
1000
0010
0100
0001
1000
,
0100
0000
0010
0000
0100
1000
0100
1000
0010
0000
0010
0000
0100
0000
0001
0000
,
1000
1000
0100
0001
0100
0100
1000
0001
,
0100
0000
0100
0000
0010
0100
0000
0100
0001
0000
0100
0000
0010
0000
1000
0000
,
0100
1000
0001
0100
0010
1000
0100
0010
,
0001
0000
0100
0000
0001
1000
0001
1000
0010
0000
0100
0000
0010
0000
1000
0000
,
0100
0010
0001
0100
1000
0100
0001
0010
,
0100
0000
1000
0000
0010
0000
0100
0000
2002
0000
0000
0000
0000
0000
0000
3003
,
1001
1000
0001
1000
1001
0001
1000
0001
,
1001
1000
0001
1000
1001
0001
1000
0001
,
1001
1000
1001
0001
1001
1000
1001
0001
,
1001
0000
0000
0000
0000
0000
0000
0000
1000
0100
1000
0100
1000
0100
1000
0100
,
0010
0100
0010
0100
0010
0100
0010
0100
0010
0001
0010
0001
0010
0001
0010
0001
,
1000
0001
1000
0001
1000
0001
1000
0001
1000
0010
1000
0010
0100
0010
0100
0010
,
0100
0001
0100
0001
1000
0001
1000
0001
1000
0000
0000
0000
0000
0000
0000
0000
,
0011
0010
1010
1000
1100
0100
0101
0001
,
0011
0001
0101
0100
1100
1000
1010
0010
,
1000
0010
1000
0010
1000
0010
1000
0010
0100
0010
0100
0010
0100
0010
0100
0010
,
0100
0001
0100
0001
0100
0001
0100
0001
1000
0001
1000
0001
1000
0001
1000
0001
,
1000
0100
1000
0100
0010
0001
0100
0010
1000
0010
1000
0010
0100
0001
0010
0100
,
1000
0001
1000
0001
1000
0100
0010
0001
0100
0010
1000
0001
1000
0000
0000
0000
,
0011
1010
1100
0102
,
0013
2100
3001
0011
,
1020
0100
0031
2010
,
0100
0001
0010
3100
,
1000
0100
0001
0010
1000
0010
0002
0000
,
0010
1000
0100
0013
,
2100
3010
0101
2100
,
3001
0000
0000
0000
0001
0010
0100
1000
0001
0000
0000
0000
1000
0100
1000
0100
,
1000
0100
0010
0001
1000
0010
0001
0010
,
1000
0000
0001
0000
0010
0000
0100
0000
1000
0000
0010
0000
0100
0001
0000
0001
,
0100
0010
1000
0001
0010
1000
0010
0001
,
0100
0000
0010
0000
1000
0000
0001
0000
0010
0000
0100
0000
0010
0001
0010
0001
,
0100
0010
0001
0010
1000
0010
0100
0001
,
0100
0000
1000
0000
0100
0000
0001
0000
0010
0000
0100
0000
1000
0001
0000
0001
,
0100
0001
1000
0001
0010
1000
0010
0000
,
0000
0000
0000
0000
1000
0100
0010
0001
0100
1000
0100
0001
0010
0000
0000
0000
,
0100
0100
0010
1000
0001
0001
0010
1000
,
0010
0000
0010
0000
0001
0000
1000
0000
0010
0000
0010
0000
0100
0010
0000
0010
,
1000
0010
0100
0001
0010
0001
1000
0010
,
0100
0000
0001
0000
0010
0000
0100
0000
1000
0100
0010
0001
0100
0010
1000
0001
,
0100
0011
1000
0110
0001
1010
0100
0011
,
1000
0100
1000
0100
0010
0001
0010
0001
1000
0010
1000
0010
0100
0001
0100
0001
,
1000
0100
1000
0100
0010
0100
0010
0100
0010
0001
0010
0001
1000
0001
1000
0000
,
1001
0001
1000
0001
1001
1000
0001
1000
,
1001
0001
1000
0001
1001
1000
0001
1000
,
1001
0001
1001
1000
1001
0001
1001
1000
,
1001
0000
0000
0000
0000
0000
0000
0000
0001
0010
0001
0010
0001
0010
0001
0010
,
0100
0010
0100
0010
0100
0010
0100
0010
0100
1000
0100
1000
0100
1000
0100
1000
,
0001
1000
0001
1000
0001
1000
0001
1000
0001
0100
0001
0100
0010
0100
0010
0100
,
0010
1000
0010
1000
0001
1000
0001
1000
0001
0000
0000
0000
0000
0000
0000
0000
,
1100
0100
0101
0001
0011
0010
1010
1000
,
1100
1000
1010
0010
0011
0001
0101
0100
,
0001
0100
0001
0100
0001
0100
0001
0100
0010
0100
0010
0100
0010
0100
0010
0100
,
0010
1000
0010
1000
0010
1000
0010
1000
0001
1000
0001
1000
0001
1000
0001
1000
,
0001
0010
0001
0010
0100
1000
0010
0100
0001
0100
0001
0100
0010
1000
0100
0010
,
0001
1000
0001
1000
0001
0010
0100
1000
0010
0100
0001
1000
0001
0000
0000
0000
,
2002
0000
0000
0000
,
0000
0000
0000
0000
,
3003
0000
0000
0000
;
