#TITLE:Kickin' Hard;
#SUBTITLE:;
#ARTIST:Gammer;
#TITLETRANSLIT:;
#SUBTITLETRANSLIT:;
#ARTISTTRANSLIT:;
#CREDIT:;
#BANNER:Kickin Hard bn.png;
#BACKGROUND:Kickin Hard bg.png;
#LYRICSPATH:;
#CDTITLE:cdtitlesummer.png;
#MUSIC:14 - Kickin' Hard.mp3;
#OFFSET:-0.060;
#SAMPLESTART:0.000;
#SAMPLELENGTH:12.000;
#SELECTABLE:YES;
#BPMS:0.000=174.800;
#STOPS:;
#BGCHANGES:;

//---------------dance-single - xRGTMx----------------
#NOTES:
     dance-single:
     xRGTMx:
     Hard:
     9:
     0.620,0.655,0.373,0.182,0.523:
0000
0000
0000
0000
,
0000
0000
0000
0000
,
0000
0000
0000
0000
,
0000
0000
0000
0000
,
0010
0000
0100
0001
0010
0000
0100
1000
,
0000
0001
0000
1000
0010
0000
0100
0001
,
0010
0000
0100
0000
0010
0100
1000
0010
,
0100
0000
0000
0000
1001
0000
0000
0001
1000
0001
1000
0001
1000
0000
0000
0000
,
1001
0000
1000
0100
0010
0000
0100
1000
,
0000
0001
0000
0100
0010
0000
0100
0001
,
0010
0000
0100
1000
0001
0000
0100
0010
,
0000
0100
0001
0010
0100
0000
1000
0001
,
0100
0000
0010
0100
0001
0000
1000
0100
,
0010
0100
0000
1000
0001
0000
0100
0010
,
0100
0000
0010
1000
0100
0001
0100
0010
,
0002
0000
0000
0000
,
1003
0000
0000
0010
0000
0000
0100
0000
0001
0100
0000
0000
,
0010
0000
0000
1000
0000
0000
0100
0000
0010
0100
0000
1000
,
0100
0000
0000
0010
0000
0000
0001
0000
0100
0010
0000
0000
,
0100
0000
0000
0001
0000
0000
1000
0000
0010
0100
0000
0001
,
1000
0000
0000
0100
0000
0000
0010
0000
0100
1000
0000
0000
,
0001
0000
0000
0100
0000
0000
0010
0000
0100
0001
0000
1000
,
0100
0000
0000
0010
0000
0000
0100
0000
1000
0010
0000
0000
,
0100
0000
0000
0010
0000
0000
0100
0000
0001
0010
0100
1000
,
0010
1010
1100
0110
,
0011
0000
0000
0101
0000
0000
0110
0000
0000
1010
0000
1000
,
0010
0110
0101
1001
,
1100
0000
0000
0110
0000
0000
0011
0000
0010
0001
0000
0001
,
0100
0110
1010
0101
,
0011
0000
0000
1100
0000
0000
1001
0000
0000
0110
0000
1000
,
0001
0110
0011
1100
,
2002
0000
0000
0000
0000
0000
0000
0000
0003
3001
0000
0001
,
0100
0000
0000
0010
0000
0000
1000
0000
0100
0010
0000
0000
,
0100
0000
0000
1000
0000
0000
0010
0000
0100
0001
0000
0100
,
0010
0000
0000
1000
0000
0000
0100
0000
0010
0001
0000
0000
,
0010
0000
0000
0100
0000
0000
1000
0000
0001
0100
0010
1000
,
0001
0000
0000
0010
0000
0000
0100
0000
1000
0010
0000
0000
,
0100
0000
0000
0001
0000
0000
0100
0000
0010
1000
0000
0100
,
0010
0000
0000
0100
0000
0000
1000
0000
0010
0100
0000
0001
,
1000
0000
0000
0001
0000
1000
0100
0000
0010
0100
1000
0010
,
0100
0000
0000
1000
0000
0000
0001
0000
0100
0010
0000
0000
,
1000
0000
0000
0010
0000
0000
0001
0000
0010
1000
0000
0100
,
0001
0000
0000
0100
0000
0000
1000
0000
0001
0100
0000
0000
,
1000
0000
0000
0100
0000
0000
0001
0000
1000
0100
0010
0001
,
1000
0000
0000
0010
0000
0000
0100
0000
0001
0010
0000
0000
,
1000
0000
0000
0010
0000
0000
0001
0000
0100
1000
0000
0100
,
0001
0000
0000
1000
0000
0000
0001
0000
1000
0100
0000
0000
,
0011
0000
0000
0001
0000
0001
1000
0000
0000
1000
0000
0010
,
1000
0000
0000
1100
0000
0100
0010
0000
0001
0000
0000
0001
,
1000
0000
0000
0100
0000
0010
0100
0000
1000
0010
0000
0100
,
0001
0000
0000
0100
0000
0010
1000
0000
0100
0000
0000
0010
,
0200
0000
0000
2300
0000
0000
3002
0000
0000
2003
0000
3001
,
1000
0000
0000
0101
0000
0010
1000
0000
0001
0000
0000
1000
,
0100
0000
0000
0011
0000
0100
1000
0000
0001
0000
0000
0100
,
0010
0000
0000
0101
0000
0010
1000
0000
0001
0000
0000
0000
,
1000
0100
1000
0100
0010
0100
0010
0001
0010
0001
0000
0000
,
1001
0000
0000
0001
0000
0100
0010
0000
1000
0000
0000
0001
,
1000
0000
0000
0100
0000
0010
0100
0000
1000
0000
0000
0001
,
0100
0000
0000
0010
0000
1000
0100
0000
0010
0000
0000
0100
,
1000
0000
0000
0012
0000
0000
0100
0000
0000
1000
0000
1003
,
0001
0000
0000
0100
0000
0010
1000
0000
0001
0000
0000
1000
,
0100
0000
0000
0010
0000
0100
1000
0000
0000
0001
0000
1000
,
0001
0000
0000
1000
0000
0001
0100
0000
0010
0000
0000
0100
,
0001
0000
0000
0001
0000
0000
0001
1000
0001
1000
0001
1000
,
0002
1000
1000
1000
,
2003
0001
0001
0001
,
3002
0100
0100
0100
,
0203
1000
1000
1000
,
2300
0010
0010
0010
,
3020
0001
0001
0001
,
0032
1000
1000
1003
,
2002
0000
0000
0000
0000
0000
0000
0000
3003
1000
0000
0001
,
1000
0000
0000
1100
0000
0100
0010
0000
0001
1000
0000
1000
,
0010
0000
0000
1010
0000
0010
0100
0000
0100
0001
0000
0001
,
0010
0000
0000
0110
0000
0100
0010
0000
0010
0001
0000
0001
,
1000
0000
0000
1001
0000
1000
0001
0000
0001
0100
0000
0100
,
0010
0000
0000
1010
0000
0010
1000
0000
1000
0010
0000
0010
,
0100
0000
0000
1001
0000
0100
0010
0000
1000
0001
0000
0100
,
0020
0000
0030
0000
,
2002
0000
0000
0000
,
3003
0000
0000
0000
;

//---------------dance-double - xRGTMx----------------
#NOTES:
     dance-double:
     xRGTMx:
     Hard:
     9:
     0.625,0.655,0.409,0.355,0.450:
00000000
00000000
00000000
00000000
,
00000000
00000000
00000000
00000000
,
00000000
00000000
00000000
00000000
,
00000000
00000000
00000000
00000000
,
10100000
00000000
01000000
00000000
00010000
00000000
00100000
00010000
,
00000000
00001000
00000000
00010000
00100000
00000000
01000000
10000000
,
00010000
00000000
01000000
00000000
00001000
00000000
00010000
00001000
,
00000000
00000000
00000100
00000000
00001000
00000000
00000000
00010000
00001000
00010000
00001000
00010000
00001000
00000000
00000000
00000000
,
00110000
00000000
01000000
00010000
00100000
00000000
01000000
10000000
,
00000000
00010000
00000000
01000000
00001000
00000000
00010000
00000100
,
00000010
00000000
00000001
00000100
00000010
00000000
00001000
00000100
,
00000000
00010000
00000000
00001000
00100000
00000000
01000000
10000000
,
00010000
00000000
01000000
00100000
10000000
00000000
01000000
00100000
,
00000000
01000000
00000000
10000000
00010000
00000000
01000000
00010000
,
00100000
00000000
00010000
00000000
01000000
00010000
00000000
00010000
,
00002000
00000000
00000000
00000000
,
00003100
00000000
00000000
00000100
00000000
00000000
00000100
00000000
00000010
00000100
00000000
00000000
,
00000010
00000000
00000000
00000010
00000000
00000000
00000010
00000000
00000010
00000001
00000000
00000001
,
00001000
00000000
00000000
00001000
00000000
00000000
00001000
00000000
00001000
00010000
00000000
00000000
,
00100000
00000000
00000000
00100000
00000000
00000000
00100000
00000000
00100000
10000000
00000000
10000000
,
00010000
00000000
00000000
00010000
00000000
00000000
00001000
00000000
00001000
00000001
00000000
00000000
,
00000001
00000000
00000000
00001000
00000000
00000000
00010000
00000000
00010000
10000000
00000000
10000000
,
00010000
00000000
00000000
00010000
00000000
00000000
00010000
00000000
00010000
00001000
00000000
00000000
,
00000001
00000000
00000000
00000001
00000000
00000001
00001000
00000000
00001000
00010000
10000000
00010000
,
10000000
01000000
00100000
00010000
,
00001000
00000100
00001000
00000100
00000000
00000100
00000010
00000000
00000010
00000001
00000000
00000001
,
00001000
00000001
00000100
00000010
,
00001000
00000010
00001000
00000010
00000000
00001000
00000100
00000000
00000100
00010000
00000000
00010000
,
10000000
01000000
00100000
00010000
,
00001000
00000100
00001000
00000100
00000000
00000100
00000010
00000000
00000010
00000001
00000000
00000001
,
00001000
00000001
00000100
00000010
,
00002000
00000000
00000000
00000000
,
00013000
00000000
00000000
00100000
00000000
00000000
01000000
00000000
10000000
00100000
00000000
00000000
,
01000000
00000000
00000000
00010000
00000000
00000000
00100000
00000000
00001000
00010000
00000000
00000100
,
00001000
00000000
00000000
00000010
00000000
00000000
00000100
00000000
00000001
00000010
00000000
00000000
,
00000100
00000000
00000000
00001000
00000000
00000000
00000010
00000000
00001000
00000100
00000000
00010000
,
00001000
00000000
00000000
00010000
00000000
00000000
00100000
00000000
01000000
00100000
00000000
00000000
,
00010000
00000000
00000000
01000000
00000000
00000000
00100000
00000000
10000000
01000000
00000000
00100000
,
00010000
00000000
00000000
01000000
00000000
00000000
00001000
00000000
00010000
00001000
00000000
00000000
,
00000100
00000000
00000000
00000010
00000000
00000001
00001000
00000000
00000001
00000100
00000001
00000100
,
00001000
00000000
00000000
00000100
00000000
00000000
00000010
00000000
00000001
00000100
00000000
00000000
,
00000010
00000000
00000000
00001000
00000000
00000000
00000100
00000000
00010000
00001000
00000000
00100000
,
00010000
00000000
00000000
01000000
00000000
00000000
00100000
00000000
10000000
01000000
00000000
00000000
,
00100000
00000000
00000000
00010000
00000000
00000000
01000000
00000000
00010000
00100000
00000000
00001000
,
00010000
00000000
00000000
00001000
00000000
00000000
00000100
00000000
00000010
00000100
00000000
00000000
,
00001000
00000000
00000000
00000010
00000000
00000000
00000100
00000000
00000001
00000010
00000000
00000100
,
00001000
00000000
00000000
00000010
00000000
00000000
00010000
00000000
00001000
00010000
00000000
00000000
,
00100000
00000000
00000000
01000000
00000000
10000000
00100000
00000000
00000000
01000000
00000000
00010000
,
00100000
00000000
00000000
11000000
00000000
00000000
00110000
00000000
00000000
01000000
00000000
00010000
,
00100000
00000000
00000000
00011000
00000000
00000000
00001100
00000000
00000000
00000110
00000000
00000010
,
00000001
00000000
00000000
00000101
00000000
00000000
00001010
00000000
00000000
00000101
00000000
00000001
,
00000020
00000000
00000000
00000230
00000000
00000000
00000320
00000000
00000000
00000230
00000000
00000310
,
00000100
00000000
00000000
00001010
00000000
00000000
00000101
00000000
00000000
00000011
00000000
00000100
,
00001000
00000000
00000000
00011000
00000000
00000000
01100000
00000000
00000000
10000000
00000000
00010000
,
01000000
10100000
01010000
00110000
,
10000000
00010000
10000000
00010000
01000000
00010000
01000000
00010000
00000000
10000000
00000000
00000000
,
01100000
00000000
00000000
00110000
00000000
00000000
00011000
00000000
00000000
00001100
00000000
00000100
,
00000010
00000000
00000000
00000011
00000000
00000000
00001001
00000000
00000000
00001010
00000000
00010000
,
00001000
00000000
00000000
00110000
00000000
00000000
11000000
00000000
00000000
10100000
00000000
01000000
,
00010000
00000000
00000000
20100000
00000000
00000000
01000000
00000000
00000000
30010000
00000000
10000000
,
00010000
00000000
00000000
00110000
00000000
00000000
01010000
00000000
00000000
00011000
00000000
00000100
,
00001000
00000000
00000000
00000110
00000000
00000000
00001001
00000000
00000000
00000011
00000000
00000100
,
00001000
00000000
00000000
00011000
00000000
00000000
00110000
00000000
00000000
01100000
00000000
01000000
,
10000000
00000000
00000000
00010000
00000000
00000000
10000000
01000000
00100000
00010000
00100000
01000000
,
20000000
32000000
03200000
00320000
,
02030000
03002000
00023000
00030200
,
00000320
00000032
00000203
00000320
,
00002030
00003200
00020300
00032000
,
00023000
00230000
20300000
30200000
,
00320000
00032000
00003200
00000302
,
00000203
00002300
00003020
00002030
,
00023000
00000000
00000000
00000000
00000000
00000000
00000000
00000000
00000000
00001000
00000000
00031000
,
00010000
00000000
00000000
00110000
00000000
00100000
01000000
00000000
10000000
00000000
00000000
10000000
,
00100000
00000000
00000000
11000000
00000000
00100000
00010000
00000000
00100000
00000000
00000000
00001000
,
00010000
00000000
00000000
00011000
00000000
00010000
00000010
00000000
00000100
00000000
00000000
00000100
,
00000001
00000000
00000000
00000110
00000000
00001000
00000100
00000000
00010000
00000000
00000000
00001000
,
01000000
00000000
00000000
10100000
00000000
01000000
00010000
00000000
10000000
00000000
00000000
00010000
,
01000000
00000000
00000000
10010000
00000000
00100000
01000000
00000000
00001000
00000000
00000000
00010000
,
00000200
00000000
00000300
00000000
,
00002002
00000000
00000000
00000000
,
00003003
00000000
00000000
00000000
;

//---------------dance-single - xRGTMx----------------
#NOTES:
     dance-single:
     xRGTMx:
     Medium:
     7:
     0.489,0.655,0.346,0.291,0.127:
0000
0000
0000
0000
,
0000
0000
0000
0000
,
0000
0000
0000
0000
,
0000
0000
0000
0000
,
1001
0000
0100
0000
0010
0000
0100
0001
,
1000
0000
0100
0000
0010
0000
0100
1000
,
0001
0100
1010
0100
,
0001
0000
0010
0000
0100
1000
0100
0000
,
0011
0100
1000
0010
,
0100
0000
0001
1000
0001
0100
0010
0000
,
1001
0100
0010
1000
,
0100
0000
0001
0100
1000
0100
0001
0000
,
1100
0001
0100
0010
,
0100
0000
0010
1000
0000
0001
0010
0000
,
0100
0000
0010
0001
0010
0100
0010
0000
,
2002
0000
0000
3003
,
1001
1000
1000
1000
,
0001
0000
0000
0001
0000
0000
1000
0000
0000
0001
0000
1000
,
0010
0010
0010
0010
,
0100
0000
0000
0100
0000
0000
0010
0000
0000
0100
0000
0010
,
1000
1000
1000
1000
,
0001
0000
0000
0001
0000
0000
1000
0000
0000
0001
0000
1000
,
0100
0100
0100
0100
,
0010
0000
0000
0010
0000
0010
0100
0000
0100
0010
0000
0010
,
0002
0203
0320
2030
,
3002
0023
0230
2300
,
3002
0203
0320
2030
,
3002
0023
0230
1300
,
1100
0110
0011
1001
,
1010
0110
0101
1001
,
1100
0110
0011
1001
,
0220
0000
0000
0330
,
1000
0010
1000
0001
,
0010
0000
0000
0100
0000
0000
1000
0000
0000
0010
0000
0100
,
0010
0100
0001
1000
,
0100
0000
0000
0010
0000
0000
0001
0000
1000
0010
0000
0100
,
0010
0100
0001
1000
,
0100
0000
0000
0010
0000
0000
0100
0000
0000
1000
0000
0001
,
0100
0010
0100
0001
,
1000
0000
0000
0100
0000
0000
0010
0000
0001
0100
0000
0010
,
1000
0100
0010
0100
,
1000
0000
0000
0001
0000
0000
0100
0000
0000
0010
0000
0100
,
0001
1000
0100
0010
,
0100
0000
0000
1000
0000
0000
0010
0000
0100
0010
0000
0100
,
0001
0010
0100
1000
,
0010
0000
0000
0100
0000
0000
0001
0000
0000
1000
0000
0100
,
0010
0100
1000
0010
,
2001
0010
0001
3001
,
1001
0100
0010
0100
,
0001
0000
0000
1000
0000
0000
0001
0000
0000
1000
0000
0100
,
0010
0100
1000
0001
,
2001
0010
0100
3001
,
1100
0010
0100
1000
,
0001
0000
0000
0100
0000
0000
0010
0000
0000
1000
0000
0001
,
0010
0100
0010
0001
,
1000
0001
1000
0001
0000
0000
1000
0001
1000
0001
0000
0000
,
1001
0100
0010
0100
,
0001
0000
0000
1000
0000
0000
0001
0000
0000
1000
0000
0100
,
0010
0100
1000
0001
,
2001
0010
0100
3001
,
1100
0010
0100
1000
,
0001
0000
0000
0100
0000
0000
0010
0000
0000
1000
0000
0001
,
0010
0100
0010
0001
,
1001
0000
0000
1001
0000
0000
1000
0001
1000
0001
0000
0000
,
2000
0000
0000
0000
,
3002
0000
0000
0000
,
2003
0000
0000
0000
,
3002
0000
0000
0000
,
0203
0000
0000
0000
,
0320
0000
0000
0000
,
2030
0000
0000
0000
,
3002
0000
0000
0000
,
1003
0100
0010
0001
,
1100
0110
0011
1001
,
1000
0010
0100
0001
,
1010
0110
0101
1001
,
1000
0000
0000
0100
0000
0000
0010
0000
0000
0001
0000
0001
,
1000
0000
0000
0010
0000
0000
0100
0000
0000
0001
0000
0001
,
1000
0000
0000
0000
,
2002
0000
0000
0000
,
3003
0000
0000
0000
;

//---------------dance-single - xRGTMx----------------
#NOTES:
     dance-single:
     xRGTMx:
     Easy:
     4:
     0.321,0.437,0.127,0.164,0.000:
0000
0000
0000
0000
,
0000
0000
0000
0000
,
0000
0000
0000
0000
,
0000
0000
0000
0000
,
1000
1000
0001
0000
,
1000
0001
1000
0000
,
0001
0001
1000
0000
,
0010
0100
0110
0000
,
1000
0100
0001
0000
,
0100
0100
1000
0000
,
0001
0100
1000
0000
,
0100
0100
0001
0000
,
1000
0010
0100
0000
,
0001
0001
1000
0000
,
0001
0010
0100
1000
,
2002
0000
0000
3003
,
1000
0000
1000
0000
,
0001
0000
0001
1000
,
0010
0000
0010
0000
,
0100
0000
0010
0100
,
0001
0000
1000
0000
,
0100
0000
0010
0100
,
1000
0000
1000
0000
,
0001
1000
0010
0100
,
0001
0001
0001
0001
,
0001
0001
0001
0001
,
1000
1000
1000
1000
,
1000
1000
1000
1000
,
0010
0010
0010
0010
,
0010
0010
0010
0010
,
0100
0100
0100
0100
,
2002
0000
0000
3003
,
0010
0010
1000
0010
,
0100
0100
0010
1000
,
0100
0100
1000
0100
,
0010
0001
1000
1000
,
0001
0001
1000
0010
,
0100
0100
0010
0100
,
0001
0001
1000
0100
,
0010
0000
1001
0000
,
0010
0010
0001
0010
,
0100
0100
0010
0001
,
0100
0100
0001
0100
,
0010
1000
0001
0001
,
1000
1000
0001
0010
,
0100
0100
0010
0100
,
1000
1000
0001
0100
,
0010
0000
1001
0000
,
1000
1000
0001
0000
,
1000
0000
0101
0000
,
0001
0001
1000
0000
,
0002
2003
3002
2003
,
3001
0001
1000
0000
,
0001
0000
1100
0000
,
1000
1000
0001
0000
,
1000
0100
0010
0001
,
1000
1000
0001
0000
,
1000
0000
0101
0000
,
0001
0001
1000
0000
,
0002
2003
3002
2003
,
3001
0001
1000
0000
,
0001
0000
1100
0000
,
1000
1000
0001
0000
,
1000
0100
0010
0001
,
2000
0000
0000
0000
,
3000
0000
0000
0000
,
0002
0000
0000
0000
,
0003
0000
0000
0000
,
0200
0000
0000
0000
,
0300
0000
0000
0000
,
0020
0000
0000
0000
,
0030
0000
0000
0000
,
1000
0000
0011
0000
,
0100
0000
1010
0000
,
0001
0000
1100
0000
,
0010
0000
0101
0000
,
1000
0001
0100
0010
,
1000
0001
0010
0100
,
1000
0000
0000
0000
,
2002
0000
0000
0000
,
3003
0000
0000
0000
;

//---------------dance-single - xRGTMx----------------
#NOTES:
     dance-single:
     xRGTMx:
     Beginner:
     2:
     0.257,0.289,0.127,0.045,0.000:
0000
0000
0000
0000
,
0000
0000
0000
0000
,
0000
0000
0000
0000
,
0000
0000
0000
0000
,
1000
0000
1000
0000
,
0001
0000
0001
0000
,
1000
0000
1000
0000
,
0001
0000
0001
0000
,
1000
0000
0001
0000
,
1000
0000
1001
0000
,
0001
0000
1000
0000
,
0001
0000
1001
0000
,
1000
0000
0001
0000
,
1001
0000
0001
0000
,
1000
0000
1001
0000
,
0020
0000
0030
0000
,
1000
0000
1000
0000
,
0100
0000
0100
0000
,
0010
0000
0010
0000
,
0001
0000
0001
0000
,
1000
0000
1000
0000
,
0010
0000
0010
0000
,
0100
0000
0100
0000
,
0001
0000
0001
0000
,
1000
1000
1000
1000
,
1000
1000
1000
0000
,
0001
0001
0001
0001
,
0001
0001
0001
0000
,
0100
0100
0100
0100
,
0100
0100
0100
0000
,
0010
0010
0010
0010
,
0020
0000
0030
0000
,
1000
1000
1000
0000
,
0001
0001
0001
0000
,
1000
1000
1000
0000
,
0001
0001
0001
0000
,
0100
0100
0100
0000
,
0010
0010
0010
0000
,
0100
0100
0100
0000
,
0010
0010
0010
0000
,
1000
1000
1000
0000
,
0100
0100
0100
0000
,
0010
0010
0010
0000
,
0001
0001
0001
0000
,
1000
1000
1000
0000
,
0010
0010
0010
0000
,
0100
0100
0100
0000
,
0002
0000
0003
0000
,
1000
0000
0001
0000
,
1000
1000
1000
0000
,
0001
0000
1000
0000
,
0001
0001
0001
0000
,
0100
0000
0010
0000
,
0100
0100
0100
0000
,
0010
0000
0100
0000
,
0010
0010
0010
0000
,
1000
0000
0100
0000
,
0010
0010
0010
0000
,
0001
0000
0100
0000
,
0010
0010
0010
0000
,
1000
0000
0010
0000
,
0100
0100
0100
0000
,
0001
0000
0010
0000
,
0100
0100
0100
0000
,
1001
0000
0000
0000
,
1001
0000
0000
0000
,
0110
0000
0000
0000
,
0110
0000
0000
0000
,
1001
0000
0000
0000
,
1001
0000
0000
0000
,
0110
0000
0000
0000
,
0110
0000
0000
0000
,
1000
1000
1000
0000
,
0001
0001
0001
0000
,
1000
1000
1000
0000
,
0001
0001
0001
0000
,
0100
0100
0100
0000
,
0010
0010
0010
0000
,
1001
0000
0000
0000
,
2002
0000
3003
0000
;

//---------------dance-double - xRGTMx----------------
#NOTES:
     dance-double:
     xRGTMx:
     Medium:
     7:
     0.499,0.582,0.755,0.164,0.014:
00000000
00000000
00000000
00000000
,
00000000
00000000
00000000
00000000
,
00000000
00000000
00000000
00000000
,
00000000
00000000
00000000
00000000
,
00100000
10000000
01000000
00100000
,
01000000
10000000
00010000
01000000
,
00001000
00010000
00000100
00001000
,
00000010
00000000
00000100
00000000
00000001
00001000
00000001
00000000
,
00001001
00000100
00000010
00001000
,
00000100
00010000
00001000
01000000
,
00100000
10000000
01000000
10000000
,
00100000
00000000
01000000
00000000
00010000
10000000
00010000
00000000
,
10010000
10000000
01000000
00100000
,
00010000
01000000
00001000
00010000
,
00000010
00000000
00000100
00000000
00000001
00000010
00000100
00000000
,
00002000
00000000
00000000
00000000
,
00013000
00000000
00010000
00000000
,
10000000
00000000
10000000
00000000
,
00100000
00000000
00100000
00000000
,
01000000
00000000
01100000
01000000
,
10010000
00000000
10000000
00000000
,
00010000
00000000
00010000
00000000
,
00001000
00000000
00001000
00000000
,
00000001
00000000
00001001
00000001
,
00001001
00000100
00001001
00000010
,
00000100
00010000
10000000
00100000
,
10010000
01000000
10010000
01100000
,
01000000
00001000
00000100
00000001
,
00000011
00000100
00011000
00100000
,
01000000
10000000
00010000
01000000
,
10100000
00010000
00000110
00000001
,
00002002
00000000
00000000
00003003
,
00000010
00000010
00001000
00011000
,
00100000
01000000
10000000
00010000
,
01000000
00010000
00011000
00001000
,
00000100
00000010
00000001
00001001
,
00000110
00001000
00110000
01000000
,
10000000
00010000
01000000
00100000
,
11000000
00100000
00011000
00000100
,
00000010
00000001
00001001
00001001
,
00000010
00000010
00001000
00011000
,
00100000
01000000
10000000
00010000
,
01000000
00010000
00011000
00001000
,
00000100
00000010
00000001
00001001
,
00000110
00001000
00110000
01000000
,
10000000
00010000
01000000
00100000
,
11000000
00100000
00011000
00000100
,
00000020
00000000
00000001
00000031
,
00000011
00000100
00001010
00000100
,
00011000
01000000
10100000
01000000
,
00110000
10000000
00101000
00000100
,
00000012
00001000
00001000
00001003
,
00001100
00010000
01100000
10000000
,
01010000
00100000
00011000
00000010
,
00001100
00000010
00000101
00001000
,
00010000
00000000
00001000
00010000
00000000
00001000
00010000
00000000
00001000
00010000
00000000
00000000
,
00110000
01000000
10000000
00100000
,
01010000
00100000
10000000
01000000
,
00110000
01000000
10100000
01000000
,
00021000
00001000
00001000
00031000
,
00000110
00000011
00001100
00000001
,
00001010
00011000
00101000
10000000
,
01010000
01100000
11000000
01010000
,
10000000
10000000
00110000
00110000
,
00021000
00001000
00001000
00031000
,
00000210
00000010
00000010
00000310
,
00000012
00000010
00000010
00000013
,
00001200
00001000
00001000
00001300
,
00021000
00001000
00001000
00031000
,
00210000
00010000
00010000
00310000
,
01200000
01000000
01000000
01300000
,
10020000
10000000
10000000
10030000
,
00110000
01000000
10100000
01000000
,
10010000
00100000
11000000
00100000
,
01010000
00001000
00011000
00000100
,
00000011
00000100
00001010
00010000
,
00110000
01000000
10010000
01000000
,
10100000
00010000
00011000
00001000
,
00000220
00000000
00000330
00000000
,
00002002
00000000
00000000
00000000
,
00003003
00000000
00000000
00000000
;

//---------------dance-double - xRGTMx----------------
#NOTES:
     dance-double:
     xRGTMx:
     Easy:
     5:
     0.316,0.400,0.255,0.146,0.000:
00000000
00000000
00000000
00000000
,
00000000
00000000
00000000
00000000
,
00000000
00000000
00000000
00000000
,
00000000
00000000
00000000
00000000
,
00100000
01000000
00100000
01000000
,
00010000
01000000
00010000
01000000
,
00001000
00010000
00001000
00010000
,
00000100
00000000
00001001
00000000
,
00000001
00000100
00001000
00000000
,
00010000
01000000
10000000
00000000
,
10000000
00100000
00010000
00000000
,
00001000
00000010
00000001
00000000
,
00000001
00000100
00000010
00000000
,
00010000
01000000
00100000
00000000
,
00010000
00001000
00010000
00000000
,
00022000
00000000
00033000
00000000
,
00100000
00000000
00100000
00000000
,
10000000
00000000
10000000
00000000
,
00100000
00000000
00100000
00000000
,
00010000
00000000
00010000
00000000
,
00000010
00000000
00000010
00000000
,
00000001
00000000
00000001
00000000
,
00000010
00000000
00000010
00000000
,
00001000
00000000
00001000
00000000
,
00100000
10000000
00100000
10000000
,
00010000
01000000
00001000
00000000
,
00000010
00000001
00000010
00000001
,
00001000
00000100
00010000
00000000
,
00100000
10000000
01000000
00100000
,
00010000
00001000
00000100
00000000
,
00000010
00000001
00000100
00000010
,
00022000
00000000
00033000
00000000
,
00100000
10000000
00100000
00000000
,
10000000
00010000
10000000
00000000
,
00010000
00100000
00010000
00000000
,
00100000
00001000
00100000
00000000
,
00000100
00001000
00000100
00000000
,
00010000
00000010
00010000
00000000
,
00000010
00000100
00000010
00000000
,
00001001
00000110
00001001
00000000
,
00000001
00000100
00001000
00000000
,
00001000
00010000
00001000
00000000
,
00010000
01000000
10000000
00000000
,
00010000
10000000
00010000
00000000
,
10000000
01000000
00100000
00000000
,
00001000
00010000
00001000
00000000
,
00000100
00000010
00000001
00000000
,
00002001
00000000
00003010
00000000
,
00001010
00000100
00000010
00000000
,
00000011
00000100
00000010
00000000
,
00001001
00000100
00000010
00000000
,
00011000
00000000
00011000
00000000
,
10010000
01000000
00100000
00000000
,
10010000
00100000
01000000
00000000
,
10000000
00010000
10000000
00000000
,
00011000
00011000
00011000
00000000
,
00001010
00000100
00000010
00000000
,
00000011
00000100
00000010
00000000
,
00001001
00000100
00000010
00000000
,
00011000
00000000
00011000
00000000
,
10010000
01000000
00100000
00000000
,
10010000
00100000
01000000
00000000
,
10000000
00010000
10000000
00000000
,
00011000
00011000
00011000
00000000
,
00000020
00000000
00000030
00000000
,
00000002
00000000
00000003
00000000
,
00000200
00000000
00000300
00000000
,
00020000
00000000
00030000
00000000
,
00200000
00000000
00300000
00000000
,
20000000
00000000
30000000
00000000
,
02000000
00000000
03000000
00000000
,
00002000
00000000
00003000
00000000
,
00000001
00001000
00000001
00000000
,
00001000
00010000
00001000
00000000
,
10000000
00010000
10000000
00000000
,
00010000
00001000
00010000
00000000
,
00000010
00000100
00000010
00000000
,
00010000
00001000
00010000
00000000
,
00200000
00000000
00300000
00000000
,
20020000
00000000
00000000
00000000
,
30030000
00000000
00000000
00000000
;
