#TITLE:Iridescent;
#SUBTITLE:;
#ARTIST:Nadeco;
#TITLETRANSLIT:;
#SUBTITLETRANSLIT:;
#ARTISTTRANSLIT:;
#CREDIT:348 with Timer Rabbit;
#BANNER:;
#BACKGROUND:;
#LYRICSPATH:;
#CDTITLE:;
#MUSIC:Iridescent.mp3;
#OFFSET:-1.196;
#SAMPLESTART:91.176;
#SAMPLELENGTH:15.000;
#SELECTABLE:YES;
#BPMS:0.000=170.000,96.000=42.500,112.000=85.000,128.000=170.000;
#STOPS:;
#BGCHANGES:;

//---------------dance-single - ----------------
#NOTES:
     dance-single:
     :
     Beginner:
     1:
     0.085,0.144,0.000,0.000,0.000:
0000
0000
0000
0000
,
0000
0000
0000
0000
,
0000
0000
0000
0000
,
0000
0000
0000
0000
,
0000
0000
0000
0000
,
0000
0000
0000
0000
,
0000
0000
0000
0000
,
0000
0000
0000
0000
,
1000
0000
0000
0000
,
0000
0000
0000
0000
,
0001
0000
0000
0000
,
0000
0000
0000
0000
,
1000
0000
0000
0000
,
0001
0000
0000
0000
,
1000
0000
0000
0000
,
0001
0000
0000
0000
,
0100
0000
0000
0000
,
0100
0000
0100
0000
,
0000
0000
0000
0000
,
0010
0000
0010
0000
,
0100
0000
0000
0000
,
0010
0000
0000
0000
,
0100
0000
0000
0000
,
0010
0000
0000
0000
,
1000
0000
0000
0000
,
0100
0000
0000
0000
,
0010
0000
0000
0000
,
0001
0000
0000
0000
,
1000
0000
1000
0000
,
1000
0000
0000
0000
,
0001
0000
0001
0000
,
0001
0000
0000
0000
,
0100
0000
0000
0000
,
0001
0000
0000
0000
,
1000
0000
0000
0000
,
0100
0000
0000
0000
,
0010
0000
0000
0000
,
0001
0000
0000
0000
,
1000
0000
0000
0000
,
0010
0000
0000
0000
,
1000
0000
1000
0000
,
0000
0000
0000
0000
,
0001
0000
0001
0000
,
0000
0000
0000
0000
,
1000
0000
0000
0000
,
0100
0000
0000
0000
,
0010
0000
0000
0000
,
0001
0000
0001
0000
,
1000
0000
1000
0000
,
0001
0000
0000
0000
,
0001
0000
0001
0000
,
1000
0000
0000
0000
,
0010
0000
0000
0000
,
0100
0000
0100
0000
,
0010
0000
0000
0000
,
0010
0000
0010
0000
,
1000
0000
0000
0000
,
0000
0001
0001
0000
,
0100
0000
0000
0000
,
0000
0010
0010
0000
,
0100
0000
0000
0000
,
0010
0000
0000
0000
,
0100
0000
0010
0000
,
1000
0000
0001
0000
,
1000
0000
0000
0000
,
1000
0000
0000
0000
,
0100
0000
0000
0000
,
0100
0000
0000
0000
,
0010
0000
0000
0000
,
0010
0000
0000
0000
,
0001
0000
0000
0000
,
0001
0000
0000
0000
,
1000
0000
0000
0000
,
0000
0000
0000
0000
,
0001
0000
0000
0000
,
0000
0000
0000
0000
,
1000
0000
0000
0000
,
0001
0000
0000
0000
,
1000
0000
0001
0000
,
1000
0000
0001
0000
,
1000
0000
0000
0000
;

//---------------dance-single - ----------------
#NOTES:
     dance-single:
     :
     Easy:
     4:
     0.287,0.374,0.151,0.180,0.000:
0000
0000
0000
0000
,
0000
0000
0000
0000
,
0000
0000
0000
0000
,
0000
0000
0000
0000
,
0000
0000
0000
0000
,
0000
0000
0000
0000
,
0000
0000
0000
0000
,
0000
0000
0000
0000
,
1000
0000
0100
0000
,
1000
0000
0100
0000
,
0010
0000
0001
0000
,
0010
0000
0001
0000
,
1000
0100
1000
0100
,
0010
0001
0010
0001
,
1000
0001
1000
0001
,
0200
0000
0010
0310
,
1000
0100
0010
0100
,
1000
0001
0010
0100
,
0010
0001
1000
0100
,
0010
0001
0010
0100
,
1000
0001
0100
0001
,
0010
0001
1000
0100
,
1000
0010
1000
0001
,
0100
0001
1000
0010
,
1002
0003
0020
0030
,
0200
0300
2000
3000
,
0001
1000
0010
0100
,
0010
0100
0001
1000
,
0002
0000
1003
1000
,
2000
0000
3010
0010
,
0020
0000
0130
0100
,
0200
0300
0110
1001
,
0110
0000
1000
0100
,
0011
0000
1000
0010
,
0101
0000
1000
0100
,
0001
0100
1000
0001
,
1001
0000
0001
0010
,
1100
0000
0001
0100
,
1010
0000
0001
0010
,
1000
0010
0001
1000
,
0020
0030
0200
0300
,
0001
0010
0001
0100
,
0002
0003
2000
3000
,
0010
1000
0010
0100
,
0002
0003
0020
0030
,
0200
0300
2000
3000
,
0001
0100
0010
1000
,
0110
2002
3003
0110
,
0001
0010
0100
0010
,
0001
1000
0100
1000
,
0010
1000
0001
1000
,
0100
1000
0001
1000
,
0100
1000
0100
0010
,
0001
0100
0010
1000
,
0010
0100
0001
1000
,
0001
1000
0010
0100
,
0002
0000
0100
0103
,
0100
0001
1000
0010
,
0020
0000
1000
1030
,
1000
0100
0010
0001
,
0002
0000
0010
0013
,
0010
0001
1000
0100
,
0200
0000
1000
1300
,
1000
0001
0010
0100
,
1100
0000
0011
0000
,
1000
1000
0001
1000
,
0101
0000
1010
0000
,
0100
0100
0001
0100
,
0011
0000
0101
0000
,
0001
0001
1000
0001
,
1100
0000
1010
0000
,
0010
0010
1000
0010
,
2000
0000
0000
3000
,
0002
0000
0000
0003
,
1000
0000
0001
0000
,
0100
0000
0010
0000
,
1000
0001
0000
0100
,
0010
0100
0000
0001
,
1000
0100
0001
0010
,
0001
0100
1000
0001
,
1001
0000
0000
0000
;

//---------------dance-single - ----------------
#NOTES:
     dance-single:
     :
     Medium:
     6:
     0.430,0.490,0.382,0.173,0.000:
0000
0000
0000
0000
,
0000
0000
0000
0000
,
0000
0000
0000
0000
,
0000
0000
0000
0000
,
0000
0000
0000
0000
,
0000
0000
0000
0000
,
0000
0000
0000
0000
,
0000
0000
0000
0000
,
1000
0100
0000
0001
0000
0100
0000
1000
,
0000
0001
0011
0101
,
0001
0010
0000
1000
0000
0010
0000
0001
,
0000
1000
1100
1010
,
0001
0000
1000
0000
0010
0100
0010
0000
,
0100
0000
0010
0000
1000
0001
1000
0000
,
0001
0010
0001
0000
1000
0100
1000
0000
,
2002
3003
0110
1001
,
0100
0001
0100
0000
0010
1000
0010
0000
,
2000
3100
0020
0130
,
1000
0100
1000
0000
0100
0010
0100
0000
,
0020
0031
0002
0103
,
1100
0000
0001
0000
1000
0100
1000
0000
,
0011
0000
1000
0000
0001
0010
0001
0000
,
1000
0001
1000
0000
0010
0100
0010
0000
,
1000
1100
0001
0011
,
2000
0000
0010
3010
0020
0000
0100
0130
,
0200
0000
0001
0301
0002
0000
1000
1003
,
1000
0001
0100
0000
0001
1000
0010
0000
,
1000
0100
0010
0000
0100
0010
0001
0000
,
2000
0000
0100
0000
3010
0000
0000
0001
,
0002
0000
0010
0000
0103
0000
0000
1000
,
0002
1003
2000
3001
,
0010
0000
1000
0001
1000
0000
0100
0000
,
1000
0000
0100
0000
0011
0000
1000
0100
,
1000
0000
0001
0000
1100
0000
0001
0010
,
0001
0000
1000
0000
0110
0000
0001
1000
,
0001
0000
1000
0000
1001
0000
0010
0100
,
0010
0000
2000
0000
3000
0000
0001
0010
,
0001
0000
0200
0000
0300
0000
0001
0100
,
0001
0000
0020
0000
0030
0000
0001
1000
,
0001
0000
0002
0000
0003
0000
1000
0100
,
1000
0001
1100
1010
,
0010
0100
0011
0101
,
1000
0100
0011
0110
,
0001
0010
1100
1001
,
1000
0100
1000
0000
0100
0010
0100
0000
,
0010
0001
0010
0000
0001
1000
0001
0000
,
1010
0101
0110
1001
,
1100
0101
2002
3003
,
1000
0000
1000
0000
1010
0000
0001
0010
,
0001
0010
0001
0000
0001
0000
0101
0000
,
0100
0000
0100
0000
0101
0000
1000
0100
,
1000
0100
1000
0000
1000
0000
1001
0000
,
0001
0000
1000
0000
1010
0000
0010
0100
,
0010
0100
0010
0000
0010
0000
0110
0000
,
0100
0000
0010
0000
1010
0000
1000
0001
,
1000
0001
1000
0000
1000
0000
1100
0000
,
1001
0000
0010
0100
0010
0000
1000
0100
,
1000
0001
1000
1001
,
0110
0000
0001
0010
0001
0000
0100
0010
,
0100
0010
0100
0110
,
1000
0000
0001
0000
1000
0100
1000
0000
,
0001
0010
0001
0000
0100
0010
0100
0000
,
0001
0000
0100
0000
0010
1000
0010
0000
,
0100
0001
0100
0000
0010
0000
1000
0000
,
1001
0000
1000
0000
0010
0100
0010
0000
,
1000
0100
0010
0011
,
0110
0000
0001
0000
1000
0100
1000
0000
,
0001
1000
0100
1010
,
0001
0100
0001
1000
,
0001
0010
0001
0000
1000
0000
1100
0000
,
1000
0010
1000
0100
,
0010
0001
0010
0000
0100
0000
1100
0000
,
0002
0010
0100
1003
,
2000
0001
0100
3010
,
0020
1000
0001
0130
,
0200
0001
1000
0310
,
0001
0000
0100
0000
0010
1000
0010
0000
,
1000
0000
0001
0000
0010
0100
0010
0000
,
0100
1000
0100
0000
0010
0001
0010
0000
,
1001
0110
1010
0011
,
0110
0000
0000
0000
;

//---------------dance-single - ----------------
#NOTES:
     dance-single:
     :
     Hard:
     8:
     0.521,0.720,0.410,0.180,0.029: // measure 1
0000
0000
0000
0000
,  // measure 2
0000
0000
0000
0000
,  // measure 3
0000
0000
0000
0000
,  // measure 4
0000
0000
0000
0000
,  // measure 5
0000
0000
0000
0000
,  // measure 6
0000
0000
0000
0000
,  // measure 7
0000
0000
0000
0000
,  // measure 8
0000
0000
0000
0000
,  // measure 9
1000
0001
0000
1100
0000
0011
0000
1001
,  // measure 10
0000
0010
0001
0100
0010
1000
0100
1000
,  // measure 11
0010
0100
0000
1010
0000
0101
0000
0110
,  // measure 12
0000
1000
0010
0100
0001
1000
0001
0100
,  // measure 13
0010
1000
0100
0000
0010
0001
0100
0000
,  // measure 14
0001
0100
0010
0000
1000
0010
0100
0000
,  // measure 15
0001
0010
0001
0010
0100
1000
0100
2000
,  // measure 16
0002
3003
0110
1001
,  // measure 17
1000
0100
0001
0100
1000
0100
0010
0001
,  // measure 18
1000
0011
0101
1001
,  // measure 19
0001
0010
1000
0010
0001
0010
0100
1000
,  // measure 20
0001
1100
1010
1001
,  // measure 21
1000
0100
0010
0100
1000
0000
0110
0000
,  // measure 22
0001
0010
0100
0010
0001
0000
0110
0000
,  // measure 23
1000
0100
0010
0001
1000
0100
0010
0001
,  // measure 24
1000
0110
1001
0110
,  // measure 25
0002
0000
0100
0000
1003
0000
0100
0001
2000
0000
0010
0000
3001
0000
0010
1000
,  // measure 26
0020
0000
0100
0000
1030
0000
0001
0010
0200
0000
0010
0000
0301
0000
0010
0001
,  // measure 27
1000
0000
0001
0010
0001
0000
1000
0000
0010
0000
0100
0001
0100
0000
0010
0000
,  // measure 28
1000
0000
0010
0100
0010
0000
1000
0000
0100
0000
1000
0001
1000
0000
0100
0000
,  // measure 29
2000
0000
3001
0010
0100
0010
0001
0000
,  // measure 30
0200
0000
0310
0100
1000
0100
0010
0000
,  // measure 31
0002
0000
0013
1000
0001
1000
0010
0000
,  // measure 32
0020
0000
1030
0100
0001
0100
1000
0000
,  // measure 33
0001
0100
0000
0001
0000
1000
0000
0010
,  // measure 34
0000
1100
0000
0001
0000
1010
0000
0001
,  // measure 35
0000
1000
0000
0100
0000
0010
0000
0001
,  // measure 36
0000
0101
0000
1000
0000
0011
0000
1000
,  // measure 37
0000
0002
0000
1003
0000
2000
0000
3010
,  // measure 38
0000
0001
0000
0110
0000
0110
0000
1000
,  // measure 39
0000
0120
0000
1030
0000
0210
0000
0301
,  // measure 40
0000
1002
0000
0103
0000
1001
0000
1000
,  // measure 41
0100
0011
1000
0110
,  // measure 42
0001
1100
0010
1001
,  // measure 43
0100
1010
0001
0110
,  // measure 44
1000
0101
0010
1001
,  // measure 45
1000
0100
0010
0100
1000
0100
0010
0100
,  // measure 46
0010
0001
0010
0100
0010
0001
0010
0100
,  // measure 47
0010
0001
1000
0100
1000
0001
0010
0001
,  // measure 48
1000
0220
0330
1001
,  // measure 49
1100
0000
0001
0010
0100
0000
0100
0010
,  // measure 50
0001
0000
1000
0100
0001
0100
1000
0000
,  // measure 51
0011
0000
1000
0010
0100
0000
0100
0010
,  // measure 52
1000
0000
0001
0010
1000
0010
0001
0000
,  // measure 53
1010
0000
0001
0010
0100
0000
0010
0100
,  // measure 54
1000
0000
0010
0100
0001
0100
0010
0000
,  // measure 55
0101
0000
1000
0100
0010
0000
0100
0010
,  // measure 56
0001
0000
0100
0010
1000
0010
0100
0000
,  // measure 57
0002
0000
1003
0100
1000
0000
0001
0010
,  // measure 58
0001
0100
0001
1000
0002
0000
1003
0000
,  // measure 59
0200
0000
0310
1000
0010
0000
0100
0001
,  // measure 60
0100
0010
0100
1000
0200
0000
0310
0000
,  // measure 61
0001
0000
1000
0100
1000
0000
0010
0100
,  // measure 62
0010
0000
0100
0001
0100
0000
0001
1000
,  // measure 63
0001
0000
1000
0100
0010
0100
0001
0100
,  // measure 64
1000
0110
0001
0110
,  // measure 65
1001
0000
0100
0010
0100
0010
1000
0001
,  // measure 66
1000
0001
1000
0000
0001
0010
0100
0000
,  // measure 67
1001
0000
0100
0001
1000
0010
1000
0001
,  // measure 68
0100
0010
1000
0000
0010
0100
0010
0000
,  // measure 69
0110
0000
1000
0100
0010
0001
0100
0010
,  // measure 70
0100
0001
1000
0000
0100
1000
0010
0000
,  // measure 71
0110
0000
0001
0100
0010
1000
0010
0100
,  // measure 72
0001
1000
0001
0000
0100
0010
0100
0000
,  // measure 73
0001
0010
0000
0010
0000
1000
0000
1000
,  // measure 74
0000
0010
0000
0010
0000
0001
0000
0001
,  // measure 75
0000
2100
0000
3010
0000
2010
0000
3001
,  // measure 76
0000
1002
0000
0103
0000
0102
0000
1003
,  // measure 77
0100
1000
0100
0000
0010
0001
0010
0000
,  // measure 78
1000
0100
0010
0001
0010
0100
1000
0000
,  // measure 79
0001
0100
0001
0100
0010
1000
0010
1000
,  // measure 80
0001
1100
0101
1001
,  // measure 81
0110
0000
0000
0000
;

//---------------dance-single - ----------------
#NOTES:
     dance-single:
     :
     Challenge:
     9:
     0.619,1.000,0.367,0.151,0.155: // measure 1
0000
0000
0000
0000
,  // measure 2
0000
0000
0000
0000
,  // measure 3
0000
0000
0000
0000
,  // measure 4
0000
0000
0000
0000
,  // measure 5
0000
0000
0000
0000
,  // measure 6
0000
0000
0000
0000
,  // measure 7
0000
0000
0000
0000
,  // measure 8
0000
0000
0000
0000
,  // measure 9
1000
0100
0010
0001
0000
0100
0010
1000
,  // measure 10
0000
0001
0010
1000
0010
0001
1000
0001
,  // measure 11
1000
0010
0100
0001
0000
0010
0100
1000
,  // measure 12
0000
0001
0100
1000
0100
0001
1000
0010
,  // measure 13
0100
0010
0100
0010
1000
0001
1000
0001
,  // measure 14
1000
0100
1000
0100
0010
0001
0010
0001
,  // measure 15
1000
0100
0010
0100
1000
0001
0010
0100
,  // measure 16
2002
3003
0110
1001
,  // measure 17
1000
0100
0001
0100
1000
0100
0001
0100
,  // measure 18
1000
0010
0001
0010
1000
0010
0001
0010
,  // measure 19
1000
0001
0010
0100
1000
0001
0100
0010
,  // measure 20
0100
0001
1000
0100
0010
0100
1000
0010
,  // measure 21
0100
0001
1000
0010
1000
0001
0100
0010
,  // measure 22
1000
0001
0100
0001
1000
0010
1000
0001
,  // measure 23
1000
0010
1000
0010
0100
0001
0100
0001
,  // measure 24
1000
0001
1000
0001
0100
0010
0100
0010
,  // measure 25
2000
0000
0100
0010
3002
0000
1000
0010
0203
0000
0001
1000
0310
0000
1001
0000
,  // measure 26
0020
0000
0001
0100
2030
0000
0001
0010
3002
0000
1000
0100
1003
0000
0110
0000
,  // measure 27
1000
0000
0000
0001
1000
0000
0001
1000
0001
0000
0000
0100
0010
0000
0100
0010
0100
0000
0000
0001
1000
0000
0010
0100
0010
0000
0000
0100
0010
0000
1100
0000
,  // measure 28
0011
0000
0000
1000
0100
0000
0010
0001
0010
0000
0001
0000
0010
0000
0100
1000
0100
0000
0000
1000
0001
0000
0100
0010
0100
0000
1010
0000
0101
0000
1000
0001
,  // measure 29
2000
0000
0000
3001
0001
0000
1000
0100
0020
0000
0000
0001
0031
0000
0001
0010
,  // measure 30
0200
0000
0000
0010
0310
0000
0001
0010
0002
0000
0000
1000
1003
0000
0110
0000
,  // measure 31
1002
0000
0000
0010
0013
0000
0010
0001
0010
0000
1100
0000
0101
0000
1000
0010
,  // measure 32
1000
0000
0000
0001
0010
0001
0100
0001
1000
0000
0011
0000
1010
0000
0001
1000
,  // measure 33
0001
0000
1000
0100
0001
0100
1000
0000
,  // measure 34
0110
0000
0001
0100
0010
0100
0001
0000
,  // measure 35
1100
0000
0001
0010
1000
0010
0001
0000
,  // measure 36
0011
0000
0100
0001
1000
0001
0100
0000
,  // measure 37
1001
0000
0100
0010
1000
0010
0100
0000
,  // measure 38
1010
0000
0001
0100
1000
0100
0001
0000
,  // measure 39
0110
0000
1000
0100
0010
0100
1000
0000
,  // measure 40
0101
0000
0010
1000
0001
1000
0010
0000
,  // measure 41
2100
3001
0102
1003
,  // measure 42
2010
3001
0012
1003
,  // measure 43
0201
0310
1020
0130
,  // measure 44
0210
0301
1020
0130
,  // measure 45
1000
0100
0001
0100
1000
0010
0001
0010
,  // measure 46
1000
0100
0001
0100
1000
0010
0001
0010
,  // measure 47
1000
0100
0010
0001
0010
0100
1000
0001
,  // measure 48
0110
1001
1001
0110
,  // measure 49
0001
0010
0100
0010
0001
1000
0100
0010
,  // measure 50
0001
0000
1000
0100
0010
0100
1000
0000
,  // measure 51
0010
0100
0010
1000
0010
0001
0010
0100
,  // measure 52
0010
0000
0100
0001
1000
0001
0100
0000
,  // measure 53
0001
0010
0001
0010
1000
0010
1000
0010
,  // measure 54
0001
0000
0100
0001
1000
0010
1000
0000
,  // measure 55
0010
1000
0100
0010
0001
0100
0010
0100
,  // measure 56
0001
0000
1000
0001
0010
0001
1000
0000
,  // measure 57
0010
0100
0001
0010
0100
1000
0010
0100
,  // measure 58
0001
0000
0100
0001
0010
0001
0100
0000
,  // measure 59
0010
1000
0010
1000
0001
0100
1000
0100
,  // measure 60
0001
0000
0100
0001
0010
0100
1000
0000
,  // measure 61
0001
0100
0001
0100
1000
0100
1000
0100
,  // measure 62
0001
0010
0100
0010
0001
1000
0100
0010
,  // measure 63
0001
1000
0100
0010
0100
1000
0001
0100
,  // measure 64
0010
1000
0100
0001
0100
1000
0001
0000
,  // measure 65
1001
0000
1100
0000
0001
0010
0100
0010
,  // measure 66
0001
1000
0100
0010
0100
1000
0001
0000
,  // measure 67
0110
0000
0011
0000
1000
0010
0100
0010
,  // measure 68
1000
0001
0100
0010
0100
0001
1000
0000
,  // measure 69
0101
0000
1001
0000
0010
1000
0100
1000
,  // measure 70
0010
0100
0001
0010
0001
0100
0010
0000
,  // measure 71
1010
0000
0110
0000
1000
0001
0010
0001
,  // measure 72
1000
0001
1000
0100
1000
0001
1000
0000
,  // measure 73
0101
0000
0011
0000
1000
0100
1000
0000
,  // measure 74
1100
0000
1010
0000
0001
0010
0001
0000
,  // measure 75
1000
0100
0010
0000
0001
0010
0100
0000
,  // measure 76
1000
0010
0100
0000
0001
0100
0010
0000
,  // measure 77
1000
0100
0001
0100
1000
0100
0010
0001
,  // measure 78
0010
1000
0010
0001
0010
0100
1000
0001
,  // measure 79
0100
0010
0100
0010
1000
0001
0100
0010
,  // measure 80
1100
0011
1010
0101
,  // measure 81
1001
0000
0000
0000
;
