#TITLE:Я очень рад, ведь я, наконец, возвращаюсь домой.;
#SUBTITLE:;
#ARTIST:Eduard Gil;
#TITLETRANSLIT:I Am So Happy Because I Am Finally Returning Home!;
#SUBTITLETRANSLIT:;
#ARTISTTRANSLIT:;
#GENRE:;
#CREDIT:Telperion;
#BANNER:;
#BACKGROUND:;
#LYRICSPATH:;
#CDTITLE:;
#MUSIC:I Am So Happy Because I Am Finally Returning Home.ogg;
#OFFSET:-5.963;
#SAMPLESTART:5.963;
#SAMPLELENGTH:18.636;
#SELECTABLE:YES;
#BPMS:0.000=96.176,2.000=96.173,3.000=96.176,4.000=96.173,5.000=96.176,7.000=96.173,8.000=96.176,9.000=96.173,10.000=96.176,12.000=96.173,13.000=96.176,14.000=96.173,15.000=96.176,16.000=96.602,17.000=97.849,18.000=102.539,19.000=93.622,20.000=96.878,22.000=96.875,23.000=96.878,24.000=96.875,25.000=96.878,26.000=96.875,27.000=96.878,29.000=96.875,30.000=96.878,31.000=89.722,33.000=95.621,37.000=95.618,38.000=95.621,39.000=113.074,40.000=95.367,41.000=95.364,44.000=95.367,45.000=95.364,48.000=95.367,49.000=95.364,52.000=103.115,53.000=96.061,54.000=96.058,55.000=96.061,56.000=96.058,57.000=96.061,58.000=96.058,59.000=97.846,60.000=97.843,62.000=96.486,63.000=96.482,68.000=96.486,69.000=96.482,73.000=93.622,74.000=91.629,75.000=100.156,76.000=98.394,86.000=98.391,87.000=98.394,89.000=97.703,90.000=97.700,92.000=97.703,93.000=97.700,95.000=97.703,96.000=97.700,99.000=97.703,100.000=97.700,102.000=97.703,103.000=97.700,105.000=97.703,106.000=97.700,109.000=97.703,110.000=97.700,112.000=97.703,113.000=97.700,114.000=93.625,115.000=97.143,117.000=97.140,118.000=97.143,120.000=97.140,121.000=97.143,123.000=97.140,124.000=97.143,127.000=95.703,128.000=89.720,129.000=97.511,130.000=97.508,133.000=97.511,134.000=97.508,135.000=110.425,136.000=98.816,137.000=98.813,139.000=98.816,140.000=98.813,142.000=98.816,143.000=98.813,145.000=98.816,146.000=98.813,148.000=95.703,149.000=91.629,150.000=97.720,156.000=97.723,157.000=97.720,164.000=93.622,165.000=99.129,166.000=99.133,167.000=99.129,170.000=99.133,171.000=99.129,174.000=99.613,175.000=100.703,176.000=93.622,177.000=104.442,178.000=92.089,179.000=101.056,180.000=94.896,181.000=105.040,182.000=91.629,183.000=99.492,184.000=99.496,185.000=99.492,188.000=99.496,189.000=99.492,190.000=90.325,191.000=95.028,192.000=89.722,193.000=91.295,194.000=88.047,195.000=95.885,196.000=94.912,198.000=94.915,199.000=94.912,204.000=89.720,205.000=89.722,206.000=94.182,207.000=94.179,208.000=94.182,210.000=94.179,211.000=94.182,212.000=94.179,213.000=94.182,214.000=94.179,215.000=94.182;
#STOPS:;
#BGCHANGES:-10.841=IASHBIAFRH.avi=1.000=0=0=0=StretchNoLoop====,
99999=-nosongbg-=1.000=0=0=0 // don't automatically add -songbackground-
;
#KEYSOUNDS:;

//---------------dance-single - Telperion----------------
#NOTES:
     dance-single:
     Telperion:
     Hard:
     7:
     0.376,0.405,0.043,0.163,0.376:
2000
0000
0001
3001
,
1000
0000
0001
0000
0100
0000
0010
1000
,
0100
0010
0100
0010
,
0001
0000
0100
0000
0100
0000
1000
0100
,
0002
0000
1000
1003
,
0001
0000
1000
0000
0100
0010
0100
1000
,
0001
0100
1000
0100
,
0010
0000
1000
0000
0001
0000
1000
0000
0001
1000
0001
0000
0000
0000
0000
0000
,
1001
0000
0000
1000
0100
0000
0000
0100
0010
0000
0000
0010
0001
0000
0000
0001
,
0100
0000
0000
0000
0010
0100
0010
0100
0010
0000
0000
0000
0100
0000
0000
0000
,
0001
0000
0000
0001
0010
0000
0000
0010
0100
0000
0000
0100
1000
0000
0000
1000
,
0002
0000
0000
0000
,
0203
0000
0000
0000
,
1300
0000
0100
0000
0001
1000
0010
0100
,
0001
0000
1000
0000
0100
0000
0000
0000
1000
0001
1000
0000
0000
0000
0000
0000
,
1000
0000
0000
0000
0100
0000
0000
0000
0010
0000
0000
0000
0100
0000
0000
0000
0001
0000
0000
0000
1000
0000
0000
0000
0010
0000
0000
0000
0100
0000
0000
0000
0001
0000
0000
0000
0100
0000
0000
0000
0000
0000
0010
0000
0000
0001
0000
0000
,
0200
0000
0010
0010
0020
0000
0330
0000
,
0001
0000
0000
0001
0100
0000
0000
0100
0010
0000
0000
0010
1000
0000
0000
1000
,
0100
0110
2001
3002
,
1000
2003
0001
3002
,
2000
0000
3003
0000
,
0000
0000
0000
0000
,
0000
0000
0000
0000
1000
0000
0001
0000
0100
0000
0000
0100
1000
0000
0000
1000
,
0010
0000
0000
0010
0100
0000
0000
0100
1000
0000
0000
1000
0001
0000
0000
0001
,
0100
0000
0000
0100
1000
0000
0000
1000
0001
0000
0000
0001
0100
0000
0000
0100
,
0010
0000
0000
0010
0001
0000
0000
0001
0100
0000
0000
0100
0010
0000
0000
0010
,
1000
0000
0000
1000
0100
0000
0000
0100
0001
0000
0000
0001
0010
0000
0000
0010
,
0100
0000
0000
0100
0001
0000
0000
0001
1000
0000
0000
1000
0001
0000
0000
0001
,
1000
0001
1000
0000
0001
1000
0001
1000
0100
0000
0000
0100
0010
0000
0000
0010
,
0001
0000
0000
0001
0100
0000
0000
0100
1000
0000
0000
1000
0001
0000
0000
0001
,
0010
0000
0000
0010
0100
0000
0000
0100
0001
0000
0000
0001
1000
0000
0000
1000
,
0100
0000
0000
0100
0001
0000
0000
0001
0100
0000
0000
0000
0110
0000
0000
0000
,
2000
0001
0002
0000
0000
0000
0000
0000
,
0000
0000
0000
3003
,
0000
0000
0000
0000
0000
0000
0000
0000
0000
0000
0000
0000
1000
0001
1000
0001
,
0200
0000
1300
0100
0002
0000
1003
0100
,
0002
0000
0203
0000
1300
0000
0001
1000
,
0001
0000
0000
0000
0000
0000
0100
0000
0000
0000
0000
0000
0100
0000
0000
0000
0000
0000
0000
0000
0000
0000
0000
0000
0010
0000
0000
0100
0000
0000
0000
0000
0000
0010
0000
0000
1000
0000
0000
0000
0100
0000
0000
0000
0010
0000
0000
0000
,
0001
0000
0001
0100
0010
0000
0000
0000
0010
0000
0100
0000
0001
0000
0010
0000
,
0100
1000
0100
1000
0001
0100
0001
0100
,
0010
0000
0000
0010
1000
0000
1000
0100
0010
0000
0000
0000
0010
0100
0010
0100
,
0010
0001
0100
0010
1000
0010
0100
0001
,
0020
0000
2030
0000
3002
0000
0103
1000
,
0001
0000
0010
0000
0100
0000
0010
0000
0001
0000
0000
0000
0100
0001
0100
0001
,
0100
0000
0000
0000
0010
1000
0010
1000
0100
0000
0000
0000
0010
0001
0010
0001
,
0100
0000
0000
0000
0000
0000
0000
0000
0000
0000
0000
0000
0010
0000
0000
1000
0000
0000
0001
0000
0000
1000
0000
0000
0100
0000
0000
0000
0000
0000
0000
0000
0000
0000
0000
0000
0010
0000
0000
0000
0001
0000
0000
0000
0100
0000
0000
0000
,
0010
1000
0010
0100
0001
0010
0001
1000
0100
0010
0001
0100
,
0010
0100
0001
1000
0001
1000
0002
0000
0000
1003
0000
0000
,
1001
0000
0000
1000
0100
0000
0000
0100
0001
0000
0000
0001
1000
0000
0000
1000
,
0010
0000
0100
0000
1000
0000
0001
0000
0100
0000
0000
0000
0100
0010
0100
0010
,
0100
0000
0000
0100
1000
0000
0000
1000
0001
0000
0000
0001
0010
0000
1000
0000
,
0200
0000
0001
0000
0001
0000
0000
0000
0000
1000
0000
0000
1000
0000
1000
0000
,
0000
0000
0001
0000
0001
0000
0000
0000
0000
1000
0000
0000
1000
0000
0010
0000
,
2000
0000
0000
0000
,
3300
0000
0000
0000
0100
0010
0001
1000
1001
0000
0000
0000
0000
0000
0000
0000
;

//---------------dance-single - Telperion----------------
#NOTES:
     dance-single:
     Telperion:
     Medium:
     4:
     0.230,0.232,0.092,0.184,0.000:
2000
0000
3002
0000
,
1003
0000
0100
0000
0010
0000
0100
1000
,
0002
0000
2003
0000
,
3001
0000
0100
0000
0010
0000
0100
0001
,
0020
0000
0130
0010
,
0100
0000
1000
0000
0001
0000
0100
1000
,
0200
0310
0200
0310
,
0220
0000
0330
0001
,
0100
1000
0010
0100
,
1000
0000
0001
1000
0001
0000
0000
0000
,
1000
0100
0001
0010
,
0200
0010
0010
0310
,
0100
0010
0010
0010
,
0010
1000
0100
0001
,
0010
1000
1001
0000
,
0200
0000
1300
0010
,
0100
0000
1000
0100
0001
0000
0000
0000
,
0200
0000
0301
1000
,
1001
0000
1001
0010
0220
0000
0000
0000
,
0000
0300
0000
0130
,
0100
0100
0100
0000
,
0000
0000
0000
0000
,
0000
0000
0100
1000
0001
0000
0100
0000
,
1000
0010
0001
0100
,
1000
0010
0100
0001
,
0010
1000
0100
0001
,
0010
0100
1000
0010
,
0100
1000
0001
0100
,
1001
0000
2001
3002
,
1000
2003
3001
0000
,
0000
0000
1002
2003
,
0001
0000
3002
0000
1003
0000
0100
0010
,
1000
0100
0020
0000
0000
0000
0000
0000
,
0000
0000
0000
0130
,
0200
0000
0000
0000
0300
0000
0001
1000
,
0001
1000
0100
1000
,
0001
0000
0100
0000
0001
0000
1000
0001
,
1000
0010
0200
1000
,
0301
0010
0200
0001
,
2300
0001
0100
3001
,
1001
0110
1001
0000
,
0001
1000
0001
0000
1000
0001
1000
0000
,
0001
0010
1000
0100
,
0010
0100
0010
0000
0100
0010
0100
0001
,
1000
0000
0001
1000
0100
0000
1000
0001
,
0100
0000
0001
1000
0100
0000
1000
0001
,
0100
0000
1000
0000
,
0010
0000
0001
1000
,
0001
0010
1000
0100
,
0010
0000
0000
0100
,
0010
0001
0100
1000
,
0020
0000
0000
0000
,
0000
0000
0000
0000
,
0000
0000
0000
0000
,
0030
0110
1001
0000
;

//---------------dance-single - Telperion----------------
#NOTES:
     dance-single:
     Telperion:
     Easy:
     3:
     0.126,0.154,0.014,0.000,0.000:
1000
0000
0000
0001
,
0001
0000
0000
1000
,
1000
0001
1000
0001
,
1000
0001
0000
0000
,
1000
0000
0000
0001
,
0001
0000
0000
1000
,
0001
1000
0001
1000
,
0001
1000
1000
0000
,
0010
0100
0010
0100
,
0010
0000
0000
0000
,
1000
0001
1000
0001
,
1000
0000
0000
0000
,
0000
0000
0000
0000
,
0010
0001
0100
1000
,
0010
0000
0000
0000
,
0100
0001
0100
0001
,
0100
0000
0000
0000
,
0100
1000
0100
1000
,
0100
0000
0010
0000
,
0000
0000
0000
0000
,
0000
0000
0000
0000
,
0000
0000
0000
0000
,
0000
0100
0001
1000
,
0100
1000
0001
1000
,
0100
1000
0001
0100
,
0001
1000
0001
0100
,
0001
0000
1000
0001
,
1000
0001
1000
0001
,
1000
0000
1000
0000
,
0001
0000
0001
0000
,
0000
0000
0100
0000
,
0100
0000
0010
0000
,
1001
0000
0000
0000
,
0000
0000
0000
0000
,
0000
0000
0000
0000
,
1000
0000
1000
0000
,
1000
1000
1000
0000
,
0001
0100
0010
0000
,
1000
0100
0010
0000
,
0001
0100
0010
1000
,
0100
0000
0000
0000
,
0001
0001
0001
0001
,
1000
0000
0000
0000
,
1000
1000
1000
1000
,
0001
0100
1000
0010
,
0001
0100
1000
0010
,
0001
0000
0000
0000
,
0000
0000
0000
0000
,
1000
0100
1000
0100
,
1000
0000
0000
0000
,
0001
0100
0001
0100
,
0001
0000
0000
0000
,
0000
0000
0000
0000
,
0000
0000
0000
0000
,
0000
0000
1001
0000
;

//---------------dance-single - Telperion----------------
#NOTES:
     dance-single:
     Telperion:
     Beginner:
     1:
     0.090,0.135,0.106,0.000,0.000:
0000
0000
0000
0000
,
0000
0000
0000
0000
,
0000
0000
0000
0000
,
0000
0000
0000
0000
,
0000
0000
0000
0000
,
0000
0000
0000
0000
,
0000
0000
0000
0000
,
0000
0000
0000
0000
,
1000
1000
1000
1000
,
1000
0000
0000
0000
,
0001
0001
0001
0001
,
0001
0000
0000
0000
,
0000
0000
0000
0000
,
1000
0000
0001
0000
,
1000
0000
0000
0000
,
0110
0000
0110
0000
,
0110
0000
0000
0000
,
1001
0000
1001
0000
,
1001
0000
1000
0000
,
0001
0000
1000
0000
,
0001
0000
0100
0000
,
0000
0000
0000
0000
,
0000
0000
0010
0000
,
0100
0000
0010
0000
,
0100
0000
0001
0000
,
0000
0000
0000
0000
,
0000
0000
1000
0000
,
0001
0000
1000
0000
,
0000
0000
0100
0100
,
0100
0100
0100
0000
,
0000
0000
0010
0010
,
0010
0010
0010
0000
,
1001
0000
0000
0000
,
0000
0000
0000
0000
,
0000
0000
0000
0000
,
1000
0000
0001
0000
,
1000
0000
0000
0000
,
0110
0000
0000
0000
,
0110
0000
0000
0000
,
1001
0000
0000
0000
,
0000
0000
0000
0000
,
0001
0001
0001
0001
,
0001
0000
0000
0000
,
1000
1000
1000
1000
,
1000
0000
1001
0000
,
0110
0000
1001
0000
,
0110
0000
0000
0000
,
0000
0000
0000
0000
,
0100
0100
0100
0100
,
0100
0000
0000
0000
,
0010
0010
0010
0010
,
0010
0000
0000
0000
,
0000
0000
0000
0000
,
0000
0000
0000
0000
,
0000
0000
1001
0000
;

//---------------dance-double - Telperion----------------
#NOTES:
     dance-double:
     Telperion:
     Hard:
     7:
     0.309,0.309,0.021,0.099,0.234:
00200000
10000000
01000000
10300000
,
01000000
00010000
00001000
00000100
,
00000002
00000010
00000203
00001000
,
00000310
00001000
00000100
00000000
,
00000001
00000100
00001000
00000010
,
00000100
00010000
00001000
01000000
,
00100000
00010000
10000000
00100000
,
01000000
00000000
00000000
00000000
00000000
00000000
00000000
00000000
10000000
00010000
10000000
00000000
00000000
00000000
00000000
00000000
,
00010000
00000000
00000000
00010000
00100000
00000000
00000000
00100000
10000000
00000000
00000000
10000000
01000000
00000000
00000000
01000000
,
00100000
00000000
00000000
00100000
10000000
00000000
01000000
00000000
00010000
00000000
00000000
00000000
00000000
00000000
00000000
00000000
,
00001000
00000000
00000000
00001000
00000100
00000000
00000000
00000100
00000001
00000000
00000000
00000001
00000010
00000000
00000000
00000010
,
00000100
00000000
00000000
00000100
00000001
00000000
00000000
00000001
00000010
00000000
00000000
00000010
00001000
00000000
00000000
00010000
,
01000000
00000000
00000000
01000000
10000000
00000000
00000000
10000000
00100000
00000000
00000000
00010000
00001000
00000000
00000100
00000000
,
00000010
00001000
00000100
00000001
00000010
00000100
00000001
00000100
,
00001000
00000000
00000000
00000000
00010000
00000000
00000000
00000000
00001000
00010000
00001000
00000000
00000000
00000000
00000000
00000000
,
00001000
00000000
00010000
00000000
00001000
00000000
00100000
00000000
00010000
00000000
00100000
00000000
00001000
00000000
01000000
00000000
00001000
00000000
00100000
00000000
00000000
00010000
00000000
00000000
,
01000000
00000000
00100000
00100000
00100000
00000000
00000000
00000000
,
10000000
01000000
00010000
01000000
00010000
00001000
00000010
00000001
,
00000100
00001000
00000010
00000100
00002000
00000000
00000000
00000000
,
00000100
00003001
00000100
00000001
,
00000100
00002000
00020000
00000000
,
00000000
00000000
00000000
00000000
,
00033000
00000000
00000000
00000000
00010000
00000000
00001000
00000000
00000100
00000000
00000000
00000100
00000001
00000000
00000000
00000001
,
00000010
00000000
00000000
00000010
00001000
00000000
00000000
00010000
00100000
00000000
00000000
00100000
10000000
00000000
00000000
10000000
,
01000000
00000000
00000000
01000000
00100000
00000000
00000000
00100000
10000000
00000000
00000000
10000000
01000000
00000000
00000000
01000000
,
00100000
00000000
00000000
00100000
00010000
00000000
00000000
00010000
00001000
00000000
00000000
00001000
00000100
00000000
00000000
00000100
,
00000001
00000000
00001000
00000001
00002000
00000000
00000100
00000000
,
00003002
00000100
00001003
00000000
,
00001000
00000001
00001000
00000000
00000000
00000000
00000000
00000000
00000001
00000000
00000000
00000001
00000100
00000000
00000000
00000100
,
00001000
00000000
00000000
00001000
00000010
00000000
00000000
00000010
00000100
00000000
00000000
00000000
00001000
00000000
00000000
00000000
,
00010000
00000000
00000000
00000000
00100000
00000000
00000000
00000000
01000000
00000000
00000000
01000000
00010000
00000000
00000000
00010000
,
00100000
00000000
00000000
00100000
10000000
00000000
00000000
10000000
01000000
00000000
00000000
00000000
01100000
00000000
00000000
00000000
,
20020000
00000000
00000000
00000000
,
00000000
00000000
00000000
00000000
,
30030000
00000000
00000000
00000000
00000000
00000000
10000000
00100000
,
01000000
00000000
00000000
01000000
10000000
00000000
00000000
10000000
00010000
00000000
00000000
00010000
01000000
00000000
00000000
01000000
,
00100000
00000000
00000000
00100000
00001000
00000000
00000000
00001000
00000100
00000000
00000000
00000000
00000001
00000000
00001000
00000000
,
00000200
00000000
00000000
00000000
00000000
00000000
00000000
00000000
00000000
00000000
00000000
00000000
00000010
00000000
00000000
00000000
00000000
00000000
00000000
00000000
00000000
00000000
00000000
00000000
00000310
00000000
00000000
00000001
00000000
00000000
00000000
00000000
00000000
00000001
00000000
00000000
00000100
00000000
00000000
00000000
00000010
00000000
00000000
00000000
00000100
00000000
00000000
00000000
,
00001000
00000000
00010000
00001000
00020000
00000000
00000000
00000000
00000000
00000000
00000000
00000000
00031000
00000000
00010000
00000000
,
01000000
10000000
00100000
00010000
,
01000000
10000000
10010000
00000000
,
10000000
01000000
00010000
00001000
00000100
00000000
00001000
00000100
,
00000001
00000010
00001000
00000100
,
00000001
00000010
00001000
00010000
01000000
00000000
00010000
01000000
,
10000000
00000000
01000000
00010000
00001000
00000000
00010000
00001000
,
00000100
00000000
00001000
00000100
00000001
00000000
00002000
00000000
,
00000001
00000000
00000010
00000000
,
00010000
00000000
00000000
00000000
00003100
00000000
00000100
00000001
,
00000010
00000000
00000100
00000010
00000100
00000000
00001000
00010000
,
00001000
00000000
00000000
00000000
00000000
00000000
00010000
00001000
,
00010000
00000000
00000000
00010000
01000000
00000000
00000000
01000000
10000000
00000000
00000000
10000000
00100000
00000000
00000000
00100000
,
01000000
00000000
00100000
00000000
00100000
00000000
00000000
00000000
00000000
00010000
00000000
00000000
00001000
00000000
00000100
00000000
,
00000001
00000000
00000010
00000000
00000010
00000000
00000000
00000000
00000000
00000001
00000000
00000000
00000100
00000000
00001000
00000000
,
00020000
00000000
00000000
00000000
,
00030000
00000000
00000000
00000000
00001000
00010000
00001000
00010000
00001000
00000000
00000000
00000000
00000000
00000000
00000000
00000000
;

//---------------dance-double - Telperion----------------
#NOTES:
     dance-double:
     Telperion:
     Medium:
     4:
     0.185,0.232,0.113,0.000,0.000:
10000000
01000000
00010000
01000000
,
10000000
00000000
00010000
10000000
,
00010000
01000000
10000000
01000000
,
00001000
00010000
00000000
00010000
,
00000100
00000010
00000001
00000100
,
00001000
00000000
00000000
00000000
,
00000100
00000001
00000010
00001000
,
00010000
00000000
00011000
00000000
,
00010000
00100000
10000000
01000000
,
00100000
01000000
01100000
00000000
,
00010000
01000000
10000000
00100000
,
00010000
01000000
00100000
00001000
,
00000100
00010000
00000010
00000100
,
00001000
00000001
00000100
00000010
,
00000100
00000000
00000110
00000000
,
00000010
00001000
00000100
00000001
,
00000010
00000100
00000110
00000000
,
00000001
00000010
00001000
00010000
,
00011000
01000000
01010000
00100000
,
10000000
01000000
00010000
00100000
,
10000000
01000000
00010000
00000000
,
00000000
00000000
00000000
00000000
,
00000000
00001000
00011000
00000100
,
00000001
00000010
00001000
00100000
,
01000000
10000000
00010000
01000000
,
10000000
00100000
00010000
01000000
,
01100000
00000000
10000000
01000000
,
00010000
00001000
00000100
00000001
,
00001000
00000000
00000001
00000010
,
00000100
00001000
00010000
00000000
,
00000000
00001000
00000100
00000001
,
00000010
00001000
00000100
00010000
,
01000000
01100000
00000000
00000000
,
00000000
00000000
00000000
00000000
,
10000000
10000000
00010000
10000000
,
00010000
00000000
00000100
00000000
,
00000001
00001000
00000001
00000010
,
00001000
00010000
00000100
00000010
,
00000001
00000100
00001000
00000000
,
00010000
01000000
10000000
00010000
,
10010000
00000000
00000000
00000000
,
10000000
01000000
00001000
00000100
,
00000010
00000000
00000000
00000000
,
00000001
00000100
00010000
10000000
,
11000000
00010000
01010000
00100000
,
01100000
00010000
00011000
00001000
,
00000100
00000001
00000010
00001000
,
00000100
00000001
00000010
00000000
,
00001000
00010000
01000000
10000000
,
00010000
00000000
00000000
00000000
,
01000000
00100000
00010000
00001000
,
00000100
00000000
00000000
00000000
,
00000000
00000000
00000000
00000000
,
00000000
00000000
00000000
00000000
,
00000000
00000110
00001001
00000000
;
