#TITLE:Home;
#SUBTITLE:;
#ARTIST:Kieran Ross;
#TITLETRANSLIT:;
#SUBTITLETRANSLIT:;
#ARTISTTRANSLIT:;
#CREDIT:;
#BANNER:;
#BACKGROUND:;
#LYRICSPATH:;
#CDTITLE:;
#MUSIC:Home Kieran Ross.mp3;
#OFFSET:-0.194;
#SAMPLESTART:66.364;
#SAMPLELENGTH:15.000;
#SELECTABLE:YES;
#DISPLAYBPM:133.400;
#BPMS:0.000=133.400,98.000=129.900,162.000=133.400,194.000=129.900;
#STOPS:98.000=0.020
;
#BGCHANGES:;

//---------------dance-single - ----------------
#NOTES:
     dance-single:
     :
     Hard:
     8:
     0.594,0.630,0.094,0.260,0.665:
0000
0000
0000
0000
0000
0000
1100
0000
1000
0100
0000
0100
,
0010
0000
0010
0001
0000
0001
0100
0000
0100
0010
0000
0010
,
1000
0000
0010
0000
0100
0000
0101
0000
0000
0101
0000
0001
,
0010
0000
0010
0100
0000
0100
1000
0000
0100
0000
0010
0000
,
0001
0000
0100
0000
0010
0000
1000
0000
1000
0010
0000
0010
,
0100
0000
0100
0001
0000
0001
0100
0000
0100
0001
0000
0001
,
0100
0000
0010
0000
1000
0000
0010
0000
0010
1000
0000
1000
,
0010
0000
0010
0100
0000
0100
0001
0000
0100
0000
0001
0000
,
0022
0000
0000
0033
0000
0000
1000
0010
1000
0010
0000
0000
,
0010
0100
0010
0100
0000
0000
0100
0001
0100
0001
0000
0000
,
0010
0000
0100
0000
1000
0000
0100
0010
0001
0010
0000
0000
,
0100
1000
0010
0100
0000
0000
0001
0000
0001
0000
0001
0000
,
0100
0000
0100
0000
0100
0000
0010
0000
0010
1000
0000
1000
,
0010
0000
0010
0100
0000
0100
0001
0000
0010
0100
0000
1000
,
0010
0000
0100
0000
0001
0000
0100
0000
0010
1000
0000
0100
,
0010
0000
0010
0001
0000
0010
0100
0000
1000
0000
0010
0000
,
2002
0000
0000
3003
0000
0000
0001
0010
0100
0020
0000
0000
,
0100
0000
0000
1000
0000
0000
0031
0100
0010
0200
0000
0000
,
0010
0000
0000
0001
0000
0000
0310
0001
0100
0020
0000
0000
,
0230
0000
0000
2300
0000
0000
3001
0100
0010
2000
0000
0000
,
3020
0000
0000
0230
0000
0000
0301
0010
0001
0010
0100
1000
,
0100
0010
0001
0100
0010
1000
0010
0100
0001
0100
0010
1000
,
0100
0010
0100
0010
0000
0000
0001
0100
0001
0100
0000
0000
,
0010
1000
0010
1000
0000
0000
0100
0010
0001
0100
0000
0000
,
0010
0000
1000
0000
0001
0000
1000
0000
0000
0000
0000
0000
1001
0000
0000
0100
0000
0000
0010
0000
0000
0001
0000
0000
,
0100
0010
1000
0010
0100
0001
0010
0100
,
1000
0010
0100
0001
0100
0001
1000
0100
,
0010
0001
0010
0100
1000
0010
0000
0100
,
0001
0010
0100
1000
0020
0000
0000
0130
,
0002
2003
3020
0030
,
0100
0000
0001
2000
0000
3100
0010
0001
,
1000
0001
0100
0010
1000
0001
0100
0001
,
0010
0100
1000
0100
0010
0001
0100
0010
,
1000
0010
0100
0001
0010
0100
1000
0100
,
0010
0001
0100
0010
1000
0010
1000
0100
,
0010
0001
0100
0010
1000
0010
1000
0000
,
0002
0000
0000
0000
2003
0000
0000
3001
,
0100
0010
1000
0001
2000
0000
3010
0100
,
0000
0002
0000
0003
0100
0010
1000
0010
,
0100
0010
1000
0000
0010
0000
0100
0001
,
0100
0000
0000
0010
0000
0000
0100
0000
0000
0001
0000
0000
0010
0000
0100
0000
0001
0000
0100
0000
0000
0000
0000
0000
,
0010
0100
1000
0010
0000
0000
0100
0001
0100
0010
0000
0000
,
1000
0000
0100
0000
0010
0000
0001
0010
0100
1000
0000
0000
,
0001
0100
0010
1000
0000
0000
0100
0000
0001
0000
0100
0000
,
0010
0000
1000
0000
0010
0000
0100
0001
0010
0100
1000
0100
,
1000
0001
1000
0100
1000
0100
0010
0001
0010
0100
1000
0010
,
0100
0000
0100
0000
0100
0000
0001
0010
0100
1000
0000
0000
,
0001
0100
0010
1000
0000
0000
0001
0000
0001
0000
0001
0000
,
0022
0000
0033
0000
1001
0000
0000
1000
,
0010
0100
0001
0020
0000
0000
0000
0130
,
1000
0000
0100
0000
0010
0000
0002
0000
0000
0000
0000
0000
0000
0000
1003
0001
,
0010
0100
1000
0000
0010
0100
0000
0001
,
0010
0100
0010
0100
0000
0000
1000
0000
0000
1001
0000
0000
;

//---------------dance-single - Copied from Copied f----------------
#NOTES:
     dance-single:
     Copied from Copied f:
     Challenge:
     10:
     0.742,0.713,0.166,0.177,1.000:
0000
0000
0000
0000
0000
0000
1100
1000
0100
0010
0001
0100
,
0001
0100
0010
1000
0001
0100
0001
0100
0001
1000
0010
1000
,
0010
0000
0010
0000
0100
0000
0101
0000
0000
0101
0100
0001
,
0010
0100
1000
0100
0010
0001
0100
0000
0100
0000
0100
0000
,
0010
0000
0010
0000
0010
0000
1000
0100
0010
0001
0010
0100
,
1000
0010
1000
0001
0100
0010
1000
0010
0100
0001
0010
0001
,
0100
0000
0100
0000
0100
0000
0010
1000
0010
0100
0001
0100
,
0010
1000
0100
0010
0001
0100
0010
0000
1000
0000
0001
0000
,
0022
0000
0000
0033
0000
0000
0001
0100
0010
1000
0010
0100
,
0001
1000
0001
0100
0001
0100
0001
1000
0010
1000
0001
0100
,
0010
0000
0100
0000
0001
0000
0100
0010
1000
0010
0100
0001
,
0010
0100
1000
0100
0010
0001
0010
0000
0010
0000
0010
0000
,
0001
0000
0001
0000
0001
0000
0100
0010
1000
0010
0100
0001
,
0010
0100
1000
0100
0010
0001
0100
0001
1000
0010
0100
0001
,
0011
0000
0110
0000
1100
0000
1000
0100
0010
0001
0010
0100
,
1000
0010
0100
0001
1000
0010
0110
0000
0101
0000
0011
0000
,
2200
0000
0000
3300
0000
0000
0001
0010
0100
1000
0100
0010
,
0001
1000
0001
0010
0100
1000
0100
0010
0001
0100
0010
1000
,
0010
0100
0001
0100
0010
1000
0010
0100
0001
0010
0100
1000
,
0100
0010
0001
0100
0001
0100
0010
0100
0010
0100
0001
0100
,
0001
0010
0100
0010
0100
1000
0010
1000
0010
0100
0001
0100
,
0010
1000
0010
0100
0001
0010
0100
1000
0001
0100
0001
1000
,
0001
0100
0010
1000
0010
0100
0001
0100
0010
1000
0100
0010
,
0001
1000
0010
0100
0001
0100
0010
1000
0010
0100
0001
0100
,
0010
0000
1000
0000
0100
0000
0010
0000
0001
0000
1000
0000
1001
0000
0000
0010
0000
0000
0010
0000
0000
0100
0000
0000
,
1000
0010
0010
0010
0100
0001
0001
0010
,
0100
1000
1000
1000
0010
0100
0100
0001
,
0010
0100
0100
0100
1000
1010
0000
0100
,
0001
0010
0100
1000
0020
0000
0000
0130
,
0002
2003
3020
0030
,
0100
0001
0000
0010
0100
0000
0200
0000
0000
0000
0310
0001
0100
0000
0010
0000
,
1000
0001
0100
0010
1000
0001
0100
0001
,
0010
0010
0010
0001
0100
0010
0010
1000
,
0100
0010
0010
0010
0001
1000
1000
0010
,
0100
0001
0001
0001
0100
0010
0010
1000
,
0010
0100
0100
0100
0001
0010
0010
0000
,
0002
0000
0000
0000
0000
0000
0000
0000
2003
0000
0000
0000
0000
0000
3001
0100
,
0010
1000
0010
1000
0200
0000
1300
0010
,
0000
0000
2000
0000
0000
0000
3001
0100
0010
1000
0010
0100
0001
0100
0010
1000
,
0010
0100
0001
0100
0001
0100
0010
0000
0000
0000
0000
0000
1000
0000
0000
0000
0000
0000
0001
0000
0000
1000
0000
0000
,
0010
0000
0000
0100
0000
0000
0001
0000
0000
1000
0000
0000
0010
0000
0100
0000
0001
0000
0100
0000
0010
0000
1000
0000
,
0010
0100
0001
0010
0100
1000
0100
0010
0001
0100
0010
1000
,
0010
0000
1000
0000
0010
0000
0100
0001
0100
0010
1000
0010
,
1000
0001
0100
0010
1000
0010
0100
0000
0001
0000
0100
0000
,
0010
0000
1000
0000
0010
0000
0100
0001
0010
0100
1000
0010
,
0100
0001
0100
0010
1000
0100
0010
0100
0010
0001
1000
0010
,
0100
0000
0100
0000
0100
0000
0001
0010
0100
1000
0010
0100
,
0001
0100
0010
1000
0010
0100
0001
0000
0001
0000
0001
0000
,
0022
0000
0033
0000
1001
0000
0000
1000
,
0010
0100
0001
0020
0000
0000
0000
0130
,
1000
0000
0100
0000
0010
0000
0002
0000
0000
0000
0000
0000
0000
0000
1003
0001
,
0010
0100
1000
0000
0010
0100
0000
0001
,
0010
0100
0010
0100
0000
0000
1000
0000
0000
1001
0000
0000
;

//---------------dance-single - ----------------
#NOTES:
     dance-single:
     :
     Medium:
     6:
     0.416,0.468,0.073,0.416,0.156:
0000
0000
1100
1000
,
0100
0010
0001
0100
,
0010
0000
1000
0000
0100
0000
1100
0000
0000
0110
0000
0000
,
0010
0000
0000
0001
0000
0000
0010
0000
0010
0000
0010
0000
,
0100
0000
0100
0000
0100
0000
1100
0000
0000
1001
0000
0000
,
1000
0001
0100
0010
,
0100
0000
0001
0000
0010
0000
0100
0000
0000
1000
0000
0000
,
0010
0000
0000
0100
0000
0000
0001
0000
0100
0000
0010
0000
,
0200
0300
0001
0010
,
0100
1000
0100
0010
,
0001
0000
0100
0000
0010
0000
1000
0000
0000
0010
0000
0000
,
0100
0000
0000
0001
0000
0000
0010
0000
0010
0000
0010
0000
,
0100
0000
0100
0000
0100
0000
1000
0000
0000
0001
0000
0000
,
0010
0100
1000
0001
,
0100
0000
0010
0000
1000
0000
0010
0000
0000
0100
0000
0000
,
0010
0000
0000
1000
0000
0000
0001
0000
0010
0000
0001
0000
,
0020
0030
0200
1300
,
0020
0130
0002
0013
,
0200
1300
0020
0130
,
0002
0013
0020
0130
,
0200
1300
2000
3010
,
0020
0130
0001
0100
,
0010
1000
0010
0100
,
0001
0010
0100
1000
,
0001
0000
1000
0000
1002
0000
0000
0013
,
0200
0000
1300
0002
0000
0000
0000
0103
,
0020
0000
1030
0200
0000
0000
0000
0310
,
0001
0100
0020
0000
1030
0100
0000
0100
,
0020
0000
0032
0000
0023
0000
0000
0130
,
2000
3002
0203
0000
,
0320
0000
1030
0020
0000
0130
0001
0100
,
0020
0000
2030
0000
3010
0100
0001
0010
,
0100
1000
0020
0000
0230
0000
0000
0301
,
0010
0000
0001
0200
0000
0000
0000
0310
,
1000
0000
0100
0020
0000
0000
0000
0031
,
0010
0001
0010
0200
0000
0000
0000
0000
,
2300
0000
0000
0000
3002
0000
0000
0013
,
0100
0010
0100
0000
1000
0000
0010
0100
,
0000
0001
0000
0000
0100
0010
1000
0100
,
0010
0001
0020
0000
0230
0000
1300
0020
,
0000
0000
0130
0100
,
0001
0001
0100
0100
,
0010
0000
1000
0000
0010
0000
1000
0000
0000
1000
0000
0000
,
0100
0000
0000
0100
0000
0000
0010
0000
0010
0000
0010
0000
,
0001
0000
0001
0000
0001
0000
0100
0000
0000
0100
0000
0000
,
0010
0010
1000
1000
,
0100
0000
0010
0000
0100
0000
0010
0000
0000
0010
0000
0000
,
0001
0000
0000
0001
0000
0000
0010
0000
0100
0000
1000
0000
,
0100
0000
0000
0000
0010
0000
0000
0001
,
0100
0000
1000
0200
0000
0000
0000
0310
,
0001
0000
0001
0200
0000
0000
0000
0310
,
1000
0100
0010
0000
0001
0100
0000
1000
,
0010
0000
0010
0000
1000
0000
0000
0001
,
1001
0000
0000
0000
;

//---------------dance-single - ----------------
#NOTES:
     dance-single:
     :
     Easy:
     3:
     0.273,0.245,0.052,0.239,0.000: // measure 1
0000
0000
1100
0000
,  // measure 2
0100
0000
0010
0000
,  // measure 3
0002
0003
0011
0011
,  // measure 4
0100
0000
0010
0000
,  // measure 5
1000
0000
1100
0000
,  // measure 6
0100
0010
0001
0100
,  // measure 7
0010
1000
0010
0001
,  // measure 8
0100
0010
2000
0000
,  // measure 9
3020
0000
0130
0001
,  // measure 10
0100
0010
1000
0100
,  // measure 11
0020
0000
0031
0100
,  // measure 12
0010
1000
0200
0000
,  // measure 13
0320
0000
0130
0001
,  // measure 14
0010
0100
0010
1000
,  // measure 15
0020
0000
1030
0100
,  // measure 16
0010
0001
0020
0000
,  // measure 17
0130
0000
1000
0001
,  // measure 18
0100
0010
1000
0010
,  // measure 19
0100
0001
0010
0100
,  // measure 20
1000
0010
0100
0001
,  // measure 21
0010
0100
1000
0100
,  // measure 22
0010
0001
0100
0010
,  // measure 23
1000
0010
0100
0001
,  // measure 24
1000
0100
0010
1000
,  // measure 25
0100
0010
0001
0000
,  // measure 26
0200
0000
0000
0310
0000
0000
0000
0000
,  // measure 27
2000
0000
0000
3100
0000
0000
0000
0000
,  // measure 28
2000
0000
3002
0000
,  // measure 29
0013
0100
0020
0000
,  // measure 30
0230
0000
2300
0000
,  // measure 31
3001
0000
0000
0010
0000
0000
0100
0000
,  // measure 32
1000
0100
0010
0001
,  // measure 33
0100
0001
0010
0000
,  // measure 34
0200
0000
0000
1300
0000
0000
0000
0000
,  // measure 35
0002
0000
0000
1003
0000
0000
0000
0000
,  // measure 36
0010
0000
0000
0010
0000
0000
0000
0000
,  // measure 37
0100
0000
0001
0000
,  // measure 38
0010
0000
0100
0000
2000
0000
0000
3010
,  // measure 39
0000
0000
0100
0001
,  // measure 40
0100
0000
0010
0000
1000
0000
0000
0010
,  // measure 41
0000
0000
1000
0100
,  // measure 42
0010
0001
0100
0010
,  // measure 43
2000
0000
3010
0100
,  // measure 44
0001
0010
0200
0000
,  // measure 45
2300
0000
3001
0010
,  // measure 46
0100
1000
0010
0100
,  // measure 47
0002
0000
0000
0003
0010
0000
0100
0000
,  // measure 48
1000
0010
0200
0000
,  // measure 49
0301
0000
0001
0000
,  // measure 50
1000
0000
0000
0100
0000
0000
0000
0000
,  // measure 51
1000
0000
0000
0100
0000
0000
0000
0000
,  // measure 52
0010
0000
0001
0000
,  // measure 53
0001
1000
1001
0000
;
