#TITLE:EAT DA POO POO;
#SUBTITLE:;
#ARTIST:Bart Baker;
#TITLETRANSLIT:;
#SUBTITLETRANSLIT:;
#ARTISTTRANSLIT:;
#CREDIT:;
#BANNER:EAT DA POO POO.png;
#BACKGROUND:EAT DA POO POO-bg.png;
#LYRICSPATH:;
#CDTITLE:;
#MUSIC:EAT DA POO POO.mp3;
#OFFSET:-2.030;
#SAMPLESTART:42.000;
#SAMPLELENGTH:16.000;
#SELECTABLE:YES;
#BPMS:0.000=120.000;
#STOPS:;
#BGCHANGES:0.000=poopoo.avi=1.000=1=1=0,
176.000=EAT DA POO POO-bg.png=1.000=0=0=1,
99999=-nosongbg-=1.000=0=0=0 // don't automatically add -songbackground-
;

//---------------dance-single - ----------------
#NOTES:
     dance-single:
     :
     Hard:
     7:
     0.440,0.477,0.163,0.109,0.103:
0000
0000
0000
0000
,
0000
0000
0000
0000
,
2000
0000
0000
0000
0000
0000
0000
0001
,
3002
0000
0000
0100
0100
0000
0000
1000
,
2003
0000
0000
0000
0000
0000
0000
0010
,
3020
0000
0000
0100
0100
0000
1000
0000
,
0130
0001
0100
0010
,
1000
0100
0000
0010
0001
0010
0000
0001
,
0100
0000
0010
0000
0100
0000
0001
1000
,
0100
1000
0000
0010
0100
0010
0000
2000
,
0002
0000
0000
0000
,
3003
0000
0000
0000
0000
0000
0000
0000
1000
0001
1000
0001
1000
0001
1000
0000
,
0001
0100
0010
0010
1000
1000
0100
0000
,
0010
0001
0100
0100
0010
0010
1000
0001
,
1000
0010
0100
0100
0001
0001
1000
1000
,
0100
0001
0000
1000
0100
0001
0000
0100
,
0010
0001
0100
0010
1000
1000
0000
0000
,
0001
0100
0010
0100
0001
0001
1000
0100
,
0010
0100
0010
0010
0001
0001
0000
1000
,
1000
2000
0000
0001
0001
0002
3003
0000
,
1000
0000
0000
0001
0100
0000
0001
0000
1000
0000
0000
0000
0011
0000
0001
0000
,
1000
0010
0000
0010
0100
0001
0000
1000
,
0100
0001
0100
1000
0010
0100
0000
0010
,
0100
0001
0000
1000
0100
0010
0000
0100
,
0010
0000
0001
0000
0100
0010
1000
0001
,
0101
1010
1100
0011
,
2001
0000
0000
0001
0000
0000
0002
0000
0000
0000
0000
0000
3000
0000
0000
0000
,
0100
0003
0000
0000
0001
0000
0000
0000
1000
0100
1000
0000
0001
0010
0001
0000
,
1000
0000
0000
0001
0100
0000
0001
0000
1000
0000
0100
0000
0010
0000
0000
0000
,
0100
0010
0100
1000
0100
0000
0011
0000
,
0001
0000
0000
0100
0001
0000
1000
0000
0010
0000
0100
0000
0010
0000
0000
0000
,
0100
0001
1000
0100
1000
0000
0011
0000
,
0001
1000
0000
1000
0001
0000
0100
0000
0010
0000
1000
0000
0100
0000
0000
0000
,
0010
0100
0000
0100
0010
0000
0001
0000
1000
0000
0010
0000
1000
0000
0000
0000
,
0101
0000
1001
0000
1000
0100
0010
0001
,
0100
0000
0000
0000
0010
0000
0000
0000
1000
0001
1000
0000
0001
0100
0001
0000
,
1000
0100
0001
0100
1000
0010
0100
0000
,
0010
0100
0001
1000
0100
0010
0001
0000
,
0010
0001
0100
0001
1000
1000
0100
0010
,
0011
0000
1100
1000
0010
0000
0101
0001
,
1000
0100
0010
0100
1000
1000
0001
0000
,
0100
0001
0100
0010
1000
1000
0100
0000
,
0010
0100
0010
0001
1000
1000
0010
0100
,
0101
0000
0000
0000
1010
0000
0000
0000
0001
1000
0001
1000
0010
0100
0010
0100
;

//---------------dance-single - ----------------
#NOTES:
     dance-single:
     :
     Medium:
     5:
     0.330,0.382,0.130,0.217,0.000: // measure 1
0000
0000
0000
0000
,  // measure 2
0000
0000
0000
0000
,  // measure 3
2000
0000
0000
0000
,  // measure 4
3002
0000
0000
0000
,  // measure 5
0203
0000
0000
0000
,  // measure 6
0320
0000
1000
0100
,  // measure 7
1030
0000
0001
0000
1000
0001
1000
0000
,  // measure 8
0002
0000
2003
0000
,  // measure 9
3100
0000
0010
0000
0100
1000
0100
0000
,  // measure 10
0020
0000
0032
0000
,  // measure 11
2000
0000
0000
0000
,  // measure 12
3003
0000
1000
0000
0001
1000
0001
1000
,  // measure 13
0001
0000
1000
0010
0100
0000
0001
0000
,  // measure 14
1000
0000
0100
0010
0001
0000
0010
0000
,  // measure 15
0001
0000
1000
0010
1000
0000
0001
0000
,  // measure 16
2000
0010
3001
1001
,  // measure 17
0001
0000
0100
0010
1000
0000
0001
0000
,  // measure 18
1000
0000
0100
1000
0001
0000
0010
0000
,  // measure 19
0001
0000
0100
0010
1000
0000
0001
0000
,  // measure 20
0202
0300
2000
3003
,  // measure 21
1000
0100
0010
0100
1000
0000
0001
0000
,  // measure 22
0100
0001
0000
1000
0010
1000
0000
0001
,  // measure 23
0100
0000
0001
0000
1000
0100
0000
0010
,  // measure 24
0001
0010
0000
0001
1000
0001
0000
1000
,  // measure 25
0010
0100
0001
0000
1000
0000
1100
0000
,  // measure 26
0011
0101
1010
1001
,  // measure 27
2010
0000
3002
0000
,  // measure 28
0200
0000
0000
0303
,  // measure 29
0001
0100
0001
1000
0001
0000
1000
0000
,  // measure 30
0001
0010
0001
0000
1000
0000
0110
0000
,  // measure 31
0001
0100
0001
0000
1000
0000
0100
0000
,  // measure 32
0010
0000
0100
0010
0001
0000
1001
0000
,  // measure 33
1000
0010
1000
0000
0001
0010
0001
0000
,  // measure 34
0100
0010
1000
0000
0100
0010
0001
0000
,  // measure 35
1000
0010
0100
0001
,  // measure 36
2002
0000
0000
3003
,  // measure 37
1000
0010
1000
0010
0000
0100
0001
0000
,  // measure 38
0001
0010
0001
0010
0000
0100
1000
0000
,  // measure 39
0001
0010
0001
0100
0000
0010
1000
0000
,  // measure 40
0010
0001
0000
1000
0100
1000
0000
0001
,  // measure 41
1000
0010
0100
0001
0000
1000
0000
0010
,  // measure 42
0100
0001
1000
0100
0000
0010
0000
0001
,  // measure 43
0010
0001
0100
0001
0000
1000
0000
0010
,  // measure 44
0100
0001
1000
0220
,  // measure 45
0330
0000
0000
0000
;

//---------------dance-single - ----------------
#NOTES:
     dance-single:
     :
     Easy:
     2:
     0.183,0.215,0.043,0.087,0.000: // measure 1
0000
0000
0000
0000
,  // measure 2
0000
0000
0000
0000
,  // measure 3
1000
0000
0000
0000
,  // measure 4
0001
0000
0100
0000
,  // measure 5
0001
0000
0000
0000
,  // measure 6
1000
0000
0100
0000
,  // measure 7
1000
0001
0100
0010
,  // measure 8
0100
0000
0010
0000
,  // measure 9
0100
0010
1000
0001
,  // measure 10
1000
0000
0001
0000
,  // measure 11
2002
0000
0000
0000
,  // measure 12
3003
0000
0000
0000
,  // measure 13
1000
0010
1000
0000
,  // measure 14
0001
0100
0001
0000
,  // measure 15
1000
0100
1000
0000
,  // measure 16
0001
0000
1000
0000
,  // measure 17
0100
0010
0100
0000
,  // measure 18
0010
0001
0010
0000
,  // measure 19
0001
1000
0001
0000
,  // measure 20
1000
0000
0010
0000
,  // measure 21
1000
1000
0001
0001
,  // measure 22
0100
0000
0010
0000
,  // measure 23
0100
0100
0010
0010
,  // measure 24
1000
0000
0001
0000
,  // measure 25
1000
0010
1000
0010
,  // measure 26
0100
0100
0001
0001
,  // measure 27
1000
0000
0001
0000
,  // measure 28
2002
0000
0000
3003
,  // measure 29
1000
0100
1000
0000
,  // measure 30
0001
0000
1000
0001
,  // measure 31
1000
0001
1000
0000
,  // measure 32
0010
0000
0100
0001
,  // measure 33
0100
0001
1000
0000
,  // measure 34
0001
0010
0001
0000
,  // measure 35
1000
0000
0100
0000
,  // measure 36
0220
0000
0000
0330
,  // measure 37
0010
0001
0010
0000
,  // measure 38
0001
1000
0001
0000
,  // measure 39
1000
0010
1000
0000
,  // measure 40
0001
0000
1000
0000
,  // measure 41
0001
1000
0100
0000
,  // measure 42
1000
0100
0010
0000
,  // measure 43
0100
0010
0001
0000
,  // measure 44
2002
0000
0000
0000
,  // measure 45
3003
0000
0000
0000
;

//---------------dance-single - ----------------
#NOTES:
     dance-single:
     :
     Beginner:
     1:
     0.113,0.140,0.043,0.000,0.000: // measure 1
0000
0000
0000
0000
,  // measure 2
0000
0000
0000
0000
,  // measure 3
1000
0000
0000
0000
,  // measure 4
0001
0000
0000
0000
,  // measure 5
0100
0000
0000
0000
,  // measure 6
0010
0000
0100
0000
,  // measure 7
0001
0000
0000
0000
,  // measure 8
1000
0000
0000
0000
,  // measure 9
0100
0000
0000
0000
,  // measure 10
0010
0000
0001
0000
,  // measure 11
1000
0000
0000
0000
,  // measure 12
0000
0000
0000
0000
,  // measure 13
1000
0000
0001
0000
,  // measure 14
0100
0000
0010
0000
,  // measure 15
0100
0000
0001
0000
,  // measure 16
1000
0000
1000
0000
,  // measure 17
0001
0000
0010
0000
,  // measure 18
0001
0000
1000
0000
,  // measure 19
0100
0000
1000
0000
,  // measure 20
0010
0000
0000
0000
,  // measure 21
1000
0000
0100
0000
,  // measure 22
1000
0000
1000
0000
,  // measure 23
0001
0000
0010
0000
,  // measure 24
0001
0000
0001
0000
,  // measure 25
0100
0000
0010
0000
,  // measure 26
0100
0000
0100
0000
,  // measure 27
0110
0000
0000
0000
,  // measure 28
1001
0000
0000
0000
,  // measure 29
1000
0000
0100
0000
,  // measure 30
0010
0000
0001
0000
,  // measure 31
1000
0000
0010
0000
,  // measure 32
0100
0000
0001
0000
,  // measure 33
1000
0000
0001
0000
,  // measure 34
1000
0000
0010
0000
,  // measure 35
0110
0000
0000
0000
,  // measure 36
1001
0000
0000
0000
,  // measure 37
1000
0000
0100
0000
,  // measure 38
0010
0000
0001
0000
,  // measure 39
1000
0000
0001
0000
,  // measure 40
1000
0000
0001
0000
,  // measure 41
0001
0000
0100
0000
,  // measure 42
0010
0000
1000
0000
,  // measure 43
0001
0000
1000
0000
,  // measure 44
0001
0000
0000
0000
;
