#TITLE:Braveheart;
#SUBTITLE:;
#ARTIST:Frantic & Gammer;
#TITLETRANSLIT:;
#SUBTITLETRANSLIT:;
#ARTISTTRANSLIT:;
#CREDIT:;
#BANNER:;
#BACKGROUND:;
#LYRICSPATH:;
#CDTITLE:;
#MUSIC:1.mp3;
#OFFSET:-0.060;
#SAMPLESTART:68.213;
#SAMPLELENGTH:12.000;
#SELECTABLE:YES;
#BPMS:0.000=177.090;
#STOPS:;
#BGCHANGES:;

//---------------dance-single - ----------------
#NOTES:
     dance-single:
     :
     Challenge:
     12:
     1.000,1.000,0.501,0.572,1.000:
0000
0000
2000
3100
,
2100
0010
0001
3010
,
0102
0000
0000
0000
0010
0000
0000
0000
0100
0000
0000
0000
1003
0000
0100
0010
,
0002
0100
1000
0100
,
0013
0000
0100
1000
0020
0000
0000
0000
0230
0000
0000
0000
0301
1000
0010
1000
,
0200
0010
1000
0010
,
1300
0000
0001
0010
0002
0000
0000
0000
0100
0000
0000
0000
1003
0000
1000
0100
,
0010
0001
0100
1000
0010
0100
0001
0100
,
0010
0000
0000
0000
0000
0000
0010
0000
0000
1000
0000
0000
0010
0000
0000
0000
0000
0000
0100
0000
0000
0001
0000
0000
0010
0000
0000
0000
0000
0000
0100
0000
0000
0000
0000
0000
1000
0000
0010
0000
1000
0000
0010
0000
1000
0000
0010
0000
,
1000
0000
0001
0010
0100
0000
1000
0100
0010
0000
0001
0100
0001
0000
0000
0000
,
0101
0000
0010
1000
0001
0000
1000
0010
1000
0000
0100
0010
0001
0000
0000
0000
,
0011
0000
0100
1000
0010
0000
0100
0001
0100
0000
0010
1000
0100
0000
0000
0000
,
1100
0000
0010
0001
0100
0000
0001
1000
0001
0000
0100
0001
0010
0000
0000
0000
,
0100
1000
0100
0010
0200
0000
0320
0000
0031
0100
0010
1000
0020
0000
0230
0000
,
0301
0010
0001
0010
0200
0000
2300
0000
3100
0010
0100
0010
0002
0000
0203
0000
,
0310
1000
0010
0100
0001
0100
0010
1000
0010
1000
0100
0010
,
0002
0000
0000
0000
0003
0000
0000
0000
0000
0000
0000
0110
0000
0000
0100
1000
,
0100
0000
0010
0000
0001
0010
0100
1000
0000
1100
0000
0000
0110
0000
0000
0100
,
0010
0000
0001
0010
0100
1000
0010
0100
0000
0001
0000
0000
0100
0000
0000
0010
,
1000
0000
1000
0100
0000
0010
0001
0010
0000
0100
1000
0000
1100
0000
0000
0110
,
0000
0011
0000
0000
0101
0000
0000
0110
0000
1010
0000
0000
1001
0000
0000
0001
,
1000
0000
0001
0010
0100
1000
0100
0010
0000
0001
0000
0000
0011
0000
0000
0100
,
1000
0010
1000
0001
1000
0010
0000
1000
0100
0000
0010
0000
0001
0000
0100
0001
,
0100
0000
0010
1000
0000
0010
0100
0001
0000
0010
0100
0000
1000
0000
0000
0100
,
0010
0000
0000
0000
0000
0000
0000
0000
0000
0000
0000
0000
0001
0000
0000
0000
0000
0000
0000
0000
0000
0010
0000
0000
0000
0000
0000
0100
0000
0000
0000
0000
0000
1000
0000
0000
0001
0000
0100
0000
0001
0000
0100
0000
0001
0000
0100
0000
,
0001
0000
0100
0010
1000
0010
0100
0001
0000
0101
0000
0000
1010
0000
0000
0010
,
1000
0000
0100
0010
0001
0010
0100
1000
0000
1100
0000
0000
0110
0000
0000
0100
,
0010
0000
0001
0010
0000
0100
1000
0010
0000
0100
0001
0000
0101
0000
0000
0110
,
0000
1010
0000
0000
1001
0000
0000
0011
0000
0110
0000
0000
1100
0000
0000
1000
,
0100
0000
0010
0001
0010
0100
0010
0100
0000
1000
0000
0000
0010
0000
0000
0100
,
0001
0100
0010
1000
0100
0010
0000
0001
0010
0000
0100
1000
0010
0000
0100
0000
,
0001
0100
0010
1000
0100
0010
0001
0010
0100
1000
0010
0100
0001
0100
0010
1000
,
0010
0000
0000
0000
0110
0000
0000
0101
0000
0011
0000
0100
1000
0000
0100
0000
,
0010
0000
0001
0100
0010
1000
0010
0100
0000
0001
0000
0000
0010
0000
0000
0100
,
1000
0000
0010
0100
0001
0100
0010
1000
0000
0100
0000
0000
0010
0000
0000
0001
,
0100
0000
0010
1000
0000
0010
0100
0001
0000
0010
0100
0000
0110
0000
0000
0011
,
0000
1001
0000
0000
1010
0000
0000
0110
0000
0101
0000
0000
0011
0000
0000
0001
,
0010
0000
0100
1000
0010
0100
0001
0100
0000
0010
0000
0000
1000
0000
0000
0100
,
0010
0100
0010
0001
0010
0100
0000
1000
0010
0000
0100
0001
0100
0000
0000
0010
,
1000
0000
0100
0010
0000
0001
0010
0100
0000
1000
0010
0000
0100
0000
0000
0001
,
0100
0000
0000
0000
0101
0000
0000
0110
0000
1010
0000
0010
1000
0000
0100
0000
,
0010
0000
0001
0100
0010
1000
0010
0100
0000
0001
0000
0000
0101
0000
0000
0010
,
1000
0000
0100
0010
0001
0010
0100
1000
0000
0010
0000
0000
0100
0000
0000
0001
,
0100
0000
0010
1000
0000
0100
0010
0001
0000
0010
0100
0000
0110
0000
0000
1100
,
0000
1001
0000
0000
0101
0000
0000
0110
0000
1010
0000
0000
1100
0000
0000
1000
,
0100
0000
0010
0001
0010
0100
1000
0010
0000
0100
0000
0000
0001
0000
0000
0100
,
0010
1000
0100
0010
0001
0010
0100
1000
0010
0000
0100
0000
0001
0000
0100
0010
,
1000
0000
0100
0010
0000
0001
0010
0100
0000
1000
0010
0000
0100
0000
0000
0001
,
0000
0000
0000
0000
,
0010
0000
0100
0000
1000
0000
0010
0000
0100
0000
0001
0000
0100
0000
0010
1000
,
0100
0010
0001
0010
0100
1000
0001
1000
,
0100
0000
0010
0000
0001
0000
0010
0000
0100
0000
1000
0000
0010
0000
0100
0001
,
0100
0010
1000
0100
0010
0001
0010
0001
0100
0001
0100
0001
1000
0001
1000
0001
,
0100
0001
0100
0010
1000
0010
1000
0001
1000
0010
1000
0001
1000
0010
1000
0100
,
0010
0001
0010
0100
1000
0010
1000
0010
0100
0001
0100
0001
0100
0010
1000
0010
,
1000
0100
0010
0001
0010
0100
1000
0010
1000
0001
1000
0010
1000
0100
0010
0100
,
0010
0000
0001
0010
0100
0000
1000
0010
0200
0000
0000
0000
0302
0000
0000
0000
,
0203
0310
1000
0100
0020
0031
0020
0130
,
2000
3010
0001
0010
2000
3100
0002
0103
,
2000
3010
0100
0001
0100
0010
1000
0100
,
0020
0031
0010
0100
2000
3010
0002
0013
,
0200
0301
0010
0100
2000
3100
0020
0031
,
0200
1300
0100
0010
2000
3100
0020
0031
,
0020
0130
1000
0010
0100
0001
0100
0010
,
0000
1000
0000
0100
0020
0031
2000
3010
,
0200
0301
0010
0100
0020
0130
2000
3100
,
0020
0130
0010
0001
0200
0310
2000
3010
,
0200
0301
0010
0100
0010
0100
1000
0100
,
0020
0130
0010
0001
2000
3001
0020
0130
,
2000
3100
0010
0001
0100
0010
2000
3010
,
0200
0301
0010
0100
2000
3010
0200
0301
,
0200
0310
1000
0100
0010
0001
1000
0001
,
2002
0000
3003
0000
;

//---------------dance-single - Copied from----------------
#NOTES:
     dance-single:
     Copied from:
     Hard:
     10:
     0.856,0.815,0.092,0.143,0.721: // measure 1
0000
0000
2000
3100
,  // measure 2
2100
0010
0001
3010
,  // measure 3
0102
0000
0000
0000
0010
0000
0000
0000
0100
0000
0000
0000
1003
0000
0100
0010
,  // measure 4
0002
0100
1000
0100
,  // measure 5
0013
0000
0100
1000
0020
0000
0000
0000
0230
0000
0000
0000
0301
0000
1000
0000
,  // measure 6
0200
0010
1000
0010
,  // measure 7
1300
0000
0001
0010
0002
0000
0000
0000
0100
0000
0000
0000
1003
0000
0100
0010
,  // measure 8
0001
0010
0100
1000
0010
0100
0001
0010
,  // measure 9
0100
0000
1000
0010
1000
0000
0001
1000
0010
0000
1000
0000
0001
0000
0010
0000
,  // measure 10
0011
0100
1000
0010
0100
0001
0010
0000
,  // measure 11
1100
0100
1000
0010
0100
0001
0010
0000
,  // measure 12
0011
0100
1000
0010
0100
0001
0100
0000
,  // measure 13
0101
0010
1000
0100
0010
0001
0100
0000
,  // measure 14
0010
1000
0100
0100
0010
0001
1000
1000
,  // measure 15
0010
0100
0001
0001
0100
0010
1000
1000
,  // measure 16
0010
0100
0001
0100
0010
1000
0010
0100
0001
1000
0010
1000
,  // measure 17
2020
0000
0000
0000
3030
0000
0000
0000
0000
0000
0000
0101
0000
0000
0100
0001
,  // measure 18
0010
0000
0100
0000
1000
0010
1000
0010
0000
0100
0000
0000
0001
0000
0000
0100
,  // measure 19
0001
0000
0100
0000
0010
0000
1000
0010
0000
1000
0000
0000
0100
0000
0000
0010
,  // measure 20
0001
0000
0001
0100
0000
0010
0000
1000
0000
0010
0100
0000
0001
0000
0000
0010
,  // measure 21
0000
0100
0000
0000
1000
0000
0000
0100
0000
0010
0000
0000
0001
0000
0000
0100
,  // measure 22
0010
0000
1000
0000
0010
0000
0100
0001
0000
0010
0000
0000
0100
0000
0000
1000
,  // measure 23
0010
0000
1000
0000
0001
1000
0000
1000
0010
0000
1000
0000
0100
0000
0010
0001
,  // measure 24
0010
0000
0100
1000
0000
0010
0000
0100
0000
0001
0100
0000
0010
0000
0000
1000
,  // measure 25
0100
0000
0000
0000
0010
0000
0000
0001
0000
0010
0000
0100
1000
0000
0010
0000
,  // measure 26
1000
0000
0010
0000
0100
0000
0001
0100
0000
0010
0000
0000
1000
0000
0000
1000
,  // measure 27
0100
0000
0010
0001
0010
0100
0010
0100
0000
1000
0000
0000
0010
0000
0000
0100
,  // measure 28
0001
0000
0001
0010
0000
0100
0000
1000
0000
0100
0010
0000
0001
0000
0000
0100
,  // measure 29
0000
1000
0000
0000
0100
0000
0000
0001
0000
0010
0000
0000
0100
0000
0000
0100
,  // measure 30
1000
0000
0100
0010
0001
0100
0001
1000
0000
0001
0000
0000
0100
0000
0000
0001
,  // measure 31
0010
0000
0100
0000
1000
0010
0000
0010
0100
0000
0001
0000
0100
0000
0010
0000
,  // measure 32
1000
0100
0010
0000
0001
0010
0100
0000
1000
0010
0100
0000
0001
0100
0010
0000
,  // measure 33
1000
0000
0000
0000
0100
0000
0000
0010
0000
0001
0000
0010
0100
0000
1000
0000
,  // measure 34
0010
0000
0001
0100
0001
1000
0001
0100
0000
0001
0000
0000
0010
0000
0000
0100
,  // measure 35
1000
0000
0010
1000
0001
1000
0010
1000
0000
0100
0000
0000
0010
0000
0000
0001
,  // measure 36
0100
0000
0100
0010
0000
1000
0000
0010
0000
0100
0001
0000
0010
0000
0000
0100
,  // measure 37
0000
1000
0000
0000
0100
0000
0000
0010
0000
0001
0000
0000
0100
0000
0000
0010
,  // measure 38
1000
0000
0010
0100
0001
0010
0100
1000
0000
0100
0000
0000
0010
0000
0000
0010
,  // measure 39
0001
0000
0100
0000
0001
1000
0000
1000
0001
0000
0100
0000
0001
0000
0000
0010
,  // measure 40
0100
0000
0100
1000
0000
0010
0000
1000
0000
0001
1000
0000
0010
0000
0000
0010
,  // measure 41
1000
0000
0000
0000
0100
0000
0000
0010
0000
0001
0000
0010
0100
0000
1000
0000
,  // measure 42
0010
0000
0100
0001
0100
0010
1000
0100
0000
0010
0000
0000
0001
0000
0000
0001
,  // measure 43
0010
0000
0100
1000
0010
1000
0001
1000
0000
0010
0000
0000
1000
0000
0000
1000
,  // measure 44
0100
0000
0100
0010
0000
0001
0000
0010
0000
0100
1000
0000
0010
0000
0000
0001
,  // measure 45
0000
0010
0000
0000
1000
0000
0000
0100
0000
0010
0000
0000
0001
0000
0000
0001
,  // measure 46
0010
0000
0100
1000
0010
0100
0001
0100
0000
0010
0000
0000
1000
0000
0000
1000
,  // measure 47
0100
0010
0001
0010
0100
1000
0010
1000
,  // measure 48
0010
0000
0100
0001
0000
0100
0000
0010
0000
1000
0100
0000
0010
0000
0000
0001
,  // measure 49
0000
0000
0000
0000
,  // measure 50
0100
0010
1000
0010
0100
0001
0010
0100
,  // measure 51
1000
0010
0100
0001
0010
0100
1000
0100
,  // measure 52
0010
0001
1000
0001
0010
0100
1000
0100
,  // measure 53
0010
0001
0100
0010
1000
0010
0100
0001
,  // measure 54
0010
0100
1000
0100
0010
0001
0100
1000
,  // measure 55
0100
0010
1000
0100
0010
0001
0010
0100
,  // measure 56
1000
0010
0001
0010
0100
0001
0010
0100
,  // measure 57
1000
0100
0010
0001
2000
0000
3002
0000
,  // measure 58
0013
0100
1000
0100
0010
0001
0100
0010
,  // measure 59
1000
0010
0100
0001
0010
0100
1000
0100
,  // measure 60
0010
0001
0010
0001
0010
0100
0010
0100
,  // measure 61
0010
1000
0010
1000
0010
0100
0010
0100
,  // measure 62
0010
0001
0010
0001
0100
0010
1000
0010
,  // measure 63
0100
0001
0010
0100
1000
0100
0010
0001
,  // measure 64
0100
0001
0100
0010
1000
0010
1000
0010
,  // measure 65
0000
0100
0000
0001
0100
0001
0010
0100
,  // measure 66
1000
0100
0010
0001
0100
1000
0100
0001
,  // measure 67
0010
1000
0010
0001
0100
0010
1000
0010
,  // measure 68
0100
0001
0010
0100
0010
0100
1000
0100
,  // measure 69
0010
0100
0010
0001
1000
0001
0010
0100
,  // measure 70
1000
0100
0010
0001
0100
0010
1000
0010
,  // measure 71
0100
0001
0010
0100
1000
0010
0100
0001
,  // measure 72
0100
0010
1000
0100
0010
0001
1000
0001
,  // measure 73
2002
0000
3003
0000
;

//---------------dance-single - ----------------
#NOTES:
     dance-single:
     :
     Medium:
     9:
     0.662,0.704,0.020,0.429,0.409:
0000
0000
2000
3100
,
2100
0100
0010
3010
,
0002
0000
0010
0000
0010
0000
0013
0100
,
0020
0100
0001
0130
,
1000
0010
0200
0000
0302
0000
0013
0100
,
2000
0010
0001
0010
,
3001
0100
0002
0000
0100
0000
1003
0100
,
0010
0001
0100
0010
1000
0010
0100
0001
,
1000
0000
0000
0010
1000
0000
0000
1000
0100
0000
0000
0100
0010
0000
0100
0000
,
1000
0000
0000
1000
0010
0000
0000
0010
0100
0000
0000
0100
0001
0000
0000
0000
,
1000
0000
0000
0010
1000
0000
0000
1000
0100
0000
0000
0100
0010
0000
0000
0000
,
0001
0000
0000
0001
0100
0000
0000
0100
0010
0000
0000
0010
1000
0000
0000
0000
,
0001
0000
0000
0001
0100
0000
0000
0100
0001
0000
0000
0001
1000
0000
0000
0000
,
0010
1000
0001
0000
0001
0010
0100
0000
,
1000
0010
0100
0000
0100
0001
0010
0000
,
0100
1000
0100
1000
0100
1000
0100
1000
0100
1000
0100
1000
,
0020
0000
0000
0000
0030
0000
0000
0000
0000
0000
0000
0100
0000
0000
0010
0000
,
0001
0000
1000
0000
0100
0000
0000
0010
0000
0001
0000
0000
0100
0000
0000
0000
,
0001
0000
0100
0000
0010
0000
1000
0000
0000
0010
0000
0000
0100
0000
0000
0000
,
0001
0000
0000
0100
0000
0010
0000
1000
0000
0000
0001
0000
0010
0000
0000
0010
,
0000
0100
0000
0000
1000
0000
0000
0100
0000
0010
0000
0000
0001
0000
0000
0000
,
0010
0000
0100
0000
1000
0000
0010
0000
0000
0100
0000
0000
0001
0000
0000
0000
,
1000
0010
0100
0000
0001
1000
0100
0010
,
0001
0000
0000
0100
0000
0010
0000
1000
0000
0000
0100
0000
0010
0000
0000
0000
,
0001
0000
0000
0000
0100
0000
0000
0010
0000
1000
0000
0000
1000
0000
0010
0000
,
1000
0000
0010
0000
0100
0000
0001
0000
0000
0010
0000
0000
0100
0000
0000
0000
,
1000
0000
0010
0000
0100
0000
0001
0000
0000
0001
0000
0000
0010
0000
0000
0000
,
0100
0000
1000
0000
0000
0010
0000
0100
0000
0000
0001
0000
0100
0000
0000
0100
,
0000
0010
0000
0000
1000
0000
0000
0010
0000
0010
0000
0000
0100
0000
0000
0000
,
0001
0000
0100
0000
0010
0000
1000
0000
0000
0001
0000
0000
0100
0000
0000
0000
,
0010
1000
0010
0000
0100
0001
0100
0010
,
1000
0010
0100
0001
0100
0010
1000
0100
,
1000
0000
0000
0000
0100
0000
0000
0010
0000
0001
0000
0000
0100
0000
0010
0000
,
1000
0000
0001
0000
0100
0000
0010
0000
0000
1000
0000
0000
0010
0000
0000
0000
,
0100
0000
0001
0000
1000
0000
0100
0000
0000
0010
0000
0000
0001
0000
0000
0000
,
0100
0000
0010
0000
0000
1000
0000
0010
0000
0000
0100
0000
0001
0000
0000
0100
,
0000
0010
0000
0000
1000
0000
0000
0010
0000
0100
0000
0000
0001
0000
0000
0000
,
0100
0000
0010
0000
1000
0000
0100
0000
0000
0100
0000
0000
0010
0000
0000
0000
,
0001
0100
0001
0000
0001
0100
0001
0000
,
1000
0000
0100
0000
0000
0010
0000
0001
0000
0000
0100
0000
0010
0000
0000
0000
,
0010
0000
0000
0000
1000
0000
0000
0010
0000
0100
0000
0000
0001
0000
1000
0000
,
0010
0000
0100
0000
0001
0000
1000
0000
0000
0010
0000
0000
0100
0000
0000
0000
,
0001
0000
0010
0000
0100
0000
1000
0000
0000
0010
0000
0000
1000
0000
0000
0000
,
0010
0000
0100
0000
0000
0001
0000
0010
0000
0000
0100
0000
1000
0000
0000
0010
,
0000
0100
0000
0000
0001
0000
0000
0100
0000
0010
0000
0000
1000
0000
0000
0000
,
0010
0000
1000
0000
0001
0000
0100
0000
0000
0001
0000
0000
1000
0000
0000
0000
,
0100
0010
0001
0010
0100
1000
0010
1000
,
0001
0000
0010
0000
0000
0100
0000
1000
0000
0000
0010
0000
0010
0000
0000
0100
,
0000
0000
0000
0000
,
0001
0000
0010
0000
0000
0000
0010
0000
0000
0000
0010
0000
0010
0000
0100
1000
,
0000
0020
0000
0230
0000
0302
0000
0023
,
0000
0000
0230
0000
0000
0000
2300
0000
0000
0000
3100
0000
0010
0000
0001
0100
,
0000
0020
0000
2030
0000
3020
0000
0230
,
0000
0000
0302
0000
0000
0000
0023
0000
0000
0000
0130
0000
1000
0000
0010
0100
,
0000
0002
0000
0203
0000
0320
0000
2030
,
0000
0000
3020
0000
0000
0000
0230
0000
0000
0000
0301
0000
0100
0000
0010
1000
,
0010
0100
0001
0100
0020
0000
2030
0000
,
3002
0000
0010
0100
,
2003
0000
0010
0001
,
3200
0000
0000
0000
,
0302
0000
0100
0100
,
0203
0000
2300
3020
,
0230
0000
0302
0203
,
0320
0000
0000
0000
,
0030
1000
0000
0010
0000
1000
0010
0100
,
0001
0010
0001
0000
0010
0001
0010
0000
,
0100
0010
0100
0000
0010
0100
0010
0000
,
0100
1000
0100
0000
1000
0100
1000
0000
,
0100
0010
0100
0000
0010
0100
0010
0000
,
0001
0010
0100
1000
0100
0010
0001
0010
,
0100
1000
0001
0010
0100
1000
0001
0010
,
0100
1000
0001
0010
0001
0010
0001
1000
,
2002
0000
3003
0000
;

//---------------dance-single - ----------------
#NOTES:
     dance-single:
     :
     Easy:
     5:
     0.440,0.519,0.112,0.572,0.010:
0000
0000
1000
0100
,
2100
0000
3020
0230
,
0302
0000
0203
0320
,
2030
0000
0000
0000
,
3002
0000
0203
0320
,
2030
0000
3200
0320
,
0230
0000
0302
0203
,
0320
0000
0000
0000
,
0000
0000
1030
0010
,
0100
0100
0001
0001
,
0010
0010
0100
0100
,
1000
0010
0100
0001
,
1000
0010
0001
1000
,
0110
0000
1100
0000
,
1010
0000
0110
0000
,
0101
0101
1001
0011
,
0011
0000
0000
0000
0000
0000
0000
0000
0000
0000
0000
0100
0000
0000
1000
0000
,
0001
0010
0100
1000
,
0010
0100
0001
0010
,
0100
1000
0001
0100
,
0010
1000
0010
0100
,
0001
0010
0100
1000
,
0010
0100
0001
1000
,
0010
0100
0001
0100
,
0020
0000
0000
0000
,
1030
0100
1000
0100
,
0010
0001
0100
0001
,
0010
0100
1000
0010
,
0100
0001
0010
0100
,
1000
0010
0100
0001
,
0010
0100
1000
0100
,
0010
0001
1000
0100
,
2000
0000
0000
0000
,
3001
0010
0100
1000
,
0010
0100
0001
0010
,
0100
1000
0100
1000
,
0001
1000
0010
0100
,
0001
1000
0010
1000
,
0100
0010
0001
0100
,
0010
1000
0100
0010
,
0100
1000
0100
0010
,
0100
0010
0001
0010
,
0100
1000
0010
1000
,
0001
1000
0100
1000
,
0010
0100
0001
0010
,
0100
0010
0100
1000
,
0100
0010
0001
0100
,
0010
0000
0000
0000
1000
0000
0000
0000
0100
0000
0000
0000
0010
0000
0000
0100
,
0000
0000
0000
0000
,
0001
0100
0000
0010
0000
1000
0000
0010
,
0000
0100
0000
0001
0000
0010
0000
0001
,
0000
0100
0000
0001
0000
1000
0000
0100
,
0000
0010
0000
0001
0000
0100
0000
0001
,
0000
0100
0000
0001
0000
0010
0000
0100
,
0000
1000
0000
0010
0000
0100
0000
0001
,
0000
0100
0000
0010
0000
0001
0000
0010
,
0100
1000
0020
2030
,
3002
0000
0023
0230
,
2300
0000
3020
0230
,
0302
0000
0000
0000
,
0203
0000
0320
2030
,
3020
0000
2030
3020
,
0230
0000
0302
0203
,
0320
0000
0000
0000
,
0030
0000
0200
0000
,
0302
0000
0023
0230
,
2300
0000
3020
0230
,
0302
0000
0000
0000
,
0023
0000
0230
2300
,
3002
0000
0000
0023
,
0032
0000
0000
2003
,
3002
0000
0000
0003
,
2002
0000
3003
0000
;
