#TITLE:sista)nightTrans;
#SUBTITLE:;
#ARTIST:tarolabo;
#TITLETRANSLIT:;
#SUBTITLETRANSLIT:;
#ARTISTTRANSLIT:;
#GENRE:;
#CREDIT:Meseki;
#MENUCOLOR:;
#BANNER:sista)nightTrans-bn.png;
#BACKGROUND:sista)nightTrans-bg.png;
#LYRICSPATH:;
#CDTITLE:;
#MUSIC:sista)nightTrans.mp3;
#OFFSET:-0.029;
#SAMPLESTART:78.309;
#SAMPLELENGTH:19.600;
#SELECTABLE:YES;
#LISTSORT:;
#BPMS:0.000=150.000;
#STOPS:;
#TICKCOUNT:0.000=2;
#BGCHANGES:;
#KEYSOUNDS:;
#ATTACKS:;

//---------------dance-single - ----------------
#NOTES:
     dance-single:
     :
     Medium:
     6:
     0.308,0.438,0.029,0.346,0.177: // measure 1
0000
0000
0000
0000
,  // measure 2
0000
0000
0000
0000
,  // measure 3
0000
0000
0000
0000
,  // measure 4
0000
0000
0000
0000
,  // measure 5
0000
0000
0000
0000
,  // measure 6
0001
0000
0000
0100
0000
0000
0000
0001
0000
0000
0000
0000
0100
0000
0000
0000
,  // measure 7
0010
0000
0000
1000
0000
0000
0000
0010
0000
0000
0000
0000
1000
0000
0000
0000
,  // measure 8
0001
0000
0000
1000
0000
0000
0000
0001
0000
0000
0000
0000
1000
0000
0000
0000
,  // measure 9
0000
0001
0000
0010
0000
0000
0100
0000
0000
1000
0000
0000
,  // measure 10
2001
0000
0000
0000
,  // measure 11
3000
0000
0000
0000
0000
0001
0100
0000
,  // measure 12
0002
0000
0000
0000
,  // measure 13
0000
0003
0000
0000
0000
0000
0000
0000
0000
0000
1000
0000
0010
0000
0000
0000
,  // measure 14
2000
0000
0000
0000
,  // measure 15
0000
0000
0000
0000
0000
0010
0000
0000
,  // measure 16
3000
0000
0100
0000
1000
0000
0000
0100
0000
0010
0000
0100
0000
0000
1000
0000
,  // measure 17
0001
0000
0000
0010
0000
0000
0000
0000
1000
0000
0000
0010
0000
0000
0000
0000
,  // measure 18
0000
0002
0000
0000
0000
1003
0200
0000
,  // measure 19
0320
0000
0000
0000
0030
0001
0010
0001
,  // measure 20
0000
1000
0100
0000
0000
0100
0010
0200
,  // measure 21
0000
0302
0000
0000
0000
0000
0000
0003
,  // measure 22
2000
3000
0020
0030
0002
0003
0000
0000
,  // measure 23
0010
0000
0000
0100
0000
0000
0001
0000
0000
0000
0010
0000
0200
0000
0000
0000
,  // measure 24
2300
0000
3000
0000
1000
0000
0000
0010
,  // measure 25
0200
0300
0000
0000
,  // measure 26
0000
0000
0001
0000
0100
0000
0000
0000
0100
0000
0000
0010
0000
0000
0100
0000
,  // measure 27
0000
0000
0000
0000
0000
0000
0000
0010
0000
0000
1000
0000
0000
0000
0000
0000
,  // measure 28
0001
0000
0000
0000
0000
0000
0000
0000
0000
0100
0000
0000
0000
0000
0000
0000
0000
0000
0000
0000
0000
0000
0000
0000
0001
0000
0000
0000
0000
0000
0010
0000
0000
0000
0000
0000
0000
0000
0000
0000
0100
0000
0000
0000
0000
0000
0000
0000
,  // measure 29
0000
1000
0000
0000
0000
0000
0000
0000
0000
0000
0000
0000
0000
0000
0000
0000
,  // measure 30
0000
0000
0000
0000
0000
0000
0001
0000
0000
0000
0000
0000
0010
0000
0000
0000
0000
0000
0000
0000
0000
0000
0000
0000
0100
0000
0000
0000
0000
0000
0000
0000
0000
0010
0000
0000
0000
0000
0000
0000
0100
0000
0000
0000
0000
0000
0000
0000
,  // measure 31
0000
0000
0000
0000
0000
0000
0000
1000
0000
0000
0100
0000
0000
0000
0000
0000
,  // measure 32
0001
0000
0000
0000
0000
0000
0000
0000
0000
0100
0000
0000
0000
0000
0000
0000
0000
0000
0000
0000
0000
1000
0000
0000
0000
0000
0000
0000
0000
0000
0010
0000
0000
0000
0000
0000
0000
0000
0000
0000
0001
0000
0000
0000
0000
0000
0000
0000
,  // measure 33
0000
0010
0000
0000
0000
0000
0000
0000
0000
0000
0000
0000
,  // measure 34
2002
0000
0000
0000
,  // measure 35
0000
0000
0000
0000
,  // measure 36
0000
0000
0000
0000
,  // measure 37
3003
0000
0000
0000
0000
0000
0000
0000
0000
0000
0000
1000
0000
0000
0000
0000
,  // measure 38
0000
0000
0000
0000
,  // measure 39
0000
0000
0000
0000
0000
0000
0000
0000
0000
0001
0000
0000
0000
0000
0000
0000
,  // measure 40
0000
0000
0020
0000
,  // measure 41
0000
0000
0000
0030
0000
0100
2000
0000
,  // measure 42
3100
0010
0001
1000
,  // measure 43
0010
0100
0001
0010
,  // measure 44
0001
0000
0100
0001
0000
0000
1000
0100
,  // measure 45
1000
0000
0010
0000
0100
0001
0100
0000
,  // measure 46
0010
0100
0001
1000
,  // measure 47
0010
1000
0001
0010
,  // measure 48
0100
0000
0010
0001
0000
0100
0001
0000
,  // measure 49
0010
0100
1000
0001
,  // measure 50
1001
0010
0100
0001
,  // measure 51
0010
0100
0010
0010
,  // measure 52
0100
0000
1000
0010
0000
1000
0001
0000
,  // measure 53
0010
0000
0100
0000
1000
0001
1000
0000
,  // measure 54
1000
0100
0010
0000
0001
0000
0100
0000
,  // measure 55
0010
0100
0001
1000
,  // measure 56
0100
0000
0000
0000
0010
0000
0001
0000
0000
0000
0000
0010
1000
0000
0000
0000
,  // measure 57
0001
0010
0001
0000
1000
0100
1000
0000
,  // measure 58
1000
0000
0010
0000
0100
0000
0000
0001
0000
0010
0000
0100
0000
0000
0000
0000
,  // measure 59
1000
0000
0000
0001
0000
0000
0000
0000
1000
0000
0000
0010
0000
0000
0100
0000
,  // measure 60
0000
0000
0001
0000
0100
0000
0000
0010
0000
1000
0000
0100
0000
0000
0000
0000
,  // measure 61
0010
0000
0000
0001
0000
0000
0000
0000
0010
0000
0000
1000
0000
0000
0010
0000
,  // measure 62
0000
0002
0003
2000
,  // measure 63
3002
0000
0020
0003
,  // measure 64
0000
0200
0030
2000
0300
0020
3000
0200
,  // measure 65
0030
0000
0000
0002
0300
0000
0000
0000
,  // measure 66
0000
0000
0020
0003
0200
0030
2000
0300
,  // measure 67
0000
0000
0000
0000
0000
0000
0000
0000
0000
0000
0000
0000
0000
0000
0000
0000
0000
0000
0000
0000
0000
0000
0000
0000
3200
0000
0000
0000
0000
0000
0000
0000
0002
0300
0000
0000
0000
0000
0000
0000
0203
0000
0000
0000
0000
0000
0000
0000
,  // measure 68
0320
0000
0000
0000
0000
0000
0000
0000
0000
0032
0000
0000
0003
0000
0000
0000
2000
0000
0000
0000
3200
0000
0000
0000
,  // measure 69
0302
0000
0000
0000
0000
0000
0000
0000
0000
0000
0000
0000
0000
0000
0000
0000
0000
0000
0000
0000
0000
0000
0000
0000
0203
0000
0000
0000
0000
0000
0000
0000
0000
0300
0020
0000
0000
0000
0000
0000
0000
0000
0032
0000
0000
0000
0000
0000
,  // measure 70
0003
0000
0000
0000
1000
0000
0000
0000
0000
0000
0000
0000
0020
0000
0000
0000
0000
0000
0000
0000
0000
0000
0000
0000
0000
0000
0000
0000
0000
0000
0000
0000
0000
0030
0000
0000
2000
0000
0000
0000
0000
0000
0000
0000
0000
0000
0000
0000
,  // measure 71
3100
0010
0100
1000
,  // measure 72
0001
0010
1000
0010
,  // measure 73
0002
0000
0003
0001
0000
0000
0000
0000
,  // measure 74
0001
0010
1000
0100
,  // measure 75
0001
0000
0000
2000
3000
1000
0100
0000
,  // measure 76
0010
0000
0000
0000
0000
0000
0001
0000
0000
0000
0010
0000
0000
0100
0000
0000
,  // measure 77
2000
0000
0000
0000
0000
0000
0000
0000
3100
0000
0000
0010
0000
0000
0001
0000
,  // measure 78
0000
1000
0000
0002
0000
0000
0000
0000
0000
0000
0000
0000
,  // measure 79
0003
0000
0000
0000
0000
0000
0000
0000
0000
0000
0000
0010
0000
0000
1000
0000
,  // measure 80
0000
1001
0000
0000
;

//---------------dance-single - ----------------
#NOTES:
     dance-single:
     :
     Easy:
     3:
     0.183,0.292,0.022,0.199,0.052: // measure 1
0000
0000
0000
0000
,  // measure 2
0000
0000
0000
0000
,  // measure 3
0000
0000
0000
0000
,  // measure 4
0000
0000
0000
0000
,  // measure 5
0000
0000
0000
0000
,  // measure 6
0001
0000
0000
0000
0000
0000
0000
1000
0000
0000
0000
0000
0000
0000
0000
0000
,  // measure 7
0001
0000
0000
0000
0000
0000
0000
1000
0000
0000
0000
0000
0000
0000
0000
0000
,  // measure 8
0001
0000
0000
0000
0000
0000
0000
1000
0000
0000
0000
0000
0000
0000
0000
0000
,  // measure 9
0000
0001
0000
0000
0000
0000
0010
0000
0000
0100
0000
0000
,  // measure 10
2000
0000
0000
0000
,  // measure 11
3000
0000
0000
0000
0000
0001
0000
0000
,  // measure 12
0002
0000
0000
0000
,  // measure 13
0000
0003
0000
0000
0000
0000
0000
0000
0000
0000
1000
0000
0000
0000
0000
0000
,  // measure 14
2000
0000
0000
0000
,  // measure 15
0000
0000
0000
0000
,  // measure 16
3000
0000
0001
0000
0000
0000
0000
1000
0000
0000
0000
0000
0000
0000
0000
0000
,  // measure 17
0010
0000
0100
0000
,  // measure 18
0000
0002
0000
0000
0000
0103
0000
0000
,  // measure 19
0020
0000
0000
0000
0030
1000
0000
0000
,  // measure 20
0000
0001
0000
0000
0000
0100
0000
0000
,  // measure 21
0000
0002
0000
0000
0000
0000
0000
0003
,  // measure 22
1000
1000
0001
0000
,  // measure 23
0001
0000
0000
0100
0000
0010
0000
0000
,  // measure 24
2000
3000
1000
0000
,  // measure 25
0001
0000
0000
0000
,  // measure 26
0000
0001
0000
0000
0100
0000
0000
1000
,  // measure 27
0000
0000
0000
0000
0000
0000
0000
0100
0000
0000
0000
0000
0000
0000
0000
0000
,  // measure 28
0001
0000
0000
0000
0000
0000
0010
0000
0000
0000
0001
0000
,  // measure 29
0000
0000
0000
0000
,  // measure 30
0000
0000
0000
0001
0000
0000
0000
0000
0000
0000
0000
0000
0010
0000
0000
0000
0000
0000
0000
0000
1000
0000
0000
0000
,  // measure 31
0000
0000
0000
0000
0000
0000
0000
0010
0000
0000
0000
0000
0000
0000
0000
0000
,  // measure 32
0001
0000
0000
0000
0000
0000
0000
0000
0000
0000
0000
0000
0000
0000
0000
0000
0000
0000
0000
0000
0000
0100
0000
0000
0000
0000
0000
0000
0000
0000
0000
0000
0000
0000
0000
0000
0000
0000
0000
0000
0010
0000
0000
0000
0000
0000
0000
0000
,  // measure 33
0000
0000
0000
0000
,  // measure 34
2002
0000
0000
0000
,  // measure 35
0000
0000
0000
0000
,  // measure 36
0000
0000
0000
0000
,  // measure 37
3003
0000
0000
0000
,  // measure 38
0000
0000
0000
0000
,  // measure 39
0000
0000
0000
0000
,  // measure 40
0000
0000
0002
0000
,  // measure 41
0000
0000
0000
0003
0000
2000
0000
0000
,  // measure 42
3001
0000
0100
0000
,  // measure 43
0001
0000
0010
0000
,  // measure 44
0100
0000
0000
0010
0000
0000
0001
0000
,  // measure 45
0010
0000
0100
0100
,  // measure 46
1000
0000
0010
0000
,  // measure 47
0001
0000
0010
0000
,  // measure 48
1000
0000
0000
0100
0000
0000
0010
0000
,  // measure 49
0001
0000
1000
1000
,  // measure 50
1001
0000
0010
0000
,  // measure 51
1000
0001
1000
0000
,  // measure 52
0100
0000
0000
0010
0000
0000
0001
0000
,  // measure 53
0010
0100
1000
1000
,  // measure 54
0100
0100
0010
0000
,  // measure 55
0001
0000
0001
0001
,  // measure 56
1000
0000
0000
0100
0000
0000
0010
0000
,  // measure 57
0001
0010
0100
0100
,  // measure 58
1000
0000
0000
0000
0000
0000
0000
0001
0000
0000
0000
0000
0000
0000
0000
0000
,  // measure 59
0010
0000
0100
0000
,  // measure 60
0000
0000
1000
0000
0000
0000
0000
0010
0000
0000
0000
0000
0000
0000
0000
0000
,  // measure 61
0100
0000
0001
0000
,  // measure 62
0000
0002
0003
2000
,  // measure 63
3002
0000
2003
0000
,  // measure 64
3000
0010
0000
0100
0000
0020
0000
0230
,  // measure 65
0000
0000
0000
0302
0000
0000
0000
0000
,  // measure 66
0000
0003
0010
0000
0100
0000
2000
0000
,  // measure 67
0000
0000
0000
0000
3200
0000
0000
0300
,  // measure 68
0020
0000
0000
0000
0000
0000
0000
0000
0000
0031
0000
0000
0000
0000
0000
0000
0100
0000
0000
0000
0000
0000
0000
0000
,  // measure 69
0002
0000
0000
0000
0000
0000
0000
0000
2003
0000
0000
3000
0000
0000
0001
0000
,  // measure 70
0000
0000
0000
0000
0020
0000
0000
0000
0000
0000
0000
0030
0200
0000
0000
0000
,  // measure 71
1300
0000
0010
0000
,  // measure 72
0001
0000
0100
0000
,  // measure 73
1000
0000
0000
1000
0000
0000
0000
0000
,  // measure 74
0001
0000
1000
0000
,  // measure 75
0010
0000
0000
1000
,  // measure 76
1000
0000
0000
0001
0000
0010
0000
0000
,  // measure 77
0200
0000
0000
0000
1300
0000
0000
0010
,  // measure 78
0000
0002
0000
0000
,  // measure 79
0003
0000
0000
0000
0000
0010
0000
0000
,  // measure 80
0000
1001
0000
0000
;

//---------------dance-single - ----------------
#NOTES:
     dance-single:
     :
     Hard:
     8:
     0.429,0.525,0.029,0.383,0.339: // measure 1
0000
0000
0000
0000
,  // measure 2
0000
0000
0000
0000
,  // measure 3
0000
0000
0000
0000
,  // measure 4
0000
0000
0000
0000
,  // measure 5
0000
0000
0000
0000
,  // measure 6
0001
0000
0000
0010
0000
0100
0000
0001
0000
0010
0000
0000
0100
0000
0000
0000
,  // measure 7
0001
0000
0000
0010
0000
0100
0000
1000
0000
0010
0000
0000
0100
0000
0000
0000
,  // measure 8
0001
0000
0000
0010
0000
0100
0000
0010
0000
1000
0000
0000
0010
0000
0000
0000
,  // measure 9
0000
0000
0001
0010
0000
0000
0001
0000
0000
0010
0000
0000
1000
0000
0000
0100
0000
0000
0001
0000
0000
0010
0000
0000
,  // measure 10
2010
0000
0000
0000
,  // measure 11
3000
0000
0000
0000
0000
0001
0100
0000
,  // measure 12
2000
0000
0000
0000
,  // measure 13
3000
0000
0000
0000
0000
0000
0000
0000
0000
0000
0100
0010
0001
0000
0000
0000
,  // measure 14
2000
0000
0000
0000
,  // measure 15
0000
0000
0000
0000
0000
0001
0100
0000
,  // measure 16
3000
0000
1000
0000
0001
0100
0000
0010
0000
1000
0001
0010
0000
0000
0100
0000
,  // measure 17
0010
0000
1000
0010
0000
0000
0001
0000
0100
0000
1000
0100
0000
0000
0001
0000
,  // measure 18
0000
0020
0000
0000
0000
0230
0320
0032
,  // measure 19
2003
0000
0000
0000
0000
0000
0000
0000
3000
0000
0001
0000
0010
0001
0010
0000
,  // measure 20
0000
0001
0010
0100
0000
0100
0001
0200
,  // measure 21
0000
2300
0000
0000
0000
0000
0000
0000
,  // measure 22
3002
0000
0003
1000
0200
0000
0300
1000
0020
0000
0030
0000
0100
0000
0001
0000
,  // measure 23
0010
0000
0000
0100
0000
0000
1000
0000
0000
0000
0020
0000
0032
0000
0023
0000
,  // measure 24
2030
0000
0000
0000
3000
0000
0000
1000
0001
0000
0000
0000
0000
0001
0010
0100
,  // measure 25
2000
0000
3000
0100
0001
0100
1000
0100
,  // measure 26
0000
0000
0010
0000
0100
0010
0000
0010
0100
0000
1000
0010
0000
0010
1000
0000
,  // measure 27
0000
0000
0000
0000
0000
0000
0000
1000
0010
0000
1000
0000
0000
0000
0000
1000
,  // measure 28
0001
0000
0000
0000
0000
0000
0000
0000
0000
0100
0000
0000
0000
0000
0000
0000
0000
0000
0100
0000
0000
0000
0000
0000
0010
0000
0000
0000
0000
0000
1000
0000
0000
0000
0000
0000
0000
0000
0000
0000
0001
0000
0000
0000
0010
0000
0000
0000
,  // measure 29
0000
0001
0000
0000
0000
0000
0000
0000
0000
0000
0000
0000
0000
0000
0000
0000
,  // measure 30
0000
0000
0000
0000
0000
0000
0010
0000
0000
0000
0000
0000
0100
0000
0000
0010
0000
0000
0000
0000
0000
0010
0000
0000
0100
0000
0000
0000
0000
0000
0000
0000
0000
1000
0000
0000
0000
0000
0000
0000
0001
0000
0000
0000
0100
0000
0000
0000
,  // measure 31
0000
0000
0000
0000
0000
0000
0000
0100
0010
0000
1000
0000
0000
0000
0000
1000
,  // measure 32
0001
0000
0000
0000
0000
0000
0000
0000
0000
1000
0000
0000
0000
0000
0000
0000
0000
0000
0100
0000
0000
0000
0000
0000
0001
0000
0000
0000
0000
0000
0100
0000
0000
0000
0000
0000
0000
0000
0000
0000
0010
0000
0000
0000
0000
0000
0100
0000
,  // measure 33
0000
1000
0000
0000
0000
0000
0000
0000
0000
0000
0000
0000
,  // measure 34
2001
0000
0000
0000
,  // measure 35
0000
0000
0000
0000
,  // measure 36
0000
0000
0002
0000
,  // measure 37
3003
0000
0000
0000
0000
0000
0000
0000
0000
0000
0000
0100
0000
0000
0000
0000
,  // measure 38
0000
0000
0000
0000
,  // measure 39
0000
0000
0000
0000
0000
0000
0000
0000
0000
0001
0000
0000
0000
0000
0000
0000
,  // measure 40
0000
0000
0020
0000
,  // measure 41
0000
0000
0000
0000
0000
0000
0030
0000
0000
0000
0100
1000
0002
0000
0000
0000
,  // measure 42
1003
0100
0010
0000
0001
0100
0010
1000
,  // measure 43
0001
0000
1000
0100
0010
0000
0100
0000
,  // measure 44
1000
0000
0000
0000
0100
0000
0001
0000
0000
0000
0000
0100
0010
0000
0100
0000
,  // measure 45
1000
0000
0001
0010
0100
1000
0100
0000
,  // measure 46
1000
0100
0010
0000
0001
0010
0100
0000
,  // measure 47
0010
0000
0100
0000
1000
0000
0010
0000
1000
0000
0000
1000
0001
0000
0000
0000
,  // measure 48
0100
0000
1000
0100
0000
0100
0001
0000
,  // measure 49
1000
0010
0100
0001
0100
0000
0010
0000
,  // measure 50
1001
0000
0010
0000
0001
1000
0100
0000
,  // measure 51
0010
0000
0100
0000
1000
0000
0100
0000
0001
0000
0000
0001
0100
0000
0000
0000
,  // measure 52
1000
0000
0100
0010
0000
0010
0001
0000
,  // measure 53
0010
0100
1000
0100
1000
0010
0100
0000
,  // measure 54
1000
0100
0001
0000
0010
0100
1000
0010
,  // measure 55
0001
0000
0010
0000
1000
0000
0100
0000
0010
0000
0000
0010
0100
0000
0000
0000
,  // measure 56
1000
0000
0000
0000
0100
0000
0010
0000
0000
0000
0000
0100
0001
0000
0100
0000
,  // measure 57
0010
0100
1000
0001
0100
1000
0100
0000
,  // measure 58
0001
0000
1000
0000
0010
1000
0000
0100
0000
0010
0100
1000
0000
0000
0010
0000
,  // measure 59
1000
0000
0001
1000
0000
0000
0100
0000
0010
0000
0001
0010
0000
0000
0100
1000
,  // measure 60
0000
0000
0100
0000
0010
0100
0000
1000
0000
0010
0100
0001
0000
0000
0010
0000
,  // measure 61
0100
0000
1000
0100
0000
0000
1000
0000
0001
0000
0010
0001
0000
0000
1000
0000
,  // measure 62
0000
0200
0300
2000
,  // measure 63
3020
0000
0000
0000
0002
0030
0000
0000
,  // measure 64
0000
0020
0003
0200
0030
0002
0300
2000
,  // measure 65
0003
0000
0000
0020
3000
0000
0000
0000
,  // measure 66
0000
0000
0002
0030
0020
0003
2000
0030
,  // measure 67
0000
0000
0000
0000
0000
0000
0000
0000
0000
0000
0000
0000
0000
0000
0000
0000
0000
0000
0000
0000
0000
0000
0000
0000
3002
0000
0000
0000
0000
0000
0000
0000
0020
0003
0000
0000
0000
0000
0000
0000
0130
0000
0000
0000
1000
0000
0000
0000
,  // measure 68
0200
0000
0000
0000
0000
0000
0000
0000
0000
0302
0000
0000
0003
0000
0000
0000
0200
0000
0000
0000
0320
0000
0000
0000
,  // measure 69
0032
0000
0000
0000
0000
0000
0000
0000
0000
0000
0000
0000
2003
0000
0000
0000
0000
3020
0000
0000
0000
0032
0000
0000
,  // measure 70
0000
0000
0003
0000
0010
0000
0000
0000
1000
0000
0000
0000
0002
0000
0000
0000
0000
0000
0000
0000
0000
0000
0000
0000
0000
0000
0000
0000
0000
0000
0003
0000
0000
0010
0000
0000
0200
0000
0000
0000
0000
0000
0000
0000
0000
0000
0000
0000
,  // measure 71
1300
0010
1000
0001
0010
0001
0100
0000
,  // measure 72
0001
0000
0010
0000
0100
0000
0010
0000
0100
0000
1000
0000
,  // measure 73
0100
0000
0000
0000
0001
0000
0000
0000
0000
0000
0100
0000
0000
0000
0000
1000
0000
0000
0000
0000
0000
0000
0000
0000
,  // measure 74
0001
0010
0100
0010
0002
0000
0203
0000
,  // measure 75
1300
0000
0000
0000
0000
0000
0000
0000
0000
2000
0000
0000
3000
0000
0000
1000
0000
0000
0100
0000
0010
0000
1000
0000
,  // measure 76
0020
0000
0000
0000
0000
0000
0031
0000
0000
0000
0010
0000
0000
0100
0000
0000
,  // measure 77
0002
0000
0000
0000
0000
0000
0000
0000
1003
0000
0000
0010
0000
0000
1000
0001
,  // measure 78
0000
0100
0010
0002
0000
0000
0100
0000
0000
0100
0000
0000
,  // measure 79
0003
0000
0000
0000
0000
0000
0000
0000
0000
0000
1000
0010
0000
0000
0001
0000
,  // measure 80
0000
0100
0101
0000
0000
0000
0000
0000
;

//---------------dance-single - ----------------
#NOTES:
     dance-single:
     :
     Beginner:
     2:
     0.121,0.204,0.029,0.192,0.015: // measure 1
0000
0000
0000
0000
,  // measure 2
0000
0000
0000
0000
,  // measure 3
0000
0000
0000
0000
,  // measure 4
0000
0000
0000
0000
,  // measure 5
0000
0000
0000
0000
,  // measure 6
1000
0000
0000
0000
,  // measure 7
0001
0000
0000
0000
,  // measure 8
1000
0000
0000
0000
,  // measure 9
0001
0000
0001
0000
,  // measure 10
2000
0000
0000
0000
,  // measure 11
3000
0000
0000
0000
,  // measure 12
0020
0000
0000
0000
,  // measure 13
0030
0000
0000
0000
,  // measure 14
0200
0000
0000
0000
,  // measure 15
0000
0000
0000
0000
,  // measure 16
0300
0002
0000
0000
0000
0000
0000
0000
,  // measure 17
0000
0000
0000
0000
,  // measure 18
0003
1000
0000
0000
0000
0000
0000
0000
,  // measure 19
0002
0000
0003
0000
,  // measure 20
0000
0010
0000
0000
0000
0100
0000
0000
,  // measure 21
0000
2000
0000
0000
0000
0000
0000
3000
,  // measure 22
0001
0000
0010
0000
,  // measure 23
0001
0000
0000
0000
,  // measure 24
2000
3000
2000
3000
,  // measure 25
0020
0030
0000
0000
,  // measure 26
0000
1000
0000
0000
0000
0000
0000
0000
,  // measure 27
0000
0000
0000
0000
0000
0000
0000
0001
0000
0000
0000
0000
0000
0000
0000
0000
,  // measure 28
0010
0000
0000
0000
0000
0000
0000
0000
0000
0000
0100
0000
,  // measure 29
0000
0000
0000
0000
,  // measure 30
0000
1000
0000
0000
0000
0000
0000
0000
,  // measure 31
0000
0000
0000
0000
0000
0000
0000
0001
0000
0000
0000
0000
0000
0000
0000
0000
,  // measure 32
0010
0000
0000
0000
0000
0000
0000
0000
0000
0000
0100
0000
,  // measure 33
0000
0000
0000
0000
,  // measure 34
2002
0000
0000
0000
,  // measure 35
0000
0000
0000
0000
,  // measure 36
0000
0000
0000
0000
,  // measure 37
3003
0000
0000
0000
,  // measure 38
0000
0000
0000
0000
,  // measure 39
0000
0000
0000
0000
,  // measure 40
0000
0000
0002
0000
,  // measure 41
0000
0000
0000
0003
0000
0000
0000
0000
,  // measure 42
0100
0000
0001
0000
,  // measure 43
0001
0000
0000
0000
,  // measure 44
1000
0000
0000
0000
,  // measure 45
0001
0000
1000
0000
,  // measure 46
1000
0000
0000
0000
,  // measure 47
0010
0000
0100
0000
,  // measure 48
0001
0000
0000
0000
,  // measure 49
1010
0000
0000
0000
,  // measure 50
1001
0000
0000
0000
,  // measure 51
0001
0000
1000
0000
,  // measure 52
0100
0000
0000
1000
,  // measure 53
1000
0000
0000
0000
,  // measure 54
0100
0000
0010
0000
,  // measure 55
0001
0000
0000
0000
,  // measure 56
0100
0000
0000
0001
,  // measure 57
0001
0000
1000
0000
,  // measure 58
2000
0000
0000
0000
,  // measure 59
3200
0000
0000
0000
,  // measure 60
0320
0000
0000
0000
,  // measure 61
0032
0000
0000
0000
,  // measure 62
0003
0010
0000
0100
,  // measure 63
2000
0000
0000
3000
0002
0000
0000
0003
,  // measure 64
0000
2000
0000
3000
0000
0000
0000
0200
,  // measure 65
0000
0300
0000
0020
0000
0000
0000
0030
,  // measure 66
0000
0002
0003
2000
,  // measure 67
0000
3000
0100
0000
,  // measure 68
0010
0000
0000
0000
,  // measure 69
0002
0000
1003
0000
,  // measure 70
0000
0100
0000
0000
0000
0000
0010
0000
,  // measure 71
0100
0000
1000
0000
,  // measure 72
0001
0000
0000
0000
,  // measure 73
0100
0000
0000
0000
,  // measure 74
0001
0000
0000
0000
,  // measure 75
1000
0000
0000
0100
,  // measure 76
0000
0000
0000
0010
0000
0000
0000
0000
,  // measure 77
0200
0000
1300
0000
,  // measure 78
0000
0002
0000
0000
,  // measure 79
0003
0000
0000
0000
,  // measure 80
0000
1001
0000
0000
;
