#TITLE:Surrender (VIP Mix);
#SUBTITLE:;
#ARTIST:AL STORM ft. Amy;
#TITLETRANSLIT:;
#SUBTITLETRANSLIT:;
#ARTISTTRANSLIT:;
#CREDIT:;
#BANNER:bn.jpg;
#BACKGROUND:bg.jpg;
#LYRICSPATH:;
#CDTITLE:cdtitlesummer.png;
#MUSIC:Surrender (VIP Mix).mp3;
#OFFSET:-0.060;
#SAMPLESTART:105.280;
#SAMPLELENGTH:12.000;
#SELECTABLE:YES;
#DISPLAYBPM:*;
#BPMS:0.000=180.100,64.000=90.040,128.000=180.100,316.000=90.050,316.750=180.090,317.000=360.201,319.003=180.100;
#STOPS:319.000=0.333
;
#BGCHANGES:;

//---------------dance-single - xRGTMx----------------
#NOTES:
     dance-single:
     xRGTMx:
     Hard:
     10:
     0.828,1.000,1.000,0.127,0.543: // measure 1
0000
0000
0000
0000
,  // measure 2
0000
0000
0000
0000
,  // measure 3
0000
0000
0000
0000
,  // measure 4
0000
0000
0000
0000
0000
0000
0000
0100
,  // measure 5
0010
0000
1010
0000
1000
0100
0000
0110
,  // measure 6
0000
0011
0000
0101
0000
1001
0001
1000
,  // measure 7
0100
0000
0100
0010
0001
1000
0010
1000
,  // measure 8
2002
0000
0000
3003
,  // measure 9
1010
1000
0010
1000
0001
0010
0100
1000
,  // measure 10
0001
1000
0001
1000
0010
0100
0001
0010
,  // measure 11
0100
0010
0100
0010
0100
1000
0010
0100
,  // measure 12
0001
0010
1000
0010
0001
0100
1000
0100
,  // measure 13
0101
0100
0001
0100
0001
0010
0100
1000
,  // measure 14
0010
0100
0010
0100
0001
1000
0001
1000
,  // measure 15
0100
1000
0010
0100
0001
0010
0100
1000
,  // measure 16
2002
0000
0000
0000
0000
0000
0000
3003
,  // measure 17
1000
0100
0010
0001
0100
0010
0000
1010
0000
1001
0000
1100
1000
0100
0010
0001
,  // measure 18
0100
0001
0010
0100
1000
0010
0000
0110
0000
0101
0000
0110
0010
1000
0100
1000
,  // measure 19
0001
0100
0010
1000
0100
0010
0000
0011
0000
1001
0000
0101
0001
0100
0010
1000
,  // measure 20
0100
1000
0010
0100
0001
0010
0000
0110
0000
1100
0000
0110
0010
0001
0100
0001
,  // measure 21
1000
0100
1000
0010
0100
0001
0000
0011
0000
1100
0000
0011
0001
0100
0010
1000
,  // measure 22
0001
0100
0001
0010
0100
1000
0000
1010
0000
0101
0000
1010
1000
0100
0010
0001
,  // measure 23
1000
0010
1000
0100
0010
0001
0000
0101
0000
1010
0000
0101
0001
0010
0100
1000
,  // measure 24
0001
0010
0001
0100
0010
1000
0000
1100
0000
0011
0000
1100
1000
0010
0100
0001
,  // measure 25
2001
0000
0000
0000
3001
0010
0100
1000
0010
0000
0100
0101
0000
0000
0001
1001
,  // measure 26
0000
0000
1000
1100
0000
0000
0100
0110
0000
0011
0000
1001
1000
0100
0010
0001
,  // measure 27
1002
0000
0000
0000
1003
0010
0100
0001
0010
0000
0100
1100
0000
0000
1000
1001
,  // measure 28
0000
0000
0001
0101
0000
0110
0000
1010
2000
0002
0000
0000
0000
0000
3003
0000
,  // measure 29
2001
0000
0000
0001
3001
0100
0010
1000
0100
0000
0010
0011
0000
0000
0001
1001
,  // measure 30
0000
0000
1000
1010
0000
0000
0010
0110
0000
0101
0000
1001
1000
0010
0100
0001
,  // measure 31
1002
0000
0000
1000
1003
0100
0010
0001
0100
0000
0010
1010
0000
0000
1000
1001
,  // measure 32
0000
0000
0001
0011
0000
0110
0000
2200
0000
0000
0000
0000
0000
0000
3300
0000
,  // measure 33
1001
0000
1000
0000
1010
1000
0100
0010
,  // measure 34
0001
0000
0001
0101
0100
0000
0010
1010
,  // measure 35
1000
0000
1000
1001
0001
0000
0001
1001
,  // measure 36
1000
0010
0100
0001
0010
0100
1000
0001
,  // measure 37
1001
0000
1000
0000
1100
1000
0010
0100
,  // measure 38
0001
0000
0001
0011
0010
0000
0100
1100
,  // measure 39
1000
0000
1000
1001
0001
0000
0001
1001
,  // measure 40
1000
0100
0010
0001
0100
0010
1000
0001
,  // measure 41
1001
0001
0100
0001
1000
0001
0100
0001
,  // measure 42
1001
0001
0010
0001
1000
0001
0010
0001
,  // measure 43
1001
1000
0100
1000
0001
1000
0100
1000
,  // measure 44
1001
1000
0010
1000
0001
1000
0010
1000
,  // measure 45
1001
1000
0001
1000
0110
0100
0010
0100
,  // measure 46
1001
1000
0001
1000
0110
0100
0010
0100
,  // measure 47
0001
1000
0001
1000
0001
1000
0001
1000
0010
0100
0010
0100
0010
0100
0010
0000
,  // measure 48
2002
0000
0000
3003
,  // measure 49
1010
0000
0000
0000
1100
0000
0100
0010
0001
0000
0100
0000
0010
0000
1000
0000
,  // measure 50
1010
0000
0000
1000
0001
0000
0101
0000
0000
0000
0100
0000
0110
0000
0100
0000
,  // measure 51
0101
0000
0000
0001
1000
0000
1100
0000
0000
0000
0100
0000
0110
0000
0100
0000
,  // measure 52
1100
0000
0000
1000
0010
0000
0110
0000
0000
0000
0100
0000
0101
0000
0001
0000
,  // measure 53
0011
0000
0000
0000
0101
0000
0100
0010
1000
0000
0100
0000
0010
0000
0001
0000
,  // measure 54
0011
0000
0000
0001
1000
0000
1100
0000
0000
0000
0100
0000
0110
0000
0100
0000
,  // measure 55
1100
0000
0000
1000
0001
0000
0101
0000
0000
0000
0100
0000
0110
0000
0100
0000
,  // measure 56
0101
0000
0000
0001
0010
0000
0110
0000
0000
0000
0100
0000
1000
0100
1000
0100
,  // measure 57
1000
0000
0000
0000
1010
0000
0010
0100
0001
0000
0010
0000
0100
0000
1000
0000
,  // measure 58
1100
0000
0000
1000
0001
0000
0011
0000
0000
0000
0010
0000
0110
0000
0010
0000
,  // measure 59
0011
0000
0000
0001
1000
0000
1010
0000
0000
0000
0010
0000
0110
0000
0010
0000
,  // measure 60
1010
0000
0000
1000
0100
0000
0110
0000
0000
0000
0010
0000
0011
0000
0001
0000
,  // measure 61
1001
0000
0000
0000
0101
0000
0100
0010
1000
0000
0100
0000
0010
0000
0001
0000
,  // measure 62
0011
0000
0000
0010
0100
0000
1100
0000
0000
0000
1000
0000
1010
0000
0010
0000
,  // measure 63
0110
0000
0000
0000
0101
0000
0001
0000
1000
0100
1000
0100
0010
0001
0010
0001
,  // measure 64
2000
0001
0000
0001
0000
0001
0000
3001
,  // measure 65
0101
0000
0000
0000
0011
0000
0010
0100
1000
0000
0010
0000
0100
0000
0001
0000
,  // measure 66
0101
0000
0000
0001
1000
0000
1010
0000
0000
0000
0010
0000
0110
0000
0010
0000
,  // measure 67
1010
0000
0000
1000
0001
0000
0011
0000
0000
0000
0010
0000
0110
0000
0010
0000
,  // measure 68
0011
0000
0000
0001
0100
0000
0110
0000
0000
0000
0010
0000
1010
0000
1000
0000
,  // measure 69
1100
0000
0000
0000
1010
0000
0010
0100
0001
0000
0010
0000
0100
0000
1000
0000
,  // measure 70
1100
0000
0000
1000
0001
0000
0011
0000
0000
0000
0010
0000
0110
0000
0010
0000
,  // measure 71
0011
0000
0000
0001
1000
0000
1010
0000
0000
0000
0010
0000
0110
0000
0010
0000
,  // measure 72
1010
0000
0000
1000
0100
0000
0110
0000
0000
0000
0010
0000
0001
0010
0001
0010
,  // measure 73
0001
0000
0000
0000
0101
0000
0100
0010
1000
0000
0100
0000
0010
0000
0001
0000
,  // measure 74
0011
0000
0000
0001
1000
0000
1100
0000
0000
0000
0100
0000
0110
0000
0100
0000
,  // measure 75
1100
0000
0000
1000
0001
0000
0101
0000
0000
0000
0100
0000
0110
0000
0100
0000
,  // measure 76
0101
0000
0000
0001
0010
0000
0110
0000
0000
0000
0100
0000
1100
0000
1000
0000
,  // measure 77
1001
0000
0000
0000
1010
0000
0010
0100
0001
0000
0010
0000
0100
0000
1000
0000
,  // measure 78
1100
0000
0000
0100
0010
0000
0011
0000
0000
0000
0001
0000
0101
0000
0100
0000
,  // measure 79
0100
0010
0000
1010
0000
0101
0000
0220
,  // measure 80
0000
0000
0000
0000
0000
0000
0000
0000
0000
0000
0000
0000
0000
0000
0000
0000
0000
0000
0000
0000
0000
0000
0000
0000
0000
0000
0000
0000
0000
0000
0000
0000
0000
0000
0000
0000
0000
0000
0000
0000
0000
0000
0000
0000
0000
0000
0000
0000
0330
0000
0000
0000
0000
1001
0000
0000
0000
0000
0000
0000
0000
0000
0000
0000
;

//---------------dance-single - xRGTMx----------------
#NOTES:
     dance-single:
     xRGTMx:
     Medium:
     8:
     0.574,0.717,1.000,0.150,0.015:
0000
0000
0000
0000
,
0000
0000
0000
0000
,
0000
0000
0000
0000
,
0000
0000
0000
0000
,
0010
1000
0100
0010
,
0001
1000
0001
0100
,
0010
1000
0100
0010
,
2002
0000
0000
3003
,
1010
0000
1100
0000
1000
0100
0010
0001
,
1000
0001
0101
1010
,
0101
0000
1000
0000
0001
0100
0010
0100
,
0001
0010
1100
0011
,
1001
0000
0100
0000
0010
1000
0001
0010
,
0100
1100
0011
1100
,
1001
0000
0100
0000
0010
1000
0100
0010
,
2002
0000
0000
3003
,
1001
1000
0100
0010
0100
0011
1100
0010
,
1001
0100
0010
1000
0001
0101
1010
0100
,
1001
0001
0100
0010
0100
1010
0101
0010
,
1001
0100
0010
0001
1000
1100
0011
0100
,
1001
1000
0010
0100
0010
0101
1010
0100
,
1001
0010
0100
1000
0001
0011
1100
0010
,
1001
0001
0010
0100
0010
1100
0011
0100
,
1001
0010
0100
0001
1000
1010
0101
0010
,
1001
0000
0000
0000
1000
0100
1000
0000
0100
0000
0000
0000
0011
0000
0000
0000
,
0101
0000
1010
0000
1100
0100
0010
0001
,
1001
0000
0000
0000
0001
0100
0001
0000
0100
0000
0000
0000
1010
0000
0000
0000
,
1100
0000
0011
0000
0101
0100
0010
1000
,
1001
0000
0000
0000
1000
0010
1000
0000
0010
0000
0000
0000
0101
0000
0000
0000
,
0011
0000
1100
0000
1010
0010
0100
0001
,
1001
0000
0000
0000
0001
0010
0001
0000
0010
0000
0000
0000
1100
0000
0000
0000
,
1010
0000
0101
0000
2002
0000
0000
3003
,
1001
0001
0201
0001
,
0010
1000
0301
1200
,
0310
0201
1300
0021
,
1030
1100
0011
0101
,
1001
1000
1200
1000
,
0010
0001
1300
0201
,
0310
1200
0301
1020
,
0031
0101
1010
1100
,
1001
0000
0100
0000
0001
0010
0100
1000
,
0010
0100
0101
1000
,
1100
0010
0101
1000
,
0011
1100
1010
0101
,
1000
0100
1000
0100
0010
0100
0010
0100
,
0010
0001
0010
0001
1000
0001
1000
0001
,
1000
0010
0100
0001
0010
0100
1000
0001
,
2002
0000
0000
3003
,
1001
0000
0100
0000
1000
0010
0100
0001
,
1000
0001
1100
0001
,
1010
0100
0011
0100
,
1010
0011
1100
0101
,
1001
0000
0100
0000
0001
0010
0100
1000
,
0001
1000
0101
1000
,
0011
0100
1010
0100
,
0011
1010
0101
1100
,
1001
0000
0010
0000
1000
0100
0010
0001
,
1000
0001
1010
0001
,
1100
0010
0101
0010
,
1100
0101
1010
0011
,
1001
0000
0010
0000
0001
0100
0010
1000
,
0001
1000
0011
1000
,
0101
0010
1100
0010
,
0102
0100
0000
0100
0000
1000
0000
1003
,
1001
0000
0100
0000
1000
0010
0100
0001
,
1000
0001
1100
0001
,
1010
0100
0011
0100
,
1010
0011
1100
0101
,
1001
0000
0100
0000
0001
0010
0100
1000
,
0001
1000
0101
1000
,
0011
0100
1010
0100
,
0011
1010
0101
1100
,
1001
0000
0010
0000
1000
0100
0010
0001
,
1000
0001
1010
0001
,
1100
0010
0101
0010
,
1100
0101
1010
0011
,
1001
0000
0010
0000
0001
0100
0010
1000
,
0001
1000
0011
1000
,
2010
0000
0100
0100
0000
0010
3000
2002
,
0000
0000
0000
3003
;

//---------------dance-single - xRGTMx----------------
#NOTES:
     dance-single:
     xRGTMx:
     Easy:
     6:
     0.449,0.418,0.764,0.120,0.000:
0000
0000
0000
0000
,
0000
0000
0000
0000
,
0000
0000
0000
0000
,
0000
0000
0000
0000
,
1000
0001
1000
0001
,
0100
0010
0100
0010
,
1000
0100
0010
0001
,
2002
0000
0000
3003
,
1001
1000
0010
1000
,
0100
0010
0001
0100
,
0010
0010
0100
0100
,
0001
0010
0100
1000
,
1001
1000
0100
0010
,
0001
0100
0010
0100
,
0001
0010
0100
1000
,
2020
0000
0000
3030
,
0100
0010
1000
0000
0001
0000
1100
0000
,
0010
0000
1001
0000
0100
0010
1000
0000
,
0100
0010
0001
0000
1000
0000
0011
0000
,
0100
0000
1010
0000
0100
0001
1000
0000
,
0010
1000
0100
0000
0010
0000
1001
0000
,
0100
0000
1010
0000
0100
0001
1000
0000
,
0001
0010
0100
0000
0010
0000
1001
0000
,
0100
0000
1010
0000
0100
0001
0010
0000
,
2001
0001
0010
0010
,
0100
0100
0010
3010
,
1002
1000
0010
0010
,
0100
0100
0010
0013
,
2100
0100
0010
3001
,
0102
0100
0010
1003
,
2010
0010
0100
3001
,
0012
0010
0100
1003
,
1002
1000
1000
1000
,
0100
0100
0100
0103
,
0100
0010
1000
0001
,
0010
1100
0011
1100
,
2001
0001
0001
0001
,
0100
0100
0100
3100
,
0100
0010
0001
1000
,
0010
0101
1010
0101
,
1001
0100
0010
1000
,
1001
0100
0010
0001
,
1001
0100
0010
1000
,
1001
0100
0010
0001
,
1010
0100
0011
0100
,
1010
0100
0011
0100
,
0010
0100
0010
0100
0010
0100
0010
0000
,
2002
0000
0000
3003
,
1001
1100
0010
1001
,
0100
1010
0100
0011
,
1000
0101
0010
1100
,
0001
1010
0100
0011
,
1001
0101
0010
1001
,
0100
0011
0100
1010
,
0001
1100
0010
0101
,
1000
0011
0100
1010
,
1001
1010
0100
1001
,
0010
1100
0010
0101
,
1000
0011
0100
1010
,
0001
1100
0010
0101
,
1001
0011
0100
1001
,
0010
0101
0010
1100
,
0001
1010
0100
0011
,
1000
0001
0000
0001
0000
1000
0000
0000
,
1001
0011
0100
1001
,
0010
0101
0010
1100
,
0001
1010
0100
0011
,
1000
0101
0010
1100
,
1001
1010
0100
1001
,
0010
1100
0010
0101
,
1000
0011
0100
1010
,
0001
1100
0010
0101
,
1001
0101
0010
1001
,
0100
0011
0100
1010
,
0001
1100
0010
0101
,
1000
0011
0100
1010
,
1001
1100
0010
1001
,
0100
1010
0100
0011
,
1000
0000
0000
0000
0001
0000
0000
2002
,
0000
0000
0000
3003
;

//---------------dance-single - xRGTMx----------------
#NOTES:
     dance-single:
     xRGTMx:
     Beginner:
     3:
     0.241,0.269,0.097,0.075,0.000:
0000
0000
0000
0000
,
0000
0000
0000
0000
,
0000
0000
0000
0000
,
0000
0000
0000
0000
,
0010
0000
0010
0000
,
0100
0000
0010
0000
,
1000
0000
0001
0000
,
2002
0000
3003
0000
,
1000
1000
1000
0000
,
0001
0000
1000
0000
,
0001
0001
0001
0000
,
1000
0000
0001
0000
,
0100
0100
0100
0000
,
0010
0000
0100
0000
,
0010
0010
0010
0000
,
2002
0000
3003
0000
,
1000
1000
0001
0000
,
0001
0001
1000
0000
,
0010
0010
0100
0000
,
0100
0100
0010
0000
,
1000
1000
0001
0000
,
0001
0001
1000
0000
,
0010
0010
0100
0000
,
0100
0100
0010
0000
,
1100
0000
0000
0000
,
0110
0000
0000
0000
,
0011
0000
0000
0000
,
1001
0000
0000
0000
,
1010
0000
0000
0000
,
0110
0000
0000
0000
,
0101
0000
0000
0000
,
1001
0000
0000
0000
,
0010
0010
0010
0010
,
0010
0010
0010
0010
,
0010
0010
0010
0010
,
0010
0010
0010
0000
,
0100
0100
0100
0100
,
0100
0100
0100
0100
,
0100
0100
0100
0100
,
0100
0100
0100
0000
,
0001
0001
0001
0000
,
1000
1000
1000
0000
,
0010
0010
0010
0000
,
0100
0100
0100
0000
,
0001
0001
0001
0000
,
1000
1000
1000
0000
,
0010
0010
0100
0100
,
2002
0000
3003
0000
,
1000
1000
1000
0000
,
0100
0100
0100
0000
,
0010
0010
0010
0000
,
0001
0001
0001
0000
,
1000
1000
1000
0000
,
0010
0010
0010
0000
,
0100
0100
0100
0000
,
0001
0001
0001
0000
,
1000
1000
0100
0000
,
0100
0100
0010
0000
,
0010
0010
0001
0000
,
0001
0001
1000
0000
,
1000
1000
0010
0000
,
0010
0010
0100
0000
,
0100
0100
0001
0000
,
2002
0000
3003
0000
,
1000
1000
1000
0000
,
0100
0100
0100
0000
,
0010
0010
0010
0000
,
0001
0001
0001
0000
,
1000
1000
1000
0000
,
0010
0010
0010
0000
,
0100
0100
0100
0000
,
0001
0001
0001
0000
,
1000
1000
0100
0000
,
0100
0100
0010
0000
,
0010
0010
0001
0000
,
0001
0001
1000
0000
,
1000
1000
0010
0000
,
0010
0010
0100
0000
,
0100
0000
0000
0000
0001
0000
0000
2002
,
0000
0000
0000
3003
;
