#TITLE:Spinnin' Around;
#SUBTITLE:;
#ARTIST:Jump 5;
#TITLETRANSLIT:;
#SUBTITLETRANSLIT:;
#ARTISTTRANSLIT:;
#CREDIT:;
#BANNER:Shades of Grey.png;
#BACKGROUND:Shades of Grey-bg.png;
#LYRICSPATH:;
#CDTITLE:;
#MUSIC:Spinnin' around.mp3;
#OFFSET:0.106;
#SAMPLESTART:11.304;
#SAMPLELENGTH:15.000;
#SELECTABLE:YES;
#BPMS:0.000=112.030,20.000=56.015,21.000=112.030,101.000=56.015,113.000=112.030;
#STOPS:;
#BGCHANGES:;

//---------------dance-single - Copied from----------------
#NOTES:
     dance-single:
     Copied from:
     Hard:
     9:
     0.500,0.545,0.274,0.214,0.390:
0000
0000
0000
0000
,
0000
0000
0000
0000
0000
0000
0000
0000
0000
0000
0000
0000
0000
0000
0000
0000
0000
0000
0000
0000
0000
0000
0000
0000
0000
0000
0000
0000
0000
0000
0000
0000
1100
0000
0000
0000
0000
0000
0000
0000
1000
0000
0000
0000
0000
0100
0000
0000
0010
0000
0000
0000
0000
0001
0000
0000
0010
0000
0000
0000
0000
0100
0000
0000
,
1000
0000
0000
0000
0000
0000
0000
0000
0001
0000
0000
0000
0000
0100
0000
0000
0000
0000
0000
0000
0000
0000
0000
0000
0010
0000
0000
0000
0000
0000
0000
0000
0000
0000
0000
0000
0000
0000
0000
0000
1000
0000
0000
0000
0000
0000
0000
0000
0100
0000
0000
0000
0010
0000
0000
0000
0002
0000
0000
0000
0000
0000
0000
0000
,
0000
0000
0000
0000
0000
0000
0000
0000
1003
0000
0000
0000
0000
0000
0000
0000
0010
0000
0000
0000
0000
0000
0000
0000
1000
0000
0000
0000
0000
0000
0000
0000
0000
0000
0000
0000
0000
0000
0000
0000
0001
0000
0000
0000
0000
0010
0000
0000
0100
0000
0000
0000
0000
1000
0000
0000
0010
0000
0000
0000
0000
1000
0000
0000
,
0001
0000
0000
0000
0000
0000
0000
0000
0100
0000
0000
0000
0000
0010
0000
0000
0000
0000
0000
0000
0000
0000
0000
0000
0100
0000
0000
0000
0000
0000
0000
0000
0000
0000
0000
0000
0000
0000
0000
0000
0000
0000
0000
0000
0000
0000
0000
0000
0001
0000
0000
0000
0000
0000
0000
0000
0010
0000
0000
0000
0000
0200
0000
0000
,
0000
0000
0000
0000
0000
0000
0000
0000
0000
0000
0000
0000
0000
0000
0000
0000
0000
0000
0000
0000
0000
0000
0000
0000
0000
0000
0000
0000
0000
0000
0000
0000
0000
0000
0000
0000
0000
0000
0000
0000
0000
0000
0000
0300
0000
0000
0000
0000
1000
0000
0000
0000
0000
0000
0000
0000
0000
0000
0000
0000
0000
0000
0000
0000
0000
0000
0000
0000
0000
0000
0000
0000
0010
0000
0000
0000
0000
0000
0000
0000
0000
0000
0000
0000
0100
0000
0000
0000
0000
0000
0000
0000
0000
0000
0000
0000
0001
0000
0000
0000
0000
0000
0000
0000
0000
0000
0000
0000
0000
0000
0000
0000
0000
0000
0000
0000
0000
0000
0000
0000
0000
0000
0000
0000
0000
0000
0000
0000
0000
0000
0000
0000
0010
0000
0000
0000
0000
0000
0000
0000
0000
0000
0000
0000
0000
0000
0000
0000
0000
0000
0000
0000
0000
0000
0000
0000
0000
0000
0000
0000
0000
0000
0000
0000
0000
0000
0000
0000
0100
0000
0000
0000
0000
0000
0000
0000
0000
0000
0000
0000
0000
0000
0000
0000
0000
0000
0000
0000
0000
0000
0000
0000
,
1000
0020
0000
0031
0010
2000
0000
3100
,
0010
0200
0000
0302
0000
0000
0000
0103
,
0010
0000
0000
0000
0000
0000
0000
0000
0200
0000
0000
0000
0000
0000
0000
0000
0000
0000
0000
0000
0000
0000
0000
0000
1300
0000
0000
0000
0000
0000
0000
0000
0010
0000
0000
0000
0000
0000
0000
0000
1000
0000
0000
0000
0000
0010
0000
0000
0100
0000
0000
0000
0000
0001
0000
0000
0010
0000
0000
0000
0000
0000
0000
0000
,
0001
0000
0000
0000
0000
0100
0000
0000
0010
0000
0000
0000
0000
1000
0000
0000
0002
0000
0000
0000
0000
0000
0000
0000
0000
0000
0000
0000
0010
0000
0000
0000
0000
0000
0000
0000
0000
0000
0000
0000
0023
0000
0000
0000
0000
0000
0000
0000
0000
0000
0000
0000
0000
0000
0000
0000
0000
0000
0000
0000
0000
0000
0000
0000
,
0000
0000
0000
0000
0100
0000
0000
0001
0000
0000
0130
0000
0000
0000
1000
0000
,
0010
0100
0000
0010
0001
0010
0000
1000
,
0100
0010
0110
0011
0101
1010
1001
0000
,
0001
0000
1000
0010
0001
0200
0000
2300
,
0000
3020
0000
0130
0001
0100
0020
0000
,
2030
0000
3200
0000
0310
0002
0000
0203
,
0000
0000
0000
0000
0000
0000
0000
0000
0310
0000
0000
0000
0000
0100
0000
0000
0010
0000
0000
0000
0000
0100
0000
0000
0001
0000
0000
0000
0000
0100
0000
0000
0010
0000
0000
0000
0000
0000
0000
0000
1000
0000
0000
0000
0000
0010
0000
0000
0100
0000
0000
0000
0000
0001
0000
0000
0100
0000
0000
0000
0000
0000
0000
0000
,
0001
0100
0010
2000
0000
3200
0000
0320
,
0000
0032
0000
0000
0013
0011
0000
0110
,
0000
2200
0000
0000
0000
0000
0000
3300
,
0000
1000
0010
0100
0001
0010
0000
1000
,
0100
0000
0000
0000
0000
0000
0000
0000
0000
0000
0000
0000
0000
0000
0000
0000
0001
0000
0000
0000
0000
0100
0000
0000
0001
0000
0000
0000
0000
0100
0000
0000
0010
0000
0000
0000
0000
0000
0000
0000
1000
0000
0000
0000
0000
0010
0000
0000
0100
0000
0000
0000
0000
0000
0000
0000
0001
0000
0000
0000
0000
0000
0000
0000
,
0100
0000
0000
0000
0000
0000
0000
0000
0010
0000
0000
0000
0000
0100
0000
0000
0001
0000
0000
0000
0000
0010
0000
0000
0001
0000
0000
0000
0000
1000
0000
0000
0010
0000
0000
0000
0000
0000
0000
0000
0100
0000
0000
0000
0000
0000
0000
0000
0000
0000
0000
0000
0000
0000
0000
0000
0001
0000
0000
0000
0000
0000
0000
0000
,
0100
0000
1000
0010
0001
0100
0010
0100
,
0001
0000
0000
0000
0000
0000
0000
0000
0000
0000
0000
0000
0000
0000
0000
0000
0100
0000
0000
0000
0000
0000
0000
0000
0010
0000
0000
0000
0000
0000
0000
0000
1000
0000
0000
0000
0000
0000
0000
0000
0001
0000
0000
0000
0000
1000
0000
0000
0010
0000
0000
0000
0000
0000
0000
0000
1000
0000
0000
0000
0000
0000
0000
0000
,
0010
0000
1000
0000
0001
0000
0000
0000
0000
0100
0010
1000
0000
0010
0000
0100
,
0000
0001
0010
0100
1000
0000
0010
0100
0000
0000
0001
0100
0010
1000
0100
0010
,
0001
0100
0010
0000
1000
0010
0100
0001
0100
0010
1000
0010
0000
0100
0000
0001
,
0000
0100
0000
0000
0010
0000
0000
0000
0100
0000
0100
0000
0000
0000
0001
0000
,
0010
0000
0100
1000
0000
1000
0010
0001
,
0100
0000
0000
0000
0000
0000
0000
0000
1000
0000
0000
0000
0000
0000
0000
0000
0010
0000
0000
0000
0000
0000
0000
0000
0100
0000
0000
0000
0000
0000
0000
0000
0001
0000
0000
0000
0000
0000
0000
0000
0100
0000
0000
0000
0000
0001
0000
0000
1000
0000
0000
0000
0000
0000
0000
0000
0100
0000
0000
0000
0000
0000
0000
0000
,
0010
0000
0000
0000
0000
0000
0000
0000
0001
0000
0000
0000
0000
0000
0000
0000
1000
0000
0000
0000
0000
0010
0000
0000
0100
0000
0000
0000
0000
0001
0000
0000
0010
0000
0000
0000
0000
0000
0000
0000
0100
0000
0000
0000
0000
0010
0000
0000
0100
0000
0000
0000
0000
0000
0000
0000
1000
0000
0000
0000
0000
0000
0000
0000
,
0010
0000
0000
0000
0100
0000
0000
0000
0001
0000
0000
0000
0001
0000
0000
0011
,
0000
0011
0000
0100
1000
0100
0000
0010
,
0001
0000
0000
0000
0001
0010
0100
1000
0000
0000
0010
0000
0001
0000
0100
0000
,
1000
0000
1000
0100
0001
0100
1000
0010
,
0001
0000
0010
0000
1000
0000
0100
1000
0100
0000
0011
0000
0000
0000
0000
0000
,
0000
0110
0000
1100
0000
1010
0000
0110
,
0101
0000
0000
0000
0000
0000
0000
0000
1001
0000
0000
0000
0000
0000
0000
0000
0001
0000
0000
0000
0000
0000
0000
0000
0010
0000
0000
0000
0000
0100
0000
0000
0000
0000
0000
0000
0000
1000
0000
0000
0000
0000
0000
0000
0000
0010
0000
0000
0000
0000
0000
0000
0000
0100
0000
0000
0000
0000
0000
0000
0000
0000
0000
0000
,
0001
0000
0000
0000
0000
0000
0000
0000
0100
0000
0000
0000
0000
0000
0000
0000
0010
0000
0000
0000
0000
0000
0000
0000
1000
0000
0000
0000
0000
0010
0000
0000
0000
0000
0000
0000
0000
0100
0000
0000
0000
0000
0000
0000
0000
0001
0000
0000
0000
0000
0000
0000
0000
0010
0000
0000
0100
0000
0000
0000
0000
1000
0000
0000
,
0100
0010
0001
0110
0100
1100
1000
1001
,
0001
0000
0101
0000
0100
0010
1000
0100
0000
0010
0000
0001
0010
0100
0000
1000
,
0000
0000
0000
0000
0000
0000
0000
0000
0000
0000
0000
0000
0000
0000
0000
0000
0010
0000
0000
0000
0000
0000
0000
0000
0100
0000
0000
0000
0000
0001
0000
0000
0000
0000
0000
0000
0000
0010
0000
0000
0000
0000
0000
0000
0000
0100
0000
0000
0000
0000
0000
0000
0000
0010
0000
0000
0000
0000
0000
0000
0000
0100
0000
0000
,
0000
0000
0000
0000
0000
0000
0000
0000
1000
0000
0000
0000
0000
0000
0000
0000
0100
0000
0000
0000
0000
1000
0000
0000
0000
0000
0000
0000
0000
0010
0000
0000
0000
0000
0000
0000
0000
0100
0000
0000
0000
0000
0000
0000
0000
0001
0000
0000
0000
0000
0000
0000
0000
0100
0000
0000
0000
0000
0000
0000
0000
0010
0000
0000
,
0000
0000
0000
0000
0000
0000
0000
0000
1000
0000
0000
0000
0000
0000
0000
0000
0100
0000
0000
0000
0000
0000
0000
0000
1000
0000
0000
0000
0000
0010
0000
0000
0000
0000
0000
0000
0000
0100
0000
0000
0000
0000
0000
0000
0000
0001
0000
0000
0010
0000
0000
0000
0000
0000
0000
0000
0100
0000
0000
0000
0000
0000
0000
0000
,
1000
0000
0000
0000
0000
0000
0000
0000
0000
0000
0000
0000
0000
0000
0000
0000
0001
0000
0000
0000
0100
0000
0000
0000
0010
0000
0000
0000
0000
1000
0000
0000
0000
0000
0000
0000
0000
0010
0000
0000
0000
0000
0000
0000
0000
1000
0000
0000
0000
0000
0000
0000
0000
0100
0000
0000
0000
0000
0000
0000
0000
0010
0000
0000
,
0000
0000
0011
0000
0110
0000
0000
0010
,
0100
1000
0000
0010
0000
0000
0000
0100
,
0001
0100
0000
0010
1000
0100
0000
0010
,
0001
0010
0011
0110
1100
1010
0110
0101
,
0101
2002
0000
0000
0000
0000
0000
3003
;

//---------------dance-single - ----------------
#NOTES:
     dance-single:
     :
     Medium:
     6:
     0.345,0.349,0.128,0.317,0.021:
0000
0000
0000
0000
,
0000
0000
0000
0000
1000
0100
0010
0001
,
0200
0000
0000
0310
0000
1000
0100
0020
,
0000
0130
1000
0010
0000
0100
0001
0100
,
0020
0000
0000
1030
0000
0000
0002
0000
,
0000
0000
0000
0000
1003
0000
0010
0000
0100
0000
0000
0001
0000
0000
0100
0000
,
0010
2000
0000
3010
0100
0002
0000
0103
,
0010
0200
0000
0302
0000
0000
0000
0103
,
0010
2000
0000
3010
1000
0010
0000
0100
,
0001
0000
0010
0000
0002
0000
0000
0020
0003
0000
0130
0000
0000
0000
0000
0000
,
0000
0000
0000
0000
1000
0000
0000
0010
0000
0000
0100
0000
0000
0000
0001
0000
,
0010
0100
0000
1000
0100
0010
0000
0001
,
1000
0100
0010
0010
0010
0010
0010
0000
,
0001
0000
0100
1000
0010
0001
0000
0100
,
0000
0010
0000
1000
0100
0010
0001
0000
,
0100
0000
0010
0000
1000
0020
0000
0230
,
0000
0302
0000
0203
0000
0302
0000
0003
,
0000
0000
0000
2000
0000
3200
0000
0320
,
0000
0032
0000
0000
0013
0200
0000
0310
,
0000
0220
0000
0000
0000
0000
0000
0330
,
0000
1000
0010
0001
0100
1000
0000
0010
,
0100
0000
0001
0100
0010
1000
0010
0100
,
0001
0100
0010
1000
0010
0100
0000
0001
,
0100
0000
1000
0010
0001
0100
0010
0100
,
0001
0000
0100
0010
1000
0001
0100
0010
,
1000
0100
2000
0000
0000
0000
3020
0000
,
0000
2030
0000
3002
,
0000
0203
0000
0302
,
0000
0000
0013
0000
0100
0100
0000
1000
,
0010
0000
0100
0010
0000
0001
0100
1000
,
0010
0001
0100
0000
1000
0010
0100
0000
,
0001
0100
0010
0000
1000
0100
0010
0001
,
0100
0000
0000
0000
0010
0000
0000
0000
1000
0000
0000
0000
0001
0000
0000
0011
,
0000
0011
0000
0100
1000
0100
0000
0010
,
0001
0000
0000
0000
0001
0000
0000
1000
0000
0000
0010
0000
0001
0000
0100
0000
,
1000
1000
0010
0100
,
0001
0000
1000
0010
1000
0110
0000
0000
,
0000
0011
0000
0110
0000
1100
0000
1010
,
1010
0101
0002
0000
0000
0000
0000
0000
,
0103
0010
1000
0200
0000
0000
0000
0000
,
0301
0010
0000
0011
0000
0110
0000
0110
,
0000
0110
0010
0000
0001
0000
0100
0000
,
1000
0020
0000
0000
,
0030
0001
0020
0000
0000
0000
0000
0000
,
0030
0100
2000
0000
0000
0000
3010
0100
,
0001
0002
0000
0000
,
0003
0000
1000
0000
0100
0000
0000
0010
,
0001
0100
0000
0001
0000
0000
0000
1000
,
0100
0010
0000
0000
0001
0010
0000
0100
,
1000
0001
0010
0010
0010
0010
0100
1000
,
0001
2002
0000
0000
0000
0000
0000
3003
;

//---------------dance-single - ----------------
#NOTES:
     dance-single:
     :
     Easy:
     4:
     0.241,0.283,0.094,0.086,0.013: // measure 1
0000
0000
0000
0000
,  // measure 2
0000
0000
0000
0000
,  // measure 3
0000
0001
0010
0100
,  // measure 4
1000
0010
0100
0001
,  // measure 5
0100
0010
1000
0002
,  // measure 6
0000
1003
0100
0010
,  // measure 7
0001
0100
1000
0010
,  // measure 8
0001
0100
1000
0010
,  // measure 9
0001
0100
0010
1000
,  // measure 10
0001
0000
0000
0000
0100
0000
0000
0100
0000
0000
0100
0000
0000
0000
0000
0000
,  // measure 11
0000
0000
0000
0000
0001
0000
0000
0001
0000
0000
0001
0000
0000
0000
0000
0000
,  // measure 12
0000
0100
0000
0000
0000
0010
0000
0000
,  // measure 13
1000
0010
0100
0001
,  // measure 14
0000
0001
0010
1000
,  // measure 15
0100
0001
0100
1000
,  // measure 16
0010
0001
0100
1000
,  // measure 17
0100
0001
0010
0100
,  // measure 18
1000
0100
0010
0001
,  // measure 19
0010
0100
1000
0010
,  // measure 20
0100
0001
0100
0010
,  // measure 21
1000
0100
0001
0010
,  // measure 22
1000
0010
1000
0010
,  // measure 23
0001
0100
1000
0010
,  // measure 24
0100
0001
0100
0001
,  // measure 25
1000
0010
2000
0000
,  // measure 26
0000
3020
0030
0200
,  // measure 27
0300
0002
0003
0200
,  // measure 28
0300
0020
0030
2000
,  // measure 29
3000
0000
0010
0000
0100
0100
0000
0001
,  // measure 30
0001
0000
0010
0010
0000
0000
0100
0000
,  // measure 31
1000
0100
0010
0001
,  // measure 32
0100
0001
0010
0100
,  // measure 33
1000
0000
0000
0000
0100
0000
0000
0000
0010
0000
0000
0000
0010
0000
0000
0011
,  // measure 34
0000
0011
0000
0100
1000
0100
0000
1000
,  // measure 35
0010
0100
0001
0100
,  // measure 36
1000
0010
0001
0100
,  // measure 37
0010
1000
0010
0000
,  // measure 38
0000
1010
0000
1010
0000
1010
0000
0000
,  // measure 39
0101
0001
0010
0100
,  // measure 40
1000
0010
0001
0100
,  // measure 41
1000
0000
0000
0011
0000
0011
0000
0011
,  // measure 42
0000
0011
0000
0000
0001
0000
0100
0000
,  // measure 43
1000
0010
0001
0100
,  // measure 44
0010
1000
0010
0100
,  // measure 45
0001
0010
0100
1000
,  // measure 46
0001
1000
0000
0000
,  // measure 47
0000
0010
0100
0001
,  // measure 48
0100
0001
0010
0100
,  // measure 49
1000
0100
0010
0001
,  // measure 50
0010
0100
1000
0001
,  // measure 51
0000
2002
0000
0000
0000
0000
0000
3003
;
