#TITLE:Lexus cyanixs;
#SUBTITLE:(Groundbreaking extended version);
#ARTIST:削除;
#TITLETRANSLIT:;
#SUBTITLETRANSLIT:;
#ARTISTTRANSLIT:SKz;
#GENRE:;
#CREDIT:Meseki;
#MENUCOLOR:;
#BANNER:Lexus cyanixs-bn.png;
#BACKGROUND:Lexus cyanixs-bg.png;
#LYRICSPATH:;
#CDTITLE:;
#MUSIC:Lexus cyanixs.mp3;
#OFFSET:-0.070;
#SAMPLESTART:102.070;
#SAMPLELENGTH:25.667;
#SELECTABLE:YES;
#LISTSORT:;
#DISPLAYBPM:180.000;
#BPMS:0.000=180.000,410.000=360.000,420.000=500.000,426.000=900.000,436.000=1600.000,444.000=10000.000,448.000=30000.000,459.995=180.000;
#STOPS:;
#TICKCOUNT:0.000=2;
#BGCHANGES:;
#KEYSOUNDS:;
#ATTACKS:;

//---------------dance-single - ----------------
#NOTES:
     dance-single:
     :
     Medium:
     7:
     0.447,0.538,0.189,0.447,0.098: // measure 1
0000
0000
0000
0000
,  // measure 2
0000
0000
0000
0000
,  // measure 3
0000
0000
0000
0000
,  // measure 4
0000
0000
0000
0000
,  // measure 5
1000
0000
0000
0010
0000
0000
0000
0000
,  // measure 6
0000
0000
1000
0100
0010
0000
0000
0001
,  // measure 7
0000
0010
0100
0010
0000
0000
0010
0100
,  // measure 8
1000
0000
0001
0000
1000
0002
0000
0000
,  // measure 9
1003
0002
0003
0020
,  // measure 10
0030
0200
0300
2000
,  // measure 11
3010
0000
0000
0010
0000
1000
0001
0010
,  // measure 12
0100
0000
0000
0100
1000
0010
1000
0010
,  // measure 13
1000
0000
0001
0000
0000
1000
0001
0000
,  // measure 14
1000
0000
0001
0000
0000
0200
0320
0230
,  // measure 15
0301
0000
1000
0000
0000
0001
1000
0000
,  // measure 16
0011
0000
0001
0010
0100
0000
0011
0000
,  // measure 17
1000
0000
0001
0000
0000
1000
0001
0000
,  // measure 18
1000
0000
0001
0000
0000
0200
0320
0230
,  // measure 19
0301
0000
1000
0000
0000
0001
1000
0000
,  // measure 20
0110
0000
0000
0110
0000
0000
0110
0000
0000
0000
0001
0000
1000
0000
0000
0000
,  // measure 21
0002
0000
0000
0003
0010
0000
0000
0100
,  // measure 22
0000
0000
0000
0120
0000
0030
0000
2100
,  // measure 23
0000
0010
0000
3002
0000
0000
0000
0013
,  // measure 24
0100
0000
1000
0000
0100
1000
0000
2001
,  // measure 25
0000
0000
3010
0000
0000
0000
0000
2100
,  // measure 26
0000
0001
0000
3100
0000
0010
0000
0000
,  // measure 27
0100
0000
1000
0000
0000
0100
1000
0200
,  // measure 28
0000
0300
1000
0001
,  // measure 29
1000
1000
0002
0000
,  // measure 30
0023
0000
0230
0000
,  // measure 31
2300
0000
0000
3002
0000
0000
2003
0000
,  // measure 32
3000
0000
0000
0000
1000
0001
0000
1001
,  // measure 33
0000
0000
0000
0000
1000
0010
0000
1010
,  // measure 34
0000
0000
0002
0013
0000
0010
0100
0010
,  // measure 35
0110
0000
1100
0000
,  // measure 36
0110
0000
0011
0000
,  // measure 37
2001
0000
0000
0000
0000
3100
0010
0001
,  // measure 38
0000
0000
0000
0001
0010
0100
0000
1000
,  // measure 39
0010
0000
0000
0100
0000
0001
0000
0010
,  // measure 40
0000
0100
0000
0000
1000
0000
0000
0010
,  // measure 41
0000
0000
0000
2000
3001
0000
0000
0010
,  // measure 42
0100
0000
0000
1000
0000
0000
0000
0000
0000
0000
0000
0000
1000
0000
0100
0000
,  // measure 43
0000
0000
1000
0010
0000
0000
1000
0001
,  // measure 44
0000
0000
0000
0000
0010
0000
0000
0000
1000
0000
0000
0010
0000
0000
0001
0000
,  // measure 45
0000
0000
0000
0000
0000
0000
0000
0000
0000
0000
0000
0000
1000
0100
0000
0000
0000
0000
0000
0000
0000
0000
0000
0000
0000
0000
0000
0000
0100
0010
0000
0000
,  // measure 46
0000
0000
0000
0000
0000
0000
0000
0000
0000
0000
0000
0000
0010
0001
0000
0000
0000
0000
0000
0000
2000
0000
0000
0000
0000
0000
0000
0000
0000
0000
0000
0000
,  // measure 47
3002
0000
0000
0023
0000
0000
0230
0000
,  // measure 48
0000
0300
0000
1000
0100
0010
0001
0010
,  // measure 49
0100
0000
0001
0100
0000
1000
0000
0010
,  // measure 50
0000
1000
0100
0010
0000
0100
1000
0010
,  // measure 51
0000
0000
0001
0010
0100
1000
0100
0010
,  // measure 52
0200
0000
1000
0000
0000
0001
0000
0000
,  // measure 53
0310
0000
0100
0010
0000
0100
0010
0001
,  // measure 54
0000
0001
0000
0000
0001
0000
0000
0001
0000
0000
0001
0000
0000
0000
2000
0000
,  // measure 55
3001
0000
0100
0001
0000
0000
0000
0000
,  // measure 56
0010
0000
0000
0000
0002
0003
0002
0003
,  // measure 57
1000
0000
0001
1000
0000
0000
0001
0100
,  // measure 58
0000
0010
0000
0000
0010
0000
2000
0000
0000
0000
0000
0000
0000
0000
3000
0000
,  // measure 59
0001
0000
0000
0001
0000
2000
3002
0003
,  // measure 60
0020
0000
0000
0000
0030
1000
0001
0000
,  // measure 61
1001
0000
1000
0010
0000
0000
0010
1000
,  // measure 62
0000
0000
0000
0000
0000
0200
0302
0203
,  // measure 63
1300
0000
0010
1000
0000
0010
1000
0000
,  // measure 64
1010
0000
0000
0000
0010
0000
0000
0010
0000
0000
0010
0000
0000
0000
0000
0000
,  // measure 65
1000
0000
0000
0000
0100
0000
1000
0000
0000
0000
0000
0000
1000
0000
0000
1000
,  // measure 66
0000
0000
0000
0000
0000
0200
0302
0203
,  // measure 67
1300
0000
0001
1000
0000
0001
1000
0000
,  // measure 68
0002
0000
0000
0000
,  // measure 69
0000
0000
0000
0000
0000
1003
0100
0010
,  // measure 70
0000
0000
0000
0000
0000
0001
0000
0100
,  // measure 71
0000
0000
0000
0000
0000
0001
0010
0100
,  // measure 72
0000
0000
1000
0000
0010
0000
0000
0100
,  // measure 73
0000
0000
0000
0000
0000
0100
0010
1000
,  // measure 74
0000
0010
0000
0000
1000
0000
0000
0001
,  // measure 75
0000
0000
0010
0000
0000
0001
0000
0000
,  // measure 76
0010
0000
0100
0000
1000
0000
1000
0010
,  // measure 77
1000
0000
0002
0000
,  // measure 78
0023
0000
0230
0000
,  // measure 79
2300
0000
0000
3020
0000
0000
2030
0000
,  // measure 80
0000
3000
0000
0000
1000
0001
0000
1001
,  // measure 81
0000
0000
0000
0000
1000
0010
0000
1010
,  // measure 82
0000
0000
0002
0013
0000
0010
1000
0010
,  // measure 83
1010
0000
1100
0000
,  // measure 84
0110
0000
0011
0000
,  // measure 85
0000
0000
0001
0000
0000
1000
0010
2000
,  // measure 86
0000
0000
0000
0000
0000
0000
0000
3001
,  // measure 87
0100
0010
0000
1000
0000
0000
0100
0000
,  // measure 88
0000
0010
0000
0000
0100
1000
0100
0010
,  // measure 89
0000
0000
0000
0000
0000
0000
0000
0001
0020
0000
0000
0000
0030
0000
0000
0000
0000
0000
0000
0000
0001
0000
0000
0000
0000
0000
0000
0000
0010
0000
0000
0000
,  // measure 90
0000
0000
0100
0000
0000
0000
0010
0000
0100
0000
0000
1000
0000
0000
0100
0000
,  // measure 91
1000
0000
0000
0010
0000
0000
0100
0000
0000
0000
0000
0000
1200
0000
0000
0000
,  // measure 92
0000
0000
0301
0000
0000
0010
0000
0000
0100
0000
0000
0010
0000
0000
0001
0000
,  // measure 93
1000
0000
0001
0000
0010
0000
0100
0000
0010
0000
0100
0000
,  // measure 94
1000
0000
0000
0000
0000
0000
0000
0000
0100
0000
0000
0000
0000
0000
0000
0000
0010
0000
0000
0000
0000
0100
0000
0000
0000
0000
0000
0010
0000
0000
0000
0000
0000
0100
0000
0000
0000
0000
0000
0000
0000
0000
0000
0000
0001
0000
0000
0000
,  // measure 95
0200
0000
0000
2300
0000
0000
3200
0000
,  // measure 96
0000
0300
0000
1000
0010
0000
0010
1000
,  // measure 97
0200
0000
1300
0001
0000
0000
0000
0010
,  // measure 98
0000
0100
0010
0001
0000
1000
0200
0320
,  // measure 99
0030
0000
0000
0000
0000
0000
0000
0000
1000
0001
0000
0000
0000
0000
0000
0000
0000
0000
0000
0000
1000
0001
0000
0000
0000
0000
0000
0000
0000
0000
0000
0000
,  // measure 100
0000
0011
0000
2002
,  // measure 101
0000
0000
0000
0000
,  // measure 102
0000
0000
0000
0000
,  // measure 103
0000
0000
0000
0000
,  // measure 104
0000
0000
0000
0000
,  // measure 105
0000
0000
0000
0000
,  // measure 106
0000
0000
0000
0000
,  // measure 107
0000
0000
0000
0000
,  // measure 108
0000
0000
0000
0000
,  // measure 109
0000
0000
0000
0000
,  // measure 110
0000
0000
0000
0000
,  // measure 111
3003
0000
0000
0000
;

//---------------dance-single - ----------------
#NOTES:
     dance-single:
     :
     Hard:
     9:
     0.565,0.769,0.217,0.468,0.199:
0000
0000
0000
0000
,
0000
0000
0000
0000
,
0000
0000
0000
0000
,
0000
0000
0000
0000
,
1000
0000
1000
0010
0100
0000
0000
0001
,
0100
0000
1000
0100
0010
0000
0000
1000
,
0000
0001
0100
0010
0000
0000
1000
0010
,
1000
0000
1000
0000
0001
0000
0001
0000
1000
0100
2000
0000
0000
0000
0000
0000
,
3100
0000
0002
0000
0003
0100
0020
0100
,
0030
0100
2000
0010
3001
0010
0200
1000
,
2300
0000
0000
3100
0000
1000
0001
0010
,
0200
0000
0000
1300
0010
1000
0001
0010
,
0001
0001
1000
0000
0000
0001
1000
0000
,
0001
0001
1000
0000
0000
0200
0320
0230
,
1300
1000
0001
0000
0000
1000
0001
0000
,
0101
0000
0000
0000
0010
0000
1000
0001
0100
0000
0010
0000
1001
0000
0000
0000
,
1000
1000
0001
0000
0000
1000
0001
0000
,
1000
1000
0001
0000
0000
0200
0320
0230
,
0301
0001
1000
0000
0000
0001
1000
0000
,
0010
1000
0000
1010
0000
0000
1010
0000
0000
0000
1000
0100
0010
0000
0000
0000
,
0002
0000
0000
0000
0023
0000
0000
2030
,
0000
0000
3000
0120
0000
0030
0000
0201
,
0000
0010
0000
2300
0000
0000
0000
3010
,
1000
0000
0000
0000
0001
0000
0010
0100
1000
0000
0010
0000
0000
0000
2100
0000
,
0000
0000
3001
0000
0000
1000
0001
2100
,
0000
0010
0000
0100
3000
0001
0000
0000
,
1000
1000
0001
0000
0000
1000
0001
0201
,
0000
0300
1100
0101
,
1000
0000
1000
0000
0002
0000
0000
0010
,
0023
0000
2030
0000
,
3200
0000
0000
0320
0000
0000
0230
0000
,
0300
0000
0001
0000
0100
0010
0100
1001
,
0000
0000
0000
0000
0000
0000
0000
0000
1000
0100
0010
0000
0000
0000
0011
0000
,
0000
0000
0000
0000
0001
0010
0100
0000
0000
0000
0001
0000
0100
0000
0010
0000
,
1001
0000
0000
0000
1100
0000
1000
0001
,
1000
0000
1000
0000
1000
0000
1000
0000
1000
0001
1000
0001
1000
0001
1000
0001
,
2000
0000
0000
0000
0000
3100
0010
0001
,
0000
0000
0000
0001
0010
1000
0000
0010
,
0001
0000
0000
1000
0000
0010
0000
0001
,
0000
0020
0000
0000
0230
0000
0000
0302
,
0000
0000
0000
0000
0003
0000
1000
0100
0010
0000
0000
0000
0000
0000
0001
0000
,
0010
0000
0000
1000
0000
0000
0000
0000
0000
0000
0000
0000
0010
0000
0001
0000
,
0000
1000
0100
0010
0000
1000
0010
0001
,
0000
0000
0000
0000
0010
0000
0000
0000
0100
0000
0000
1000
0000
0000
0010
0000
,
0000
0000
0000
0000
0000
0000
0000
0000
0000
0000
0000
0000
1000
0100
0000
0000
0000
0000
0000
0000
0000
0000
0000
0000
0000
0000
0000
0000
0100
0010
0000
0000
,
0000
0000
0000
0000
0000
0000
0000
0000
0000
0000
0000
0000
0010
0001
0000
0000
0000
0000
0000
0000
1000
0000
0100
0000
0010
0000
0001
0000
0100
0000
0010
0000
,
2000
0000
0000
3002
0000
0000
0203
0000
,
0000
0300
0000
1000
0100
0001
0010
1000
,
0200
0000
0301
0100
0000
0010
0000
0001
,
0000
1000
0100
0010
0000
1000
0010
0100
,
0000
0000
0010
0001
0010
0100
1000
0001
,
0200
0000
1000
0000
0000
0010
0000
0000
,
0301
0000
1000
0001
0000
1000
0001
0100
,
0000
0100
0000
0000
0100
0000
0001
0100
0001
0100
0001
0000
0000
0000
0020
0000
,
0031
0000
1000
0001
0010
0100
1000
0010
,
0100
0001
0100
0001
0020
0030
0020
0030
,
0001
0000
0000
0000
1000
0000
0001
0000
0000
0000
1000
0000
1000
0100
1000
0000
,
0000
0010
0000
0000
0010
0000
2000
0000
0000
0000
0000
0000
0100
0000
3000
0000
,
0001
0000
0000
0001
0000
2000
3020
0030
,
2200
0000
3000
0000
0310
0100
0110
0000
,
1100
0000
1000
0001
0000
0000
0001
1000
,
0000
0010
0010
0000
0000
0200
2300
3200
,
0301
0000
1000
0001
0000
1000
0001
0000
,
0101
0000
0000
0000
0100
0000
0000
0100
0000
0000
0001
0000
0100
0000
0010
0000
,
1000
0000
0000
0000
0001
0000
1000
0000
0000
0000
0000
0000
1000
0000
0000
1000
,
0000
0000
0000
0000
0000
0200
0302
0203
,
1300
0000
0001
1000
0000
0001
1000
0002
,
0000
0000
0000
0000
,
0000
0000
0000
0000
0000
1003
0100
0010
,
0000
0000
0000
0000
0000
0001
0000
0100
,
0000
0000
0000
0000
0000
0010
0100
0001
,
0000
0000
1000
0000
0010
0000
0000
0100
,
0000
0000
0000
0000
0000
1000
0100
0001
,
0000
0101
0000
0000
1001
0000
0000
0011
,
0000
0000
1000
0000
0000
0001
0000
0000
,
0010
0000
1000
0000
0100
0000
1000
0010
,
0001
0001
1000
0000
0002
0000
1000
0000
,
0023
0001
0001
0000
0230
0000
0001
0000
,
2300
0000
0100
3020
0000
0100
2030
0000
,
0000
3000
0001
0000
1000
0001
0010
1100
,
0000
0000
0000
0000
0000
0000
0000
0000
0001
0100
0010
0000
0000
0000
1010
0000
,
0000
0000
0000
0000
0001
1000
0100
0000
0000
0000
0001
0000
0010
0000
1000
0000
,
1010
0000
0000
0000
1001
0001
1000
0001
,
1000
0000
1000
0000
1000
0000
1000
0000
1000
0001
1000
0001
1000
0001
1000
0001
,
1000
0000
0001
0000
0000
1000
0010
2000
,
0000
0000
0000
0000
0000
0000
0000
3001
,
0100
0010
0000
0101
0000
0000
0110
0000
,
0000
1001
0000
0000
0100
0001
0100
0010
,
0000
0000
0000
0000
0000
0000
0000
1000
0020
0000
0000
0000
0030
0000
0000
0000
0000
0000
0000
0000
0001
0000
0000
0000
0000
0000
0000
0000
0010
0000
0000
0000
,
0000
0000
1000
0000
0000
0000
0100
0000
0001
0000
0000
0100
0000
0000
1000
0000
,
0100
0000
0000
0010
0000
0000
0100
0000
0000
0000
0000
0000
0201
0000
0000
0000
,
0000
0000
1300
0000
0000
0100
0000
0000
1000
0000
0000
0010
0000
0000
0001
0000
,
0010
0000
1000
0000
0100
0000
0010
0000
1000
0000
0100
0000
,
0001
0000
0000
0000
0000
0000
0000
0000
0100
0000
0000
0000
0000
0000
0000
0000
0010
0000
0000
0000
0000
0100
0000
0000
0000
0000
0000
0001
0000
0000
0000
0000
0000
1000
0000
0000
0000
0000
0000
0000
0100
0000
0000
0000
0001
0000
0000
0000
,
0200
0000
0000
2300
0000
0000
3200
0000
,
0000
0300
0000
0010
0100
0000
0001
0100
,
1000
0000
0010
0000
1000
0000
0010
0000
0000
0100
0000
0000
0000
0000
0000
1000
0000
0000
0000
0000
0000
0100
0000
0000
,
0000
0000
1000
0000
0010
0000
0001
0000
0000
0000
1000
0000
0100
0010
0002
0000
,
0003
0000
0000
0000
0000
0000
0000
0000
0001
0010
0000
0000
0100
0000
0000
0000
0100
0000
0000
0000
0001
0010
0000
0000
1000
0000
0000
0000
1000
0000
0000
0000
,
0001
1000
0001
1000
0010
0000
0000
0000
0000
0000
0000
0000
2002
0000
0000
0000
,
0000
0000
0000
0000
,
0000
0000
0000
0000
,
0000
0000
0000
0000
,
0000
0000
0000
0000
,
0000
0000
0000
0000
,
0000
0000
0000
0000
,
0000
0000
0000
0000
,
0000
0000
0000
0000
,
0000
0000
0000
0000
,
0000
0000
0000
0000
,
3003
0000
0000
0000
;

//---------------dance-single - ----------------
#NOTES:
     dance-single:
     :
     Easy:
     5:
     0.296,0.346,0.175,0.314,0.010: // measure 1
0000
0000
0000
0000
,  // measure 2
0000
0000
0000
0000
,  // measure 3
0000
0000
0000
0000
,  // measure 4
0000
0000
0000
0000
,  // measure 5
1000
0000
0000
0001
0000
0000
0000
0000
,  // measure 6
0000
0000
0100
0000
0001
0000
0000
0010
,  // measure 7
0000
0000
0000
0001
0000
0000
1000
0000
,  // measure 8
0000
0100
0010
0000
,  // measure 9
0100
0000
0000
0100
0000
0000
1000
0000
,  // measure 10
0000
0010
0010
1000
,  // measure 11
1000
0000
0000
1000
0000
0000
0000
0000
,  // measure 12
0001
0000
0100
0010
,  // measure 13
1000
0001
0000
0001
,  // measure 14
1000
0001
0000
1001
,  // measure 15
1000
0001
0000
0000
,  // measure 16
0010
0010
0000
0001
,  // measure 17
1000
0010
0000
0010
,  // measure 18
1000
0010
0000
1010
,  // measure 19
1000
0010
0000
0010
,  // measure 20
1010
0000
0000
1001
0000
0000
0010
0000
,  // measure 21
0002
0000
0003
0000
0010
0000
0000
0100
,  // measure 22
0000
0000
0000
0002
0000
0003
0000
0100
,  // measure 23
0000
1000
0000
0002
0000
0000
0003
0010
,  // measure 24
0000
0000
0000
0001
0000
0100
0000
0020
,  // measure 25
0000
0030
1000
0000
0000
0000
0000
1000
,  // measure 26
0000
0010
0000
1000
0000
0001
0000
0000
,  // measure 27
1000
0000
0001
0000
0000
0000
0000
0201
,  // measure 28
0000
0300
0010
0000
,  // measure 29
1000
0000
0000
0000
0002
0000
0000
0003
,  // measure 30
0020
0000
0000
0030
0200
0000
0000
0300
,  // measure 31
2000
0000
3000
0002
0000
0003
2000
0000
,  // measure 32
3000
0000
0000
0000
0010
0000
0000
1001
,  // measure 33
0000
0000
0000
0000
0100
0000
0000
1001
,  // measure 34
0000
0000
0002
0003
0000
0000
0001
0000
,  // measure 35
0011
0000
0101
0000
,  // measure 36
1010
0000
1001
0000
,  // measure 37
2000
0000
0000
0000
0000
3000
0000
0010
,  // measure 38
0000
0000
0000
0001
0000
0000
0000
0000
,  // measure 39
1000
0000
0000
0100
0000
0010
0000
0100
,  // measure 40
0000
1000
0000
0000
0001
0000
0000
0010
,  // measure 41
0000
0000
0000
0200
0300
0000
0000
0000
,  // measure 42
1000
0000
0000
1000
0000
0000
0000
0000
0000
0000
0000
0000
0000
0000
0001
0000
,  // measure 43
0000
0000
0000
0100
0000
0000
0000
0010
,  // measure 44
0000
0000
0001
0000
0010
0000
0000
1000
,  // measure 45
0000
0000
0000
0000
0000
0000
0000
0000
0000
0000
0000
0000
0200
0300
0000
0000
0000
0000
0000
0000
0000
0000
0000
0000
0000
0000
0000
0000
0020
0030
0000
0000
,  // measure 46
0000
0000
0000
0000
0000
0000
0000
0000
0000
0000
0000
0000
0002
0003
0000
0000
0000
0000
0000
0000
0200
0000
0000
0000
0000
0000
0000
0000
0300
0000
0000
0000
,  // measure 47
0020
0000
0030
2000
0000
3000
0200
0000
,  // measure 48
0000
0000
0000
0000
0000
0000
0000
0300
,  // measure 49
1000
0000
0000
0001
0000
0000
0000
0010
,  // measure 50
0000
0000
0000
0001
0000
0000
0100
0000
,  // measure 51
0000
0010
1000
0001
,  // measure 52
0000
0000
0100
0000
0000
0010
0000
0000
,  // measure 53
1010
0000
0000
1000
0000
0000
1000
0000
,  // measure 54
0000
0000
0001
0000
0000
0000
0000
0002
,  // measure 55
0003
0000
0000
1000
0000
0000
1000
0000
,  // measure 56
0100
0000
0000
0000
0002
0003
0002
0003
,  // measure 57
0100
0000
0000
1000
0000
0000
0010
0000
,  // measure 58
0000
0010
0000
0000
0000
0000
2000
0000
0000
0000
0000
0000
0000
0000
3000
0000
,  // measure 59
0100
0000
0000
0010
0000
0002
0000
0003
,  // measure 60
0020
0000
0030
0100
,  // measure 61
1100
0000
0000
0001
0000
0000
0001
0000
,  // measure 62
0000
0010
0000
0000
,  // measure 63
0001
0000
0000
0001
0000
0000
0001
0000
,  // measure 64
1000
0000
0010
0000
0000
0010
0000
0000
,  // measure 65
1000
0000
0000
0000
0000
0000
1000
0000
0000
0000
0000
0000
0010
0000
0000
0010
,  // measure 66
0000
1000
0000
0000
,  // measure 67
0001
0000
0000
0001
0000
0000
0000
2000
,  // measure 68
0000
0000
0000
0000
,  // measure 69
0000
0000
0000
0000
0000
3100
0000
0010
,  // measure 70
0000
0000
0000
0000
0000
0001
0000
0100
,  // measure 71
0000
0000
0000
0000
0000
0001
0000
0010
,  // measure 72
0000
0000
0100
0000
0001
0000
0000
0100
,  // measure 73
0000
0000
0000
0000
0000
1000
0000
0100
,  // measure 74
0000
0001
0000
0000
0010
0000
0000
1000
,  // measure 75
0000
0000
0100
0000
0000
0010
0000
0000
,  // measure 76
0001
0000
0100
0000
1000
0000
0000
0100
,  // measure 77
0000
0000
0000
0000
0002
0000
0000
0003
,  // measure 78
0020
0000
0000
0030
0200
0000
0000
0300
,  // measure 79
2000
0000
3000
0002
0000
0003
2000
0000
,  // measure 80
3000
0000
0000
0000
0100
0000
0000
1010
,  // measure 81
0000
0000
0000
0000
0010
0000
0000
1001
,  // measure 82
0000
0000
0020
0030
0000
0000
0001
0000
,  // measure 83
0101
0000
0110
0000
,  // measure 84
1010
0000
1001
0000
,  // measure 85
0000
0000
0000
0000
0000
0000
0000
0000
0002
0003
0000
0000
0000
0000
0000
0000
0000
0000
0000
0000
1000
0000
0000
0000
0000
0000
0000
0000
2000
0000
0000
0000
,  // measure 86
0000
0000
0000
0000
0000
0000
0000
3000
,  // measure 87
0010
0000
0000
0100
0000
0000
1000
0000
,  // measure 88
0000
0100
0000
0000
0001
0000
0000
1000
,  // measure 89
0000
0000
0200
0300
0000
0001
0000
0010
,  // measure 90
0000
0100
0000
0000
0001
0000
0000
0000
,  // measure 91
1000
0000
0000
0001
0000
0000
0200
0000
,  // measure 92
0000
0310
0000
0000
0000
0000
0000
0000
,  // measure 93
1010
0000
1010
0000
,  // measure 94
1100
0000
1100
0000
,  // measure 95
0020
0000
0030
2000
0000
3000
0020
0000
,  // measure 96
0030
0000
0100
0001
,  // measure 97
0100
0000
0000
0100
0000
0000
0000
0010
,  // measure 98
0000
0000
0000
1000
0000
0000
0020
0000
,  // measure 99
0030
0000
0001
0000
0000
0010
0000
0000
,  // measure 100
1000
1010
0000
2002
,  // measure 101
0000
0000
0000
0000
,  // measure 102
0000
0000
0000
0000
,  // measure 103
0000
0000
0000
0000
,  // measure 104
0000
0000
0000
0000
,  // measure 105
0000
0000
0000
0000
,  // measure 106
0000
0000
0000
0000
,  // measure 107
0000
0000
0000
0000
,  // measure 108
0000
0000
0000
0000
,  // measure 109
0000
0000
0000
0000
,  // measure 110
0000
0000
0000
0000
,  // measure 111
3003
0000
0000
0000
;

//---------------dance-single - ----------------
#NOTES:
     dance-single:
     :
     Beginner:
     2:
     0.153,0.192,0.049,0.077,0.000: // measure 1
0000
0000
0000
0000
,  // measure 2
0000
0000
0000
0000
,  // measure 3
0000
0000
0000
0000
,  // measure 4
0000
0000
0000
0000
,  // measure 5
1000
0000
0000
0000
,  // measure 6
0000
0000
0001
0000
,  // measure 7
0000
0000
0000
0010
0000
0000
0000
0000
,  // measure 8
0000
0100
0100
0000
,  // measure 9
1000
0001
0000
0001
,  // measure 10
0000
0001
0000
0001
,  // measure 11
0000
1000
0000
1000
,  // measure 12
0000
0100
0000
0100
,  // measure 13
0000
1000
0000
0000
,  // measure 14
0000
0001
0000
0000
,  // measure 15
0000
1000
0000
0000
,  // measure 16
0001
0001
0000
0000
,  // measure 17
0000
0100
0000
0000
,  // measure 18
0000
0001
0000
0000
,  // measure 19
0000
0100
0000
0001
,  // measure 20
0001
0000
0000
0000
,  // measure 21
0020
0000
0030
0000
0000
0000
0000
0100
,  // measure 22
0000
0000
0000
1000
0000
0000
0000
1000
,  // measure 23
0000
0000
0000
0001
0000
0000
0000
0010
,  // measure 24
0000
0000
0000
0001
0000
0000
0000
1000
,  // measure 25
0000
0000
0000
0000
0000
0000
0000
1000
,  // measure 26
0000
0000
0000
0001
0000
0000
0000
0000
,  // measure 27
0000
0000
0000
0000
0000
0000
0000
2000
,  // measure 28
0000
3000
0000
0000
0000
0000
0000
0000
,  // measure 29
0100
0000
0010
0000
,  // measure 30
0100
0000
1000
0000
,  // measure 31
0100
0000
0000
0100
,  // measure 32
0000
0000
0000
0000
0000
0000
0000
1100
,  // measure 33
0000
0000
0000
0000
0000
0000
0000
0011
,  // measure 34
0000
0000
0000
0000
,  // measure 35
0001
0000
0010
0000
,  // measure 36
0100
0000
0010
0000
,  // measure 37
0000
0000
0000
0000
0000
0001
0000
0001
,  // measure 38
0000
0000
0000
0000
,  // measure 39
1000
0000
0000
0100
0000
0000
0000
0010
,  // measure 40
0000
0000
0000
0000
0100
0000
0000
0010
,  // measure 41
0000
0000
0001
0000
,  // measure 42
0001
0000
0000
0000
0000
0000
0000
0100
,  // measure 43
0000
0000
0000
0010
0000
0000
0000
1000
,  // measure 44
0000
0000
0000
0000
0010
0000
0000
1000
,  // measure 45
0000
0000
0000
0100
0000
0000
0000
0010
,  // measure 46
0000
0000
0000
0001
0000
0000
0000
0000
,  // measure 47
2000
0000
0000
3000
0000
0000
0002
0000
,  // measure 48
0000
0000
0003
0000
,  // measure 49
1000
0000
0000
0000
0000
0000
0000
0001
,  // measure 50
0000
0000
0000
0001
0000
0000
0010
0000
,  // measure 51
0000
0001
0000
0000
,  // measure 52
0000
1000
0000
0000
,  // measure 53
1001
0000
0000
0000
,  // measure 54
0000
0000
0000
0000
,  // measure 55
1000
0000
0000
0000
,  // measure 56
0100
0000
0000
0000
,  // measure 57
0010
0000
0000
0000
,  // measure 58
0000
0000
0000
0000
,  // measure 59
0001
0000
0000
0000
,  // measure 60
0100
0000
0010
0000
,  // measure 61
1000
0000
0000
0000
,  // measure 62
0000
0000
0000
0000
0000
0100
0000
0000
,  // measure 63
1000
0000
0000
0000
,  // measure 64
0110
0000
0000
0000
,  // measure 65
0001
0000
0000
0000
,  // measure 66
0000
0000
0000
0000
,  // measure 67
1000
0000
0000
0000
,  // measure 68
0100
0000
0010
0010
,  // measure 69
0010
0000
0000
0000
0000
0000
0000
0001
,  // measure 70
0000
0000
0000
0000
0000
0000
0000
1000
,  // measure 71
0000
0000
0000
0000
0000
0000
0000
0100
,  // measure 72
0000
0000
0000
0000
0000
0000
0000
0010
,  // measure 73
0000
0000
0000
0000
0000
0000
0000
0001
,  // measure 74
0000
0001
0000
0000
0000
0000
0000
1000
,  // measure 75
0000
1000
0000
0000
,  // measure 76
0001
0000
1000
0000
,  // measure 77
0000
0000
0001
0000
,  // measure 78
0010
0000
0100
0000
,  // measure 79
1000
0000
0000
1000
,  // measure 80
0000
0000
0000
0000
0000
0000
0000
0101
,  // measure 81
0000
0000
0000
0000
0000
0000
0000
1010
,  // measure 82
0000
0000
0000
0000
,  // measure 83
0001
0000
0010
0000
,  // measure 84
1000
0000
0010
0000
,  // measure 85
0000
0000
0001
0000
0000
0000
0000
2000
,  // measure 86
0000
0000
0000
0000
0000
3000
0000
0000
,  // measure 87
0100
0000
0000
0010
,  // measure 88
0000
0000
0000
0000
0001
0000
0000
0001
,  // measure 89
0000
0000
0100
0000
0000
0000
0000
0010
,  // measure 90
0000
0000
1000
0000
,  // measure 91
1000
0000
0000
0002
,  // measure 92
0003
0000
0000
0000
,  // measure 93
0001
0000
0001
0000
,  // measure 94
0100
0000
0100
0000
,  // measure 95
0020
0030
0000
2000
,  // measure 96
3000
0000
0000
0000
,  // measure 97
0100
0000
0000
0000
0000
0000
0000
0010
,  // measure 98
0000
0000
0000
0001
0000
0000
0200
0000
,  // measure 99
0300
0000
0001
0000
0000
0001
0000
0000
,  // measure 100
0000
1000
0000
2002
,  // measure 101
0000
0000
0000
0000
,  // measure 102
0000
0000
0000
0000
,  // measure 103
0000
0000
0000
0000
,  // measure 104
0000
0000
0000
0000
,  // measure 105
0000
0000
0000
0000
,  // measure 106
0000
0000
0000
0000
,  // measure 107
0000
0000
0000
0000
,  // measure 108
0000
0000
0000
0000
,  // measure 109
0000
0000
0000
0000
,  // measure 110
0000
0000
0000
0000
,  // measure 111
3003
0000
0000
0000
;
