#TITLE:Konata Zone;
#SUBTITLE:;
#ARTIST:Tatsh & Naoki vs Konata Izumi ft. Tsukasa Hiiragi;
#TITLETRANSLIT:;
#SUBTITLETRANSLIT:;
#ARTISTTRANSLIT:;
#GENRE:;
#CREDIT:;
#BANNER:;
#BACKGROUND:;
#LYRICSPATH:;
#CDTITLE:;
#MUSIC:Konata Zone.mp3;
#OFFSET:-0.100;
#SAMPLESTART:24.800;
#SAMPLELENGTH:14.460;
#SELECTABLE:YES;
#BPMS:0.000=165.000,242.000=660.000,246.000=330.000;
#STOPS:240.000=0.091
,240.250=0.091
,240.500=0.045
,240.625=0.045
,240.750=0.045
,240.875=0.045
,241.000=0.137
,241.375=0.137
,241.750=0.091
,242.000=1.091
;
#BGCHANGES:0.000=Konata Zone.avi=1.000=0=0=0=StretchNoLoop====,
99999=-nosongbg-=1.000=0=0=0 // don't automatically add -songbackground-
;
#KEYSOUNDS:;

//---------------dance-single - Blank----------------
#NOTES:
     dance-single:
     Blank:
     Challenge:
     13:
     1.000,1.000,0.304,0.055,1.000,767.000,33.000,6.000,0.000,0.000,0.000,1.000,1.000,0.304,0.055,1.000,767.000,33.000,6.000,0.000,0.000,0.000: // measure 1
0000
0000
0000
0000
,  // measure 2
0000
0000
0000
0000
,  // measure 3
0000
0000
0000
0000
,  // measure 4
0000
0000
0000
0000
,  // measure 5
0001
0010
0100
1000
0001
0000
1000
0100
0000
0010
0001
0000
1000
0001
0100
0000
,  // measure 6
0001
0010
0001
1000
0010
1000
0001
0100
0001
1000
0100
1000
0001
0010
0100
0000
,  // measure 7
0010
0001
0100
0001
0010
0100
1000
0001
0100
0010
0100
0010
1000
0001
1000
0000
,  // measure 8
0001
0100
0001
0010
0100
0010
0001
0100
0001
1000
0010
1000
0001
0010
0100
0000
,  // measure 9
1000
0001
0100
0010
1000
0010
0100
0000
0101
0000
0100
0010
0100
0010
1000
0000
,  // measure 10
0001
1000
0100
1000
0001
0010
0001
1000
0100
1000
0001
0010
0001
1000
0010
0000
,  // measure 11
1000
0100
1000
0001
0010
0100
0001
1000
0010
0001
0100
0010
1000
0001
0100
0001
,  // measure 12
0010
0100
1000
0001
0010
0100
0010
0001
1000
0100
0010
0001
0100
0010
0100
0000
,  // measure 13
0000
0001
0000
0000
0001
0000
0000
0001
1000
1000
0010
0100
0010
0100
0001
0010
,  // measure 14
0100
0000
1000
0001
0100
0000
0010
0000
0101
0000
1000
0000
0001
0100
0000
0100
,  // measure 15
0010
0000
1000
0001
0010
0000
0100
0000
0011
0001
0000
0100
0010
1000
0001
0000
,  // measure 16
0010
0000
0100
1000
0100
0000
1000
0000
0010
0000
0100
0001
0100
0000
0001
0000
,  // measure 17
0010
0000
0100
1000
0100
0000
1000
0000
0010
0100
0001
1000
0100
0010
0001
0000
,  // measure 18
0100
0000
0100
0001
0100
0000
0010
0000
1010
0000
1000
0000
0001
0010
0100
0000
,  // measure 19
1000
0010
1000
0010
0100
0001
0100
0001
0010
0100
1000
0100
0010
0000
1100
0000
,  // measure 20
2002
0000
0000
0000
0000
0000
0000
0000
0000
0000
3003
0000
0000
0000
0001
0010
,  // measure 21
0001
0000
0000
0100
0000
0000
0001
0000
0000
0100
0000
0000
0001
0000
0000
1000
0000
0000
0010
0100
0010
0100
0010
0100
,  // measure 22
0001
0010
0001
0010
0001
0010
0001
0010
0100
1000
0100
1000
0100
1000
0100
1000
,  // measure 23
0010
0100
0010
0100
0010
0100
0010
0100
0001
0010
0001
0010
0001
1000
0001
1000
,  // measure 24
0010
0100
0010
0100
0010
0100
0010
0100
0001
0010
0001
0010
0001
0010
0001
0010
,  // measure 25
0100
1000
0100
1000
0100
1000
0100
1000
0010
0100
0010
0100
0010
0100
0010
0100
,  // measure 26
0001
0010
0001
0010
0001
0010
0001
0010
0100
1000
0100
1000
0100
1000
0100
1000
,  // measure 27
0001
0100
0001
0100
0001
0100
0001
0100
0010
1000
0010
1000
0010
0100
0010
0100
,  // measure 28
0001
0010
0001
0010
0001
0010
0001
0010
0100
1000
0100
1000
0100
1000
0100
1000
,  // measure 29
0001
0100
0001
0100
0001
0100
0001
0100
0010
1000
0010
1000
0010
1000
0010
1000
,  // measure 30
0001
0100
0001
0100
0001
0000
1100
0000
0001
0000
1100
0000
0010
0000
0100
0000
,  // measure 31
0001
0000
1000
0000
0001
0100
0000
0001
1000
0000
0010
0000
0100
0000
0000
0000
,  // measure 32
0001
1000
0001
1000
0001
0000
0010
0000
0100
1000
0100
1000
0010
0000
0000
0000
,  // measure 33
0100
0001
0010
0100
1000
0010
0100
0001
0010
0100
1000
0010
1000
0001
0000
0000
,  // measure 34
1000
0010
1000
0010
1000
0010
0000
0010
1000
0010
0000
0010
0100
0000
0001
0000
,  // measure 35
0100
1000
0100
0001
0000
0100
0010
0000
0100
1000
0000
0100
0001
0000
0010
0000
,  // measure 36
0100
0000
1000
0000
0000
0001
0000
0000
0100
0000
0000
0100
0000
0000
0100
0000
,  // measure 37
0000
0000
0010
0000
0000
1000
0000
0000
0001
0000
0010
0000
1001
0000
0000
0000
,  // measure 38
0110
0000
0000
0000
0000
0000
0100
0001
0100
0000
0010
0000
0000
0000
0000
0000
,  // measure 39
1100
0000
1100
0000
0000
0000
0001
0010
0000
0000
0100
1000
0100
0000
0010
0000
,  // measure 40
1001
0000
0000
0000
0000
0000
0000
0100
0000
0000
0100
0000
0000
0000
0000
0000
,  // measure 41
0101
0000
0101
0000
0000
0000
0000
0010
1000
0000
1010
0000
0101
0000
0000
0000
,  // measure 42
1001
0100
1010
0100
,  // measure 43
0011
1000
0110
0001
,  // measure 44
1100
0001
0110
0001
,  // measure 45
0100
0010
0100
0010
1000
0001
0010
0100
,  // measure 46
1000
0000
0100
0000
1000
0000
0001
0010
0000
0010
0001
0000
0100
0000
0010
0000
,  // measure 47
1000
0010
0000
0010
1000
0000
0100
0000
1000
0010
0100
0001
1000
0000
0000
0000
,  // measure 48
0001
0000
0100
0000
0001
0000
1000
0010
0000
0010
1000
0000
0001
0000
0100
0000
,  // measure 49
0001
0010
0100
1000
0010
0100
0010
0000
0010
0001
0010
0000
0010
0001
0010
0000
,  // measure 50
1000
0000
0100
0000
0010
0000
0001
0100
0000
0100
0001
0000
0010
0000
0100
0000
,  // measure 51
1000
0010
1000
0010
0100
0000
0001
0000
0010
0100
0010
0100
1000
0001
1000
0001
,  // measure 52
0010
0000
0100
0000
0010
0000
0001
1000
0000
1000
0001
0000
0100
0000
0010
0000
,  // measure 53
1000
0010
1000
0010
0100
0001
0100
0001
1000
0100
1000
0000
0010
0000
0000
0000
,  // measure 54
0100
0010
0100
0010
0100
0000
0001
0000
1000
0000
0010
0000
1000
0100
1000
0000
,  // measure 55
0001
0010
0010
0001
0010
0010
0001
0010
0000
0001
0010
0000
0100
1000
0100
0000
,  // measure 56
0010
0001
0010
0001
0010
0000
0100
1000
0000
1000
0100
0000
0100
0000
0010
0000
,  // measure 57
0100
1000
0100
0010
0001
0100
0001
0010
0001
1000
0010
0100
1001
0000
0000
0000
,  // measure 58
0010
0000
0000
0000
0100
0001
0100
0001
1000
0100
1000
0001
0010
0000
0000
0000
,  // measure 59
0001
0010
0100
0001
0000
0100
1000
0000
0100
0010
0000
0001
0100
0000
0002
2000
,  // measure 60
0000
0000
0000
0000
,  // measure 61
3003
0000
0010
0000
0010
0100
0010
0100
1001
0000
0000
0011
0000
0000
1100
0000
2002
0000
0000
0000
0000
0000
0000
0000
0000
0000
0000
0000
0000
0000
0000
0000
,  // measure 62
0000
0000
3003
0000
0001
0100
0001
1000
,  // measure 63
0010
0100
0010
1000
0001
0100
0001
1000
,  // measure 64
0100
0010
0001
0100
0001
1000
0100
1000
,  // measure 65
0100
0010
0001
0100
0001
1000
0100
0010
,  // measure 66
0001
0010
0000
0100
0010
1000
0010
1000
,  // measure 67
0010
1000
0010
1000
0010
0001
0010
0001
,  // measure 68
0010
0001
0010
0001
0100
1000
0100
1000
,  // measure 69
0100
1000
0100
1000
0100
0001
0100
0001
,  // measure 70
0100
0010
0000
1000
0001
0010
0100
1000
,  // measure 71
0001
0010
0100
0010
0001
0100
0010
1000
,  // measure 72
0001
0100
0010
0100
0001
0010
1000
0010
,  // measure 73
0001
0010
1000
0010
0001
0100
1000
0100
,  // measure 74
0001
0010
0100
1000
0001
0100
1000
0100
,  // measure 75
0001
0010
0100
0010
0001
0100
1000
0100
,  // measure 76
0001
0010
1000
0010
0001
1000
0010
0100
,  // measure 77
0001
1000
0010
0100
0001
0010
0100
1000
,  // measure 78
0001
0100
0010
1000
1100
0000
0001
0010
,  // measure 79
0000
1000
0100
0000
0001
0010
0000
1000
,  // measure 80
0100
0000
0011
0000
0101
0000
1000
0010
,  // measure 81
0000
0001
0100
0000
1000
0010
0000
0001
,  // measure 82
0100
1010
1001
0000
;

//---------------dance-single - Blank----------------
#NOTES:
     dance-single:
     Blank:
     Hard:
     10:
     0.759,0.825,0.175,0.083,0.433,549.000,19.000,9.000,0.000,0.000,0.000,0.759,0.825,0.175,0.083,0.433,549.000,19.000,9.000,0.000,0.000,0.000: // measure 1
0000
0000
0000
0000
,  // measure 2
0000
0000
0000
0000
,  // measure 3
0000
0000
0000
0000
,  // measure 4
0000
0000
0000
0000
,  // measure 5
0000
0000
0000
0000
,  // measure 6
0001
0100
1000
0100
0001
0010
0100
0000
,  // measure 7
0010
0001
1000
0001
0100
0010
0100
0100
,  // measure 8
0001
1000
0100
1000
0010
0100
0001
0000
,  // measure 9
1000
0000
0100
0000
1000
0000
0010
0000
0100
0000
0100
0001
0100
0001
0010
0000
,  // measure 10
0100
1000
0001
1000
0010
0100
0001
0000
,  // measure 11
0010
0001
1000
0001
1000
0100
1000
0010
,  // measure 12
0100
0001
0100
0010
1000
0001
1000
0100
,  // measure 13
0000
0010
0000
0000
0010
0000
0000
0010
0001
0000
0100
0000
0010
1000
0010
0000
,  // measure 14
0100
0000
0001
0000
0100
0000
0001
0000
1000
0000
0100
0000
1000
0100
0000
0100
,  // measure 15
1000
0000
0010
0000
1000
0000
0010
0000
0100
0001
0000
0001
0100
0001
0010
0000
,  // measure 16
0100
0000
1000
0100
1000
0000
0010
0000
0100
0000
0001
0100
0001
0000
1000
0000
,  // measure 17
0010
0000
0100
0001
0100
0000
0010
0000
1000
0010
0100
0001
1000
0001
1000
0000
,  // measure 18
0100
0000
0010
0001
0010
0000
0001
0000
1000
0000
0010
0000
0100
0001
1000
0000
,  // measure 19
0001
1000
0001
1000
0100
1000
0100
1000
0001
0100
0001
0100
0010
0000
1000
0000
,  // measure 20
0002
0000
0000
0003
,  // measure 21
0100
0000
0000
0000
0100
0000
0100
0010
0000
0010
0100
0000
0001
0000
1000
0000
,  // measure 22
0001
0000
0010
0000
0001
0000
0010
0000
0001
1000
0000
1000
0000
0010
0100
0000
,  // measure 23
0001
0000
1000
0000
0001
0000
1000
0000
1000
0100
0000
0010
0000
0100
1000
0000
,  // measure 24
0010
0000
1000
0000
0010
0000
0100
0000
0001
0010
0000
0010
0000
0100
1000
0000
,  // measure 25
0001
0000
1000
0000
0010
0000
0100
0000
0001
0100
0002
0000
0010
0000
0000
0000
,  // measure 26
1003
0000
0100
0000
1000
0000
0100
0000
0010
0001
0000
0001
0000
0010
0100
0000
,  // measure 27
0010
0000
0001
0000
0010
0000
0001
0000
0100
0010
0000
1000
0000
0100
0010
0000
,  // measure 28
0001
0000
0100
0000
0001
0000
0100
0000
0010
1000
0000
1000
0000
0001
0010
0000
,  // measure 29
0100
0000
1000
0000
0001
0000
0100
0000
0010
1000
0020
0000
0001
0000
0000
0000
,  // measure 30
0130
0100
0010
1000
0010
1000
0001
0010
,  // measure 31
0100
0000
0010
0000
0001
0100
0000
0001
1000
0000
0010
0000
0100
0000
0000
0000
,  // measure 32
0001
0010
0001
1000
0010
0100
0010
0000
,  // measure 33
1000
0010
0000
0001
0010
0000
1000
0100
0000
0001
0010
0000
0100
1000
0000
0000
,  // measure 34
0001
0000
0100
0000
0010
0100
0000
0000
0010
0100
0000
0000
0010
0000
1000
0000
,  // measure 35
0001
0010
0001
1000
0000
0100
1000
0000
0001
1000
0000
1000
0010
0000
0000
0000
,  // measure 36
1001
0010
0100
0000
0001
0000
0001
1000
,  // measure 37
0100
1000
0001
0000
1010
0000
0101
0000
,  // measure 38
1001
0100
0100
0100
,  // measure 39
0100
1000
0010
0100
0001
0010
0100
1000
,  // measure 40
1010
0100
0100
0100
,  // measure 41
0100
0001
1000
0010
1000
0100
0010
0000
,  // measure 42
0011
0100
0100
0100
,  // measure 43
0100
0001
1000
0100
0010
0100
1000
0001
,  // measure 44
0101
0010
1100
0010
,  // measure 45
0001
1000
0001
1000
0001
1000
0001
1000
,  // measure 46
0010
0000
0100
0000
0001
0000
1000
0100
0000
0100
1000
0000
0010
0000
0100
0000
,  // measure 47
0001
0000
0000
0000
1000
0000
0010
0000
0100
0001
0100
0001
0100
0000
0000
0000
,  // measure 48
0001
0000
0010
0000
0100
0000
1000
0010
0000
0010
1000
0000
0001
0000
0010
0000
,  // measure 49
0100
0000
1000
0000
0001
0100
0001
0000
0001
0010
0001
0000
0001
0010
0001
0000
,  // measure 50
0100
0000
0010
0000
1000
0000
0001
0010
0000
0010
0001
0000
1000
0000
0010
0000
,  // measure 51
0100
0001
0001
0100
0010
1000
0010
1000
,  // measure 52
0001
0000
0100
0000
0010
0000
1000
0001
0000
0001
1000
0000
0100
0000
0010
0000
,  // measure 53
0001
0100
0001
1000
0100
0010
0100
0000
,  // measure 54
1000
0001
0010
0001
1000
1000
0100
0100
,  // measure 55
1000
0010
0000
1000
0010
0000
1000
0010
0000
1000
0010
0000
0100
0000
0001
0000
,  // measure 56
0010
0010
0010
0100
0010
0001
0001
1000
,  // measure 57
0010
0100
0010
0100
0001
1000
0001
1000
0100
0010
0100
0020
0200
0000
0000
0030
,  // measure 58
1300
0000
0001
0100
1000
0100
0001
0000
,  // measure 59
0001
1000
0001
1000
0000
1000
0010
0000
0010
0100
0000
0000
0002
0000
0000
2000
,  // measure 60
0000
0000
0003
0000
,  // measure 61
3000
0000
0010
0000
1000
0010
1000
0010
0100
0000
0000
0001
0000
0000
0200
0000
0020
0000
0000
0000
0000
0000
0000
0000
0000
0000
0000
0000
0000
0000
0000
0000
,  // measure 62
0330
0000
1000
0001
,  // measure 63
0100
0001
0010
0001
,  // measure 64
1000
0010
1000
0010
0100
0000
0001
0000
,  // measure 65
0010
0100
1000
0001
,  // measure 66
0100
0010
0000
0010
1000
0010
0100
0000
,  // measure 67
0001
0000
1000
0000
0010
0100
0010
0000
,  // measure 68
1000
0000
0100
0000
0010
0001
0010
0000
,  // measure 69
0001
0000
0100
0000
0010
1000
0010
0000
,  // measure 70
0100
0001
0000
0010
0100
1000
0100
0000
,  // measure 71
1000
0000
0010
0000
0100
0001
0100
0000
,  // measure 72
0010
0000
1000
0000
0001
0010
0001
0000
,  // measure 73
0100
0000
0010
0000
0100
0001
0100
0001
,  // measure 74
1000
0010
1000
0001
0100
0000
1000
0000
,  // measure 75
0100
0001
0010
1000
,  // measure 76
0010
0000
0100
0000
1000
0010
1000
0000
,  // measure 77
0001
0100
0001
0000
1000
0010
0100
0001
,  // measure 78
0100
0010
1000
0000
0101
0000
0000
1010
,  // measure 79
0000
0000
0101
0000
0000
1000
0010
0000
,  // measure 80
0101
0000
0011
0000
1100
0000
0000
0011
,  // measure 81
0000
0000
1100
0000
0000
0001
0010
0000
,  // measure 82
1100
0101
1001
0000
;

//---------------dance-single - Blank----------------
#NOTES:
     dance-single:
     Blank:
     Medium:
     8:
     0.509,0.675,0.055,0.212,0.152,358.000,6.000,23.000,0.000,0.000,0.000,0.509,0.675,0.055,0.212,0.152,358.000,6.000,23.000,0.000,0.000,0.000: // measure 1
0000
0000
0000
0000
,  // measure 2
0000
0000
0000
0000
,  // measure 3
0000
0000
0000
0000
,  // measure 4
0000
0000
0000
0000
,  // measure 5
0000
0000
0000
0000
,  // measure 6
0001
0000
0000
0100
0000
0000
0010
0000
0000
1000
0000
0000
0100
0000
0000
0000
,  // measure 7
1000
0000
0000
0001
0000
0000
0100
0000
0010
0000
1000
0000
0001
0000
1000
0000
,  // measure 8
0010
0000
0000
0100
0000
0000
0010
0000
0000
1000
0000
0000
0100
0000
0000
0000
,  // measure 9
0010
0000
0000
0001
0000
0000
1000
0000
0010
0000
0100
0000
0100
0000
0001
0000
,  // measure 10
1000
0000
0000
0100
0000
0000
1000
0000
0000
0010
0000
0000
0100
0000
0000
0000
,  // measure 11
0001
1000
0100
1000
0010
0100
0001
0010
,  // measure 12
0100
0000
0000
1000
0000
0000
0001
0000
0000
0100
0000
0000
0010
0000
0000
0000
,  // measure 13
0000
1000
0000
0000
1000
0000
0000
1000
0001
0000
0100
0000
0010
0000
1000
0000
,  // measure 14
0001
0100
0001
0000
1000
0100
1000
0000
,  // measure 15
0010
0100
0010
0000
1000
0010
0100
0000
,  // measure 16
0001
1000
0001
0000
0010
0100
0010
0000
,  // measure 17
0001
1000
0001
0000
0100
1000
0100
0010
,  // measure 18
1000
0000
0010
1000
0010
0000
0100
0000
0001
0000
1000
0000
0100
0000
0010
0000
,  // measure 19
0001
0001
1000
1000
0010
0010
0100
0010
,  // measure 20
2000
0100
0100
3100
,  // measure 21
0010
0000
0000
0000
0010
0000
0010
0001
0000
0000
1000
0000
0001
0000
1000
0000
,  // measure 22
0020
0000
0000
0000
0200
0000
0000
0030
,  // measure 23
0002
0000
0000
0300
0020
0003
0002
0030
,  // measure 24
2000
0000
0000
0003
0200
0000
0000
3000
,  // measure 25
2000
0000
0000
0300
0020
0000
0000
3000
,  // measure 26
0200
0000
0000
0030
0002
0000
0000
0300
,  // measure 27
2000
0000
0000
0003
0020
3000
2000
0030
,  // measure 28
0002
0000
0000
3000
0020
0000
0000
0003
,  // measure 29
0200
0000
0000
0030
0020
0000
0000
0300
,  // measure 30
0031
0010
0100
0010
0100
0010
0100
0010
,  // measure 31
0001
0000
0100
0000
0000
0010
0000
0000
1000
0000
0010
0000
0100
0000
0000
0000
,  // measure 32
0001
0001
0001
0000
1000
0010
0100
0000
,  // measure 33
0001
0000
0000
0010
0000
0000
0001
0000
0000
0100
0000
0000
0010
1000
0000
0000
,  // measure 34
0100
1000
0001
0000
0001
0000
0010
0100
,  // measure 35
1000
0000
0000
0100
0000
0000
1000
0000
0000
0001
0000
0000
0010
0000
0000
0200
,  // measure 36
0000
0000
1000
0000
,  // measure 37
0001
0000
1300
0010
,  // measure 38
0100
0000
0100
0000
0001
0000
0000
0010
,  // measure 39
0000
0100
1000
0010
,  // measure 40
0100
0000
0100
0000
0001
0000
0000
1000
,  // measure 41
0000
0000
0100
0000
1000
0100
0000
0000
,  // measure 42
1000
0000
1000
0000
0010
0000
0000
0100
,  // measure 43
0000
0001
1000
0001
,  // measure 44
0100
0000
0100
0000
0001
0000
0000
0010
,  // measure 45
0000
0000
0100
0000
1000
0001
1000
0000
,  // measure 46
0010
0100
0001
0000
1000
0100
1000
0100
,  // measure 47
0010
0000
0001
0100
0010
1000
0010
0000
,  // measure 48
0100
0001
0100
0000
0010
1000
0010
1000
,  // measure 49
0100
0000
0010
0000
0100
1000
0100
0000
1000
0100
1000
0000
0100
1000
0100
0000
,  // measure 50
0010
0001
0100
0000
0010
1000
0010
1000
,  // measure 51
0001
0000
0100
0000
0010
0000
1000
0001
,  // measure 52
1000
0100
1000
0000
0001
0010
0001
0010
,  // measure 53
0100
0010
0001
1000
,  // measure 54
0010
0010
0010
0000
0100
0001
0100
0000
,  // measure 55
0010
0000
0000
1000
0000
0000
0010
0000
0000
0100
0000
0000
0001
0000
0010
0000
,  // measure 56
0001
0000
0001
0000
0001
0000
0000
0100
0000
0000
0010
0000
0010
0000
1000
0000
,  // measure 57
0001
0010
0100
1000
0010
0100
1001
0000
,  // measure 58
0010
0000
0100
1000
0010
0100
0001
0000
,  // measure 59
1000
0000
0000
0001
0000
0000
0100
0000
0000
0010
0000
0000
2000
0000
0000
0002
,  // measure 60
0000
0000
0000
0000
0000
0000
0000
3003
,  // measure 61
0000
0000
0001
0000
0020
0000
0000
0000
0100
0000
0000
0100
0000
0000
0100
0000
0000
0000
0030
0000
0000
0000
0000
0000
0000
0000
0000
0000
0000
0000
0000
0000
,  // measure 62
0000
0000
0001
0010
,  // measure 63
0100
0000
1000
0001
,  // measure 64
0100
0000
0001
0010
,  // measure 65
0100
0000
1000
0010
,  // measure 66
1000
0010
0100
0001
,  // measure 67
0100
0000
0001
0010
,  // measure 68
0100
0000
0010
0001
,  // measure 69
1000
0000
0010
0100
,  // measure 70
0001
1000
0100
1000
,  // measure 71
0100
1000
0001
0100
,  // measure 72
0001
0100
0010
0100
,  // measure 73
0010
0100
0010
0000
,  // measure 74
1000
0001
0010
0100
,  // measure 75
0010
0100
1000
0010
,  // measure 76
1000
0010
0100
0001
,  // measure 77
0100
0001
1000
0100
,  // measure 78
1000
0000
0100
0000
0010
0000
0000
0011
,  // measure 79
0000
0000
0100
0000
0000
1100
0000
0000
,  // measure 80
0010
0000
0100
0000
0010
0000
0000
1010
,  // measure 81
0000
0000
0100
0000
0000
0011
0000
0000
,  // measure 82
0100
0010
1001
0000
;

//---------------dance-single - Blank----------------
#NOTES:
     dance-single:
     Blank:
     Easy:
     6:
     0.391,0.450,0.120,0.239,0.000,258.000,13.000,26.000,0.000,0.000,0.000,0.391,0.450,0.120,0.239,0.000,258.000,13.000,26.000,0.000,0.000,0.000: // measure 1
0000
0000
0000
0000
,  // measure 2
0000
0000
0000
0000
,  // measure 3
0000
0000
0000
0000
,  // measure 4
0000
0000
0000
0000
,  // measure 5
0000
0000
0000
0000
,  // measure 6
0001
0000
0001
0000
1000
0010
0100
0000
,  // measure 7
0001
0001
1000
0000
,  // measure 8
0100
0000
0100
0000
0010
0001
1000
0000
,  // measure 9
0010
0010
0000
0000
,  // measure 10
0100
0000
0100
0000
0001
1000
0100
0000
,  // measure 11
0010
0001
1000
0010
,  // measure 12
0100
0000
0100
0000
0001
1000
0010
0000
,  // measure 13
0100
0000
0010
1000
,  // measure 14
0001
0001
1000
1000
,  // measure 15
0100
0100
1000
1000
,  // measure 16
0010
0000
0100
0001
0100
0000
0010
1000
,  // measure 17
0010
0000
0100
0001
0100
0000
0010
1000
,  // measure 18
0100
0100
1000
1000
,  // measure 19
0001
0100
0001
0100
0001
0100
0020
0000
,  // measure 20
0200
0000
0330
1001
,  // measure 21
0010
0010
0020
0000
,  // measure 22
0032
0000
2003
0000
,  // measure 23
3020
0000
2030
3200
,  // measure 24
0320
0000
0230
0000
,  // measure 25
2300
0000
3002
0000
,  // measure 26
0203
0000
0320
0000
,  // measure 27
0230
0000
0302
2003
,  // measure 28
3200
0000
0320
0000
,  // measure 29
0230
0000
2300
0000
,  // measure 30
3001
0001
0001
0100
,  // measure 31
0010
0000
1000
0000
0100
0100
0000
0000
,  // measure 32
0010
0010
0100
0100
,  // measure 33
1000
0000
0001
0000
1000
0001
1000
0000
,  // measure 34
0010
0010
0100
0100
,  // measure 35
0001
0000
0100
0000
0001
0000
1000
0100
,  // measure 36
0020
0000
0000
0030
,  // measure 37
0020
0000
1000
0031
,  // measure 38
0100
0100
0010
0000
,  // measure 39
1000
0001
0010
0001
,  // measure 40
0100
0100
0010
0000
,  // measure 41
1000
0100
1000
0000
,  // measure 42
0001
0001
0010
0000
,  // measure 43
0001
0100
0001
1000
,  // measure 44
1100
0000
0011
0000
,  // measure 45
1001
0000
0100
0010
,  // measure 46
1000
0000
0100
0000
0010
0001
0010
0000
,  // measure 47
0100
0000
0010
0000
0001
1000
0001
0000
,  // measure 48
0100
0000
0010
0000
1000
0010
1000
0000
,  // measure 49
0001
0000
0100
0001
0100
0001
0100
0010
,  // measure 50
0100
0000
0001
0000
1000
0100
1000
0000
,  // measure 51
0001
0000
0010
0000
0100
0000
1000
0010
,  // measure 52
0100
0000
0001
0000
1000
0100
1000
0000
,  // measure 53
0010
0100
0001
1000
,  // measure 54
0100
0000
0100
0000
1000
0000
0010
0100
,  // measure 55
0001
0000
0001
0000
0001
0000
0001
1000
,  // measure 56
0001
0100
0010
1000
,  // measure 57
0001
0000
1000
0000
0100
0010
1001
0000
,  // measure 58
0100
0010
1000
0001
,  // measure 59
0010
0010
0001
1000
,  // measure 60
2002
0000
0000
0000
0000
0000
0000
3003
,  // measure 61
0020
0000
0030
0000
,  // measure 62
0000
0000
0001
0000
,  // measure 63
1000
0000
0010
0000
,  // measure 64
0100
0000
0001
0000
,  // measure 65
1000
0000
0100
0000
,  // measure 66
0010
0100
0010
0000
,  // measure 67
0001
0000
1000
0000
,  // measure 68
0001
0000
0100
0000
,  // measure 69
0010
0000
1000
0000
,  // measure 70
0010
1000
0010
0000
,  // measure 71
0010
0100
0010
0000
,  // measure 72
0010
1000
0010
0000
,  // measure 73
0100
0000
0001
0000
,  // measure 74
1000
0100
1000
0000
,  // measure 75
1000
0010
1000
0000
,  // measure 76
1000
0001
1000
0000
,  // measure 77
0001
0000
0010
0100
,  // measure 78
1000
0000
0101
0000
,  // measure 79
0000
1100
0000
0000
,  // measure 80
0101
0000
1010
0000
,  // measure 81
0000
0011
0000
0000
,  // measure 82
1001
0000
0110
0000
;
