#TITLE:Intense Color;
#SUBTITLE:;
#ARTIST:sephfire feat. SGX;
#TITLETRANSLIT:;
#SUBTITLETRANSLIT:;
#ARTISTTRANSLIT:;
#CREDIT:;
#BANNER:bn.png;
#BACKGROUND:bg2.png;
#LYRICSPATH:;
#CDTITLE:Dance Mania Speed 6.png;
#MUSIC:Mario Paint - Intense Color.mp3;
#OFFSET:-0.067;
#SAMPLESTART:23.080;
#SAMPLELENGTH:12.000;
#SELECTABLE:YES;
#BPMS:0.000=157.240,32.000=133.000,32.250=66.500,32.500=33.260,32.750=15.000,32.875=5.000,33.000=66.500,41.000=133.000,121.000=66.500,129.000=133.000,237.000=66.500,239.000=133.000,269.750=33.260;
#STOPS:32.938=0.840
,269.000=0.226
,269.250=0.226
,269.500=0.113
;
#BGCHANGES:;

//---------------dance-single - Pandemonium X----------------
#NOTES:
     dance-single:
     Pandemonium X:
     Medium:
     6:
     0.359,0.390,0.310,0.101,0.058: // measure 1
0000
0000
0000
0000
,  // measure 2
0000
0000
0000
0000
,  // measure 3
0000
0000
0000
0000
,  // measure 4
0000
0000
0000
0000
,  // measure 5
1000
0001
0100
0010
,  // measure 6
0010
1000
0010
1000
0000
0000
0000
0000
,  // measure 7
0001
0100
0001
0100
0000
0000
0000
0000
,  // measure 8
0001
0010
0001
0010
0000
0000
0000
0000
,  // measure 9
0000
0000
0001
1000
0100
0010
0001
2000
,  // measure 10
3100
0000
0100
0010
0001
1000
0001
2000
,  // measure 11
3010
0000
0000
0010
1001
0000
0000
0000
1100
0000
0000
0000
1000
0000
0000
0000
,  // measure 12
1000
0100
0000
1000
0000
0010
0100
0000
,  // measure 13
0000
0010
1000
0100
,  // measure 14
1000
1100
0000
0010
0000
0010
0001
0000
,  // measure 15
1001
0000
0101
0000
1001
0000
1000
0001
,  // measure 16
1000
0000
1100
0000
0000
1000
0100
1000
,  // measure 17
0100
0000
1000
0000
0011
0000
0010
0001
,  // measure 18
0100
0000
0101
0000
0000
1010
0000
0010
,  // measure 19
1000
1001
1001
0000
1001
0000
0001
1000
,  // measure 20
0100
0000
1100
0000
0000
1000
0000
1000
,  // measure 21
0100
0000
0010
0000
0101
0000
0100
0001
,  // measure 22
0100
0000
0010
0000
0000
0100
0000
0100
,  // measure 23
0010
0000
0110
0000
1010
0000
0010
1000
,  // measure 24
0010
0100
0000
0001
0000
0001
0010
0000
,  // measure 25
0000
0011
1100
1010
,  // measure 26
0010
1000
0000
0001
0000
0001
0100
0000
,  // measure 27
0000
0000
0001
0100
0010
0000
0010
0000
,  // measure 28
0010
1000
0000
0100
0000
0010
0001
0000
,  // measure 29
0000
0000
0001
1000
0100
0000
0100
0000
,  // measure 30
0100
0000
0010
0000
0000
0000
0001
0000
0000
0000
1000
0000
0100
0000
0000
0100
,  // measure 31
0000
0000
0100
0000
1000
0000
0000
0100
0000
1000
0000
0010
0000
0100
0100
0000
,  // measure 32
0000
0000
0000
0000
0001
0000
1000
0001
0000
0000
1000
0000
1000
0000
1000
0200
,  // measure 33
0000
0000
0300
0000
1000
0000
0000
0100
0000
0000
0010
0000
0001
0000
0000
0000
,  // measure 34
0000
0000
0001
0000
1000
0000
0000
0001
0000
0000
0100
0000
0000
0000
0100
0000
,  // measure 35
0001
0100
0010
0000
0000
0000
0100
0000
,  // measure 36
0000
2020
0000
0000
,  // measure 37
0000
3030
0000
0000
2020
0000
0000
0000
0000
0000
0000
0000
0000
0000
0000
0000
,  // measure 38
0000
0000
0000
0000
0000
3030
0000
0000
,  // measure 39
0010
2000
0200
0000
0000
0000
0000
0000
,  // measure 40
0000
0000
0000
0000
0000
3300
0000
0000
,  // measure 41
1000
0001
0200
0000
0001
0000
0001
0000
,  // measure 42
0001
0300
0000
0000
0101
0000
0000
0000
0000
0000
0001
0000
0000
0000
0100
0000
,  // measure 43
0001
0100
0010
0000
1000
0000
0010
1000
,  // measure 44
0000
0100
0000
0000
2000
0000
0000
0000
0000
0000
0000
0000
3100
0000
1000
0000
,  // measure 45
0100
0010
0002
0000
0013
0000
0002
0000
,  // measure 46
0103
0000
0001
0100
0010
1000
0100
1000
,  // measure 47
0010
1000
0010
0000
1010
0000
0010
0000
,  // measure 48
0110
0000
0010
0100
0001
1000
0010
1000
,  // measure 49
0100
1000
0010
0000
1010
0000
0010
0000
,  // measure 50
0110
0000
0100
0000
0101
0000
0001
0100
,  // measure 51
0010
0100
0001
0000
0010
0000
0001
0000
,  // measure 52
1000
1001
0101
1010
,  // measure 53
1100
0000
1000
0001
0100
0001
0010
0001
,  // measure 54
0100
0001
0000
0100
0000
0100
0001
0000
,  // measure 55
0000
0100
0010
1000
,  // measure 56
0001
0000
0000
0000
1000
0000
0000
0001
0000
0000
0001
0000
0100
0000
0101
0000
,  // measure 57
0101
0000
0001
0100
0010
1000
0100
1000
,  // measure 58
0100
1000
0000
0100
0000
0100
1000
0000
,  // measure 59
0000
1000
0100
0010
,  // measure 60
0001
0000
1000
0000
0001
0000
0100
0001
,  // measure 61
0000
0000
0100
0100
0100
0000
0101
0000
,  // measure 62
0000
1010
0000
0010
1000
0100
1000
0000
,  // measure 63
0000
0000
0000
0000
0000
0000
1000
0000
0000
0100
0000
0000
1000
0000
0000
0000
,  // measure 64
0000
0000
0000
0000
0000
0000
1100
0000
0000
0011
0000
0000
1001
0000
0000
0000
,  // measure 65
1001
0000
0001
1000
0100
0000
1100
0000
,  // measure 66
0000
0011
0000
0001
0001
0000
1000
0001
,  // measure 67
0100
0000
0100
0001
0100
0000
0110
0000
,  // measure 68
0000
0000
0010
0000
1000
0001
0010
0200
0000
0000
0000
0000
0300
0000
0000
0000
;

//---------------dance-single - Pandemonium X----------------
#NOTES:
     dance-single:
     Pandemonium X:
     Easy:
     3:
     0.218,0.267,0.079,0.137,0.000: // measure 1
0000
0000
0000
0000
,  // measure 2
0000
0000
0000
0000
,  // measure 3
0000
0000
0000
0000
,  // measure 4
0000
0000
0000
0000
,  // measure 5
1000
0001
1000
0001
,  // measure 6
1000
1000
0000
0000
,  // measure 7
0001
0001
0000
0000
,  // measure 8
0100
0100
0000
0000
,  // measure 9
0000
0100
0000
0000
,  // measure 10
0000
0010
0000
0000
,  // measure 11
0000
1010
0010
1000
,  // measure 12
0100
1000
0010
1000
,  // measure 13
0000
1000
0001
0100
,  // measure 14
0001
0010
0001
0100
,  // measure 15
0101
0001
0100
0020
,  // measure 16
0030
0110
0000
0010
,  // measure 17
0000
0110
0000
0010
,  // measure 18
1000
0100
0000
1000
,  // measure 19
0000
0001
1000
0000
0001
0000
0100
0000
,  // measure 20
0001
0010
0000
0002
,  // measure 21
0000
0013
0000
0001
,  // measure 22
0000
0000
1000
0000
0000
0001
0000
0000
,  // measure 23
0000
0100
0001
0100
,  // measure 24
0010
1000
0100
1000
,  // measure 25
0000
1000
0100
0010
,  // measure 26
0001
0100
0010
1000
,  // measure 27
0000
1000
0010
0100
,  // measure 28
0001
0010
0100
1000
,  // measure 29
0000
1000
0001
0100
,  // measure 30
0010
1000
0100
1100
,  // measure 31
0000
0100
0000
0000
,  // measure 32
0000
0010
0000
0001
,  // measure 33
0000
1000
0001
0100
,  // measure 34
0010
0000
0100
0000
0000
0010
0000
0000
,  // measure 35
1000
0010
0000
0000
,  // measure 36
2000
0200
0000
0000
,  // measure 37
3300
2200
0000
0000
,  // measure 38
0000
3300
0000
0000
,  // measure 39
0100
0200
0000
0000
,  // measure 40
0000
0000
0000
0300
,  // measure 41
0100
0020
0000
0002
,  // measure 42
0033
0002
0000
0020
,  // measure 43
0033
0002
0000
2003
,  // measure 44
0000
0200
0000
0000
,  // measure 45
3300
1000
0100
0010
,  // measure 46
0001
0100
0010
1000
,  // measure 47
1001
1000
0001
0100
,  // measure 48
0001
0010
0001
0100
,  // measure 49
1010
1000
0010
1000
,  // measure 50
0001
0010
0001
1000
,  // measure 51
0010
1000
0100
0010
,  // measure 52
0001
0010
0100
1000
,  // measure 53
0010
0200
0010
0310
,  // measure 54
0010
1000
0001
0100
,  // measure 55
0000
0001
0000
1000
,  // measure 56
0000
0000
1000
0000
0001
0000
0100
0010
,  // measure 57
0100
0010
0010
1000
,  // measure 58
0001
0100
0010
1000
,  // measure 59
0000
0100
0000
1000
,  // measure 60
0000
0010
0100
0001
,  // measure 61
0000
0000
1000
0001
1000
0000
0001
0000
,  // measure 62
0000
0001
0000
0000
1000
0000
2200
0000
,  // measure 63
0000
3300
0000
0000
,  // measure 64
0000
0000
0000
0001
,  // measure 65
0000
0000
0010
0001
0010
0000
0001
0000
,  // measure 66
0000
1000
0000
0001
0100
0000
0100
0010
,  // measure 67
0100
0000
1000
0010
1000
0000
1010
0000
,  // measure 68
0000
0000
1000
0000
2002
0000
0000
3003
0000
0000
0000
0000
0000
0000
0000
0000
;

//---------------dance-single - Pandemonium X----------------
#NOTES:
     dance-single:
     Pandemonium X:
     Hard:
     8:
     0.471,0.561,0.281,0.216,0.194: // measure 1
0000
0000
0000
0000
,  // measure 2
0000
0000
0000
0000
,  // measure 3
0000
0000
0000
0000
,  // measure 4
0000
0000
0000
0000
,  // measure 5
1000
0001
0100
0001
0010
0001
0100
0010
,  // measure 6
1000
0100
0010
0001
0000
0000
0000
0000
,  // measure 7
0010
0100
1000
0100
0000
0000
0000
0000
,  // measure 8
0001
0100
0010
1000
0000
0000
0000
0000
,  // measure 9
0000
0000
0000
0000
1000
0001
0010
0010
0001
0010
0001
2000
0000
3100
0000
0001
,  // measure 10
0001
0000
0000
0000
0001
0100
0001
0010
0001
1000
0010
0010
0000
0100
0000
0001
,  // measure 11
1000
0000
0000
1000
0101
0000
0100
0000
0010
0000
1000
0000
0001
0000
0010
0000
,  // measure 12
0001
0020
0000
0032
0000
0023
0002
0000
,  // measure 13
0033
0000
1000
0100
0010
0100
1000
0001
,  // measure 14
0100
0001
0000
0010
0000
0100
0010
0000
,  // measure 15
1001
0000
0000
0000
1000
0000
0000
0001
0000
0000
0010
0000
0000
0000
0010
0000
,  // measure 16
1001
0000
0000
0000
0101
0000
0000
0000
0000
0000
0001
0100
0000
0000
1000
0001
,  // measure 17
0100
0010
1000
0001
0010
0000
0001
1000
,  // measure 18
0100
0000
1100
0000
0000
1000
0000
0010
,  // measure 19
0100
0020
0230
0010
0310
0000
0010
1000
,  // measure 20
0100
0000
0000
0000
1100
0000
0000
0000
0000
0000
0110
0000
0000
0000
0010
0001
,  // measure 21
1000
0010
0001
0010
1000
0000
0010
1000
,  // measure 22
0100
0000
1100
0000
0000
0101
0000
0010
,  // measure 23
2001
0100
3100
1000
0001
0010
0001
0100
,  // measure 24
0010
2000
0000
0100
0000
0010
3010
0000
,  // measure 25
0000
0000
0001
0010
0001
0100
0001
0010
,  // measure 26
0001
0200
0000
0320
0000
0230
0310
0000
,  // measure 27
0000
0000
1000
0001
0100
0001
1000
0100
,  // measure 28
1000
0002
0000
0010
0000
1000
1003
0000
,  // measure 29
0000
0000
1000
0010
0100
0010
1000
0001
,  // measure 30
0010
0000
0200
0000
0000
0000
1000
0000
0000
0000
1000
0000
1300
0000
0000
1100
,  // measure 31
0000
0000
0011
0000
1000
0000
1000
0001
0000
0100
0000
0020
0030
0010
0010
0000
,  // measure 32
0000
0000
0000
0000
0100
0000
0010
1000
0000
0000
0001
0000
1000
0000
1000
0010
,  // measure 33
0100
0000
0000
0000
0000
0000
0010
0000
0000
0000
0000
0000
0100
0000
0000
0000
0000
0000
0020
0000
0000
0000
0000
0000
0000
0000
0000
0000
0000
0000
0030
0000
0000
0000
0000
0000
0000
0000
0000
0000
0000
0000
0000
0000
0000
0000
0000
0000
1010
0000
0000
0000
0000
0000
0000
0000
0000
0000
0000
0000
0000
0000
0000
0000
0000
0000
0000
0000
0000
0000
0000
0000
0000
0000
0000
0000
0000
0000
0000
0000
0000
0000
0000
0000
0110
0000
0000
0000
0000
0000
0000
0000
0000
0000
0000
0000
0000
0000
0000
0000
0000
0000
0000
0000
0000
0000
0000
0000
0000
0000
0000
0000
0000
0000
0000
0000
0000
0000
0000
0000
0101
0000
0000
0000
0000
0000
0000
0000
0000
0000
0000
0000
0000
0000
0000
0000
0000
0000
0000
0000
0000
0000
0000
0000
0001
0000
0000
0000
0000
0000
0000
0000
0000
0000
0000
0000
0000
0000
0000
0000
0000
0000
0000
0000
0000
0000
0000
0000
0020
0000
0000
0000
0000
0000
0000
0000
0000
0000
0000
0000
0000
0000
0000
0000
0030
0000
0000
0000
0000
0000
0000
0000
,  // measure 34
0000
0000
0001
0000
0010
0000
0000
0010
0000
0010
0001
0000
0000
0000
0001
0000
,  // measure 35
0100
0010
1010
0000
0010
0000
0110
0000
,  // measure 36
0001
0000
0000
0000
0000
0000
2002
0000
0000
0000
0000
0000
0000
0000
0000
0000
0000
0000
3003
0000
0000
0001
1000
0001
,  // measure 37
1000
0001
2000
0000
0000
0000
0000
0010
,  // measure 38
0000
0100
0000
0000
0020
0000
0000
0000
0000
0000
0000
0000
3030
0000
0000
0000
,  // measure 39
0010
1000
0002
0000
0000
0000
0000
0010
,  // measure 40
0000
0100
0000
0000
0010
0000
0000
0000
0000
0000
0000
0000
0000
0000
0000
0000
,  // measure 41
0103
0000
0001
0000
0100
0000
0000
0010
0000
0000
1000
0000
0000
0000
0100
0000
,  // measure 42
0011
0000
0000
0000
0011
0000
0000
0000
0000
0000
0001
1000
0000
0000
0010
1000
,  // measure 43
0100
1000
0010
1000
0010
0000
0100
0001
,  // measure 44
0000
0010
0000
0000
2002
0000
0000
0000
0000
0000
3003
0000
0001
0100
0001
0100
,  // measure 45
0001
0100
0001
0000
0001
0000
1000
0000
0001
0000
0010
0000
0001
0000
0100
0000
,  // measure 46
0010
1000
0100
1000
0010
0100
0001
1000
,  // measure 47
0001
0001
1000
0001
0100
0010
1000
0100
,  // measure 48
1000
0010
0100
0001
0010
0001
0100
0001
,  // measure 49
0010
0010
0001
0100
0010
1000
0100
1000
,  // measure 50
0010
1000
0100
1000
0010
0100
0001
0010
,  // measure 51
0001
0001
0010
0001
0100
0010
1000
0100
,  // measure 52
1000
0010
0100
0001
0100
0001
0010
0001
,  // measure 53
1000
1000
0001
1000
0001
0100
0001
0010
,  // measure 54
0001
0200
0000
0001
0000
0010
0020
0000
,  // measure 55
0330
0010
1000
0100
,  // measure 56
1000
0000
0000
0000
0001
0000
0000
0100
0000
0000
0001
0000
1000
0000
1001
0000
,  // measure 57
1001
0000
0001
0100
1000
0100
0001
0010
,  // measure 58
0001
0100
0000
0001
0000
0100
0100
0000
,  // measure 59
0000
0100
0010
1000
,  // measure 60
0001
0000
0000
0000
0000
0000
0000
0000
1000
0000
0000
0001
0000
0000
0100
0000
0100
0000
0000
0000
0000
0000
0000
0000
1001
0000
0000
0000
1100
0000
0000
0000
,  // measure 61
0000
0000
0000
0000
1000
0100
1000
0000
0001
0100
0001
0000
0011
0000
0000
0000
,  // measure 62
0000
0011
0000
0001
1000
0100
2020
0000
,  // measure 63
3030
0000
0000
0000
1000
0000
0001
0000
0000
0011
0000
0000
1001
0000
0000
0000
,  // measure 64
0000
0000
0000
0000
0000
0000
1001
0000
0000
0101
0000
0000
1000
0000
0100
0000
,  // measure 65
0000
0000
0000
0000
0001
1000
0001
0000
0100
0001
0100
0000
0110
0000
0000
0000
,  // measure 66
0010
0000
0110
0000
0000
0000
0100
0000
0010
0000
1000
0000
0001
1000
0001
0000
,  // measure 67
1000
0000
0000
0000
1000
0001
1000
0000
0001
0000
0000
0000
1100
0000
0000
0000
,  // measure 68
0000
0000
0001
0000
0011
1001
0101
2200
0000
0000
0000
0000
3300
0000
0000
0000
;

//---------------dance-double - Pandemonium X----------------
#NOTES:
     dance-double:
     Pandemonium X:
     Challenge:
     8:
     0.466,0.587,0.382,0.194,0.169:
00000000
00000000
00000000
00000000
,
00000000
00000000
00000000
00000000
,
00000000
00000000
00000000
00000000
,
00000000
00000000
00000000
00000000
,
10000000
00010000
00100000
00001000
00010000
00000100
00001000
00000100
,
00010000
00001000
00010000
00000100
00000000
00000000
00001000
00000100
,
00000010
00000001
00000100
00000010
00000000
00000000
00000100
00000010
,
00010000
00001000
01000000
00100000
00000000
00000000
00000000
00000000
,
00000000
00000000
00000000
00000000
00010000
01000000
00010000
01000000
00010000
00100000
00010000
02000000
00000000
03100000
00000000
10000000
,
01000000
00000000
00000000
00000000
00001000
00000100
00000001
00000010
00000001
00000100
00000010
00000200
00000000
00000310
00000000
00000010
,
00001000
00000000
00000000
00000100
00011000
00000000
00001000
00000000
00100000
00000000
00010000
00000000
01000000
00000000
00010000
00000000
,
01000000
00200000
00000000
01300000
00000000
01000000
00100000
00000000
,
00000000
00000000
10000000
00010000
01000000
00010000
00100000
00001000
,
00010000
00001000
00000000
00001100
00000000
00000100
00020000
00000000
,
00031000
00000000
00000000
00000000
00002000
00000000
00000000
00010000
00000000
00000000
00103000
00000000
00000000
00000000
00001000
00000000
,
00101000
00000000
00000000
00000000
10010000
00000000
00000000
00000000
00000000
00000000
10000000
01000000
00000000
00000000
00010000
00100000
,
01000000
00100000
00010000
01000000
01010000
00000000
10000000
00010000
,
00110000
00000000
00011000
00000000
00000000
00001100
00000000
00000001
,
00000010
00000000
00000011
00000000
00000201
00000000
00000000
00000001
00000000
00000000
00000010
00000000
00000000
00000000
00000310
00000000
,
00000110
00000000
00000000
00000000
00000101
00000000
00000000
00000000
00000000
00000000
00000010
00000001
00000000
00000000
00000010
00001000
,
00000010
00001000
00000100
00010000
00001000
00000000
00001000
01000000
,
00100000
00000000
10010000
00000000
00000000
00210000
00000000
00001000
,
00301000
00000000
00010000
01000000
00010000
00100000
01000000
00100000
,
00010000
00100000
00000000
00210000
00000000
00001000
00301000
00000000
,
00000000
00000000
00000100
00001000
00000001
00000010
00000001
00000100
,
00000010
00000200
00000000
00000010
00000000
00000001
00000301
00000000
,
00000000
00000000
00000010
00001000
00000100
00001000
00000100
00010000
,
00010000
00002000
00000000
00100000
00000000
00010000
00013000
00000000
,
00000000
00000000
00000100
00010000
00001000
00100000
00001000
00010000
,
00000100
00000000
00010000
00000000
00001000
00000000
01000000
00000000
00100000
00000000
10000000
00000000
11000000
00000000
00000000
01100000
,
00000000
00000000
00110000
00000000
00100000
00000000
00001000
00001000
00000000
00001000
00000000
00010000
00000000
00010000
00000100
00000000
,
00000000
00000000
00000000
00000000
00001000
00000000
00000100
00000100
00000000
00000000
00010010
00000000
00001100
00000000
00000010
00001000
,
00000200
00000000
00000000
00000300
00011000
00000000
00000000
00110000
00000000
00000000
10010000
00000000
11000000
00000000
00000000
00000000
,
00000000
00000000
10000000
00000000
10010000
00000000
00000000
00110000
00000000
00001000
00010000
00000000
00000000
00000000
00010000
00000000
,
00000010
00001000
00000200
00000000
00010000
00000000
00020300
00000000
,
00032000
02000000
00000000
03003000
,
00000000
00000000
02001000
00000000
00000000
00000000
00000000
00100000
,
00000000
00010000
00000000
00000000
00100000
00000000
00000000
00000000
00000000
00000000
00000000
00000000
03000000
00000000
00000000
00000000
,
10000000
00010000
02000000
00000000
00000000
00000000
00000000
00010000
,
00000000
00001000
00000000
00000000
00010000
00000000
00000000
00000000
00000000
00000000
00000000
00000000
03000000
00000000
00000000
00000000
,
00100000
00000000
10000000
00000000
00010000
00000000
00000000
00100000
00000000
00000000
00001000
00000000
00000000
00000000
00010000
00000000
,
00010100
00000000
00000000
00000000
00011000
00000000
00000000
00000000
00000000
00000000
00001000
00000100
00000000
00000000
00000100
00001000
,
00000001
00000100
00000010
00000100
00000001
00000000
00000001
00000010
,
00001000
00000200
00020000
00000000
00000000
00000000
00000000
00030300
,
00000000
00000000
00010000
00001000
00100000
00001000
00010000
00000100
,
00010000
00001000
00100000
00001000
00010000
00001000
00100000
00010000
,
01000000
01000000
00100000
10000000
00010000
00100000
00010000
01000000
,
00100000
10000000
01000000
00010000
00100000
01000000
00100000
00010000
,
02000000
00000000
03001000
00010000
00000100
00001000
00000001
00001000
,
00000100
00000010
00000100
00001000
00000100
00000001
00000010
00000100
,
00000010
00000000
00000100
00010000
00001000
01000000
00100000
00010000
,
01000000
00001000
00100000
00001000
00010000
00001000
00100000
00010000
,
10010000
00000000
10000000
01000000
00100000
00010000
00100000
00001000
,
00010000
00020000
00000000
00001000
00000000
00000100
00030100
00000000
,
00000000
00011000
00001100
00000110
,
00000101
00000000
00000000
00000000
00000001
00000000
00000000
00000100
00000000
00000000
00000010
00000000
00001000
00000000
00001100
00000000
,
00101000
00000000
00010000
10000000
00010000
00100000
00010000
01000000
,
00100000
20000000
00000000
01000000
00000000
00010000
30010000
00000000
,
00000000
10000000
00010000
00100000
,
00010000
00000000
00000000
00000000
00000000
00000000
00000000
00000000
00100000
00000000
00000000
00001000
00000000
00000000
00010000
00000000
00000100
00000000
00000000
00000000
00000000
00000000
00000000
00000000
00001000
00000000
00000000
00000000
00000100
00000000
00000000
00000000
,
00000000
00000000
00000000
00000000
00000001
00000010
00000001
00000000
00001000
00000100
00001000
00000000
00001100
00000000
00000000
00000000
,
00000000
00011000
00000000
00010000
11000000
00100000
20020000
00000000
,
30030000
00000000
00000000
00000000
00000000
00000000
11000000
00000000
00000000
01100000
00000000
00000000
00110000
00000000
00000000
00000000
,
00000000
00000000
00000000
00000000
00000000
00000000
00101000
00000000
00000000
00010100
00000000
00000000
00011000
00000000
00010000
00000000
,
00000000
00000000
00000000
00000000
00001000
00100000
00010000
00000000
10000000
01000000
10000000
00000000
11000000
00000000
00000000
00000000
,
00000000
00000000
00210000
00000000
00000000
00000000
00001000
00000000
00301000
00000000
00000000
00000000
00100000
00001000
00100000
00000000
,
00001000
00000000
00000000
00000000
00000100
00010000
00000100
00000000
00000100
00000000
00000000
00000000
00001100
00000000
00000000
00000000
,
00000000
00000000
00000001
00000000
00001001
00011000
10010000
02200000
00000000
00000000
00000000
00000000
00000000
00000000
00000000
03300000
;

//---------------dance-single - Pandemonium X----------------
#NOTES:
     dance-single:
     Pandemonium X:
     Beginner:
     1:
     0.085,0.121,0.101,0.000,0.000: // measure 1
0000
0000
0000
0000
,  // measure 2
0000
0000
0000
0000
,  // measure 3
0000
0000
0000
0000
,  // measure 4
0000
0000
0000
0000
,  // measure 5
0010
0000
0000
0000
,  // measure 6
0010
0000
0000
0000
,  // measure 7
0010
0000
0000
0000
,  // measure 8
0010
0000
0000
0000
,  // measure 9
0000
0000
0000
0000
,  // measure 10
0000
0000
0000
0000
,  // measure 11
0000
0110
0000
0000
,  // measure 12
0000
0000
0000
0000
,  // measure 13
0000
1000
0000
0000
,  // measure 14
0000
0000
0000
0000
,  // measure 15
0000
0001
0001
0001
,  // measure 16
0000
1001
0000
0000
,  // measure 17
0000
0010
0010
0010
,  // measure 18
0000
0110
0000
0000
,  // measure 19
0000
1001
0000
0000
,  // measure 20
0000
1000
0000
0000
,  // measure 21
0000
0010
0000
0000
,  // measure 22
0000
0100
0000
0000
,  // measure 23
0010
1001
0000
0000
,  // measure 24
0000
0000
0000
0000
,  // measure 25
0000
1000
0000
0000
,  // measure 26
0000
0000
0000
0000
,  // measure 27
0000
0001
0000
0000
,  // measure 28
0000
0000
0000
0000
,  // measure 29
0000
0100
0000
0000
,  // measure 30
0000
0000
0000
0110
,  // measure 31
0000
0110
0000
0000
,  // measure 32
0000
0001
0000
1000
,  // measure 33
0000
0010
0000
0000
,  // measure 34
0000
0010
0000
0000
,  // measure 35
0000
0100
0000
0000
,  // measure 36
0000
0110
0000
0000
,  // measure 37
0000
1001
0000
0000
,  // measure 38
0000
0000
0000
0000
,  // measure 39
0001
0001
0000
0000
,  // measure 40
0000
0000
0000
0000
,  // measure 41
1000
1000
0000
0000
,  // measure 42
0000
0010
0000
0000
,  // measure 43
0000
0100
0000
0010
,  // measure 44
0000
1001
0000
0000
,  // measure 45
0000
0010
0000
0000
,  // measure 46
0000
0100
0000
0000
,  // measure 47
0000
0001
0000
0000
,  // measure 48
0000
0001
0000
0000
,  // measure 49
0000
1000
0000
0000
,  // measure 50
0000
1000
0000
0000
,  // measure 51
0000
0010
0000
0000
,  // measure 52
0000
0100
0000
0000
,  // measure 53
0000
0110
0000
0000
,  // measure 54
0000
0000
0000
0000
,  // measure 55
0000
0010
0000
1000
,  // measure 56
0000
0001
0001
0001
,  // measure 57
0000
1001
0000
0000
,  // measure 58
0000
0000
0000
0000
,  // measure 59
0000
0100
0000
0100
,  // measure 60
0000
0100
0000
0010
,  // measure 61
0000
0001
0001
0000
,  // measure 62
0000
0000
0000
1001
,  // measure 63
0000
0000
0000
0000
,  // measure 64
0000
0000
0000
1000
,  // measure 65
0000
0010
0010
0000
,  // measure 66
0000
0000
0000
0100
,  // measure 67
0000
0100
0000
0100
,  // measure 68
0000
1001
0000
0000
;
