#TITLE:Debris;
#SUBTITLE:;
#ARTIST:MiddleIs;
#TITLETRANSLIT:;
#SUBTITLETRANSLIT:;
#ARTISTTRANSLIT:;
#GENRE:;
#CREDIT:;
#MENUCOLOR:;
#NEWMETERSYSTEM:NO;
#BANNER:Debris-bn.png;
#BACKGROUND:Debris-bg.png;
#LYRICSPATH:;
#CDTITLE:Z-I-v Summer Contest 2010-cdtitle.png;
#MUSIC:Debris.mp3;
#OFFSET:-1.460;
#SAMPLESTART:61.640;
#SAMPLELENGTH:11.980;
#SELECTABLE:YES;
#LISTSORT:;
#BPMS:0.000=165.000;
#STOPS:;
#BGCHANGES:;
#ATTACKS:;

//---------------dance-single - ----------------
#NOTES:
     dance-single:
     :
     Easy:
     3:
     0.252,0.282,0.040,0.040,0.000:
0000
0000
0000
0000
,
0000
0000
0000
0000
,
0000
0000
0000
0000
,
0000
0000
0000
0000
,
0000
0000
0000
0000
,
0000
0000
0000
0010
,
0100
0000
0000
0100
,
0001
0000
0000
1000
,
0010
0000
0000
0100
,
1000
0000
0000
0010
,
0001
0000
0000
0010
,
0100
0000
0000
0010
,
1000
0000
0100
0000
,
0001
0010
0100
1000
,
0001
0100
0001
0000
,
1000
0100
1000
0000
,
0010
1000
0001
0000
,
0100
0001
1000
0000
,
0100
0010
0001
0000
,
0010
0100
1000
0000
,
0100
1000
0001
0000
,
0010
0001
1000
0000
,
0001
0100
0001
1000
,
0100
1000
0010
0000
,
0100
0010
1000
0001
,
0100
0001
1000
0000
,
0001
0010
0001
1000
,
0100
1000
0010
0000
,
1000
0010
0100
0010
,
0100
0001
0100
0000
,
1000
1000
0001
0100
,
0001
1000
0100
0000
,
1000
0010
0100
0001
,
0010
0100
1000
0000
,
0010
0000
0001
0000
,
1000
0000
0100
0000
,
1000
0010
0001
0010
,
1000
0010
0001
0000
,
0010
0010
0010
0010
,
0100
0100
0100
0200
,
0000
0000
0300
1001
,
1001
0000
0100
0010
,
0000
1000
0001
0100
,
0001
0000
1000
0100
,
1000
0010
0100
0100
,
0010
0000
1000
0100
,
0001
0000
0001
0100
,
1000
0000
1000
0010
,
0001
0010
1000
0001
,
0010
0000
0100
0010
,
0010
0000
0010
0100
,
1000
0000
0001
0010
,
0001
1000
0100
1000
,
0010
0000
0100
0010
,
1000
0000
0001
0010
,
0100
1000
0001
0010
,
0001
0000
1000
1001
,
0220
0000
0000
0000
,
0000
0330
0000
0000
,
0000
0000
0000
0001
,
0000
0000
1000
0001
,
0000
0000
0100
0010
,
0000
0010
0000
1000
,
0000
1000
0000
0100
,
0000
0000
0010
0001
,
0000
0000
1000
0100
,
0000
0100
0000
1000
,
0001
1000
0001
0010
,
0100
0000
1000
0010
,
0100
0000
0010
0100
,
0010
0001
0010
0100
,
0000
1001
0000
0100
,
1000
0000
0001
0010
,
0100
0000
0010
0001
,
1000
0001
1000
0010
,
1000
0010
1000
0100
,
0010
0001
1000
0100
,
0010
0001
0001
2000
,
0200
0000
0000
3300
;

//---------------dance-single - Copied from----------------
#NOTES:
     dance-single:
     Copied from:
     Beginner:
     1:
     0.111,0.155,0.000,0.056,0.000:
0000
0000
0000
0000
,
0000
0000
0000
0000
,
0000
0000
0000
0000
,
0000
0000
0000
0000
,
0000
0000
0000
0000
,
0000
0000
0000
0000
,
0010
0000
0000
0000
,
0010
0000
0000
0000
,
0001
0000
0000
0000
,
1000
0000
0000
0000
,
0100
0000
0000
0000
,
1000
0000
0000
0000
,
0010
0000
0000
0000
,
0200
0000
0300
0000
,
0001
0000
0001
0000
,
1000
0000
0000
0000
,
1000
0000
1000
0000
,
0010
0000
0000
0000
,
0100
0000
0100
0000
,
0010
0000
0000
0000
,
0001
0000
0001
0000
,
0010
0000
0000
0000
,
0200
0000
0300
0000
,
2000
0000
3000
0000
,
0010
0000
0010
0000
,
0010
0000
0000
0000
,
0002
0000
0003
0000
,
0200
0000
0300
0000
,
0001
0000
1000
0000
,
0001
0000
0000
0000
,
1000
0000
0100
0000
,
0100
0000
0000
0000
,
0001
0000
0010
0000
,
0010
0000
0000
0000
,
0100
0000
0000
0000
,
0010
0000
0000
0000
,
1000
0000
0000
0000
,
0001
0000
0000
0000
,
0020
0000
0000
0000
,
0000
0000
0000
0030
,
0000
0000
0000
0100
,
0100
0000
0000
1000
,
0000
0000
0000
0001
,
0000
0000
0000
0010
,
0000
0000
0000
0100
,
0000
0000
0000
0010
,
0000
0000
0000
1000
,
0000
0000
0000
0100
,
0000
0000
0000
0001
,
0000
0000
0000
0010
,
0000
0001
0000
0010
,
0000
0000
0000
0100
,
0000
1000
0000
0100
,
0000
0000
0000
0001
,
0000
1000
0000
0002
,
0000
0003
0000
0100
,
0000
0000
0000
1000
,
1000
0000
0000
0000
,
0000
0000
0000
0000
,
0000
0000
0000
1000
,
0000
0000
0000
1000
,
0000
0000
0000
0001
,
0000
0001
0000
0001
,
0000
0000
0000
0010
,
0000
0000
0000
0100
,
0000
0000
0000
1000
,
0000
1000
0000
1000
,
0000
0000
0000
0001
,
0000
0000
0000
1000
,
0000
0100
0000
0010
,
0000
0000
0000
0010
,
0000
0000
0000
0100
,
0000
0000
0000
0010
,
0000
1000
0000
0001
,
0000
0001
0000
1000
,
0000
1000
0000
0001
,
0000
0001
0000
1000
,
0000
1000
0000
0001
,
0001
0000
0000
0000
;

//---------------dance-single - Copied from----------------
#NOTES:
     dance-single:
     Copied from:
     Medium:
     6:
     0.356,0.439,0.111,0.056,0.012:
0000
0000
0000
0000
,
0000
0000
0000
0000
,
0000
0000
0000
0000
,
0000
0000
0000
0000
,
0000
0000
0000
0000
,
0000
0000
0000
0001
,
0010
0000
0001
1000
,
0100
1000
0000
0010
,
0100
0010
1000
0001
,
0001
0000
0010
0000
,
0100
1000
0010
0100
,
0010
0000
0100
0000
,
0001
1000
0001
0010
,
0100
0000
0000
1000
0100
0000
0000
0000
,
1001
0000
0000
0010
0001
0000
0100
0000
,
0001
0000
0000
0010
0100
0000
1000
0000
,
0001
0000
0000
0100
0001
0000
1000
0000
,
0010
0000
0000
0010
0001
0000
1000
0000
,
0001
0000
0000
1000
0100
0000
1000
0000
,
0001
0000
0000
0010
0001
0000
0010
0000
,
0100
0000
0000
0010
0100
0000
0001
0000
,
0010
0000
0000
1000
0100
0000
0010
0000
,
0100
0100
1000
0001
,
0100
0100
0001
0010
,
0001
0001
0010
0100
,
1000
1000
0010
1000
,
0100
0100
0010
0100
,
0001
0001
0010
0001
,
1000
0001
0100
0001
,
0010
0000
0000
1000
0000
0000
0001
0000
1000
0000
0001
0000
,
1000
0000
0010
0000
1000
0000
0001
0100
,
0001
1000
0100
0010
,
0100
0000
0000
0100
1000
0000
0000
1000
,
0010
0100
0101
1100
,
0010
0000
0100
0000
0010
1000
0010
0000
,
0100
0000
0001
0000
0010
0001
0010
0000
,
0001
0100
0010
1000
,
0100
0010
0001
1000
,
0001
0101
1000
1100
,
0010
0110
1001
0220
,
0000
0000
0330
1001
,
1001
0000
0000
0001
0100
1000
0100
0000
,
0010
1000
0100
0010
,
0001
0100
0001
1000
,
0010
0000
1000
0000
0100
1000
0010
0000
,
0100
0001
0010
0100
,
0100
0000
0010
0000
0001
0100
0001
0000
,
1000
0100
1000
0000
0010
0000
1000
0000
,
0001
0000
0010
0000
0100
1000
0001
0000
,
0100
0001
1000
0000
1001
0000
0010
0000
,
0100
0000
0010
1000
0010
0100
0001
0000
,
0010
0100
0010
1000
,
0010
0001
0100
0001
,
0001
1000
0010
1000
,
0100
0000
0010
0000
0100
0010
0001
0000
,
0100
1000
0010
0000
0100
0000
0001
0000
,
1000
0001
0100
0010
,
2002
0000
0000
0000
,
0000
0000
0000
0000
,
0000
3003
0000
1000
,
0001
0100
0001
1000
,
0010
0000
0000
0000
0000
0010
0100
0000
,
0000
0010
0100
0000
0000
0010
0100
0000
,
0010
0100
0001
1000
,
0000
1000
0100
0001
,
0100
0000
1000
0010
,
0000
0010
0100
2002
,
0000
3003
0001
1001
,
0010
0100
0010
1000
,
0100
0000
1000
0000
0001
0010
0001
0000
,
1000
0100
1000
0000
0010
0100
0010
0000
,
1000
0001
1000
0000
0001
0000
0010
0000
,
0100
0010
1000
0100
,
0010
0000
0001
0000
1000
0000
0001
0010
,
0100
0000
0010
0100
1000
0000
0001
0010
,
0100
0000
0010
0100
1000
0000
1000
0100
,
0010
0000
0100
0010
0001
0000
1000
0100
,
0010
0000
0001
0000
0010
0000
0100
0000
1000
0000
0000
0000
0001
0000
0000
0001
,
0020
0000
0000
0030
;

//---------------dance-single - Copied from ----------------
#NOTES:
     dance-single:
     Copied from:
     Hard:
     9:
     0.600,0.721,0.175,0.151,0.123: // measure 1
0000
0000
0000
0000
,  // measure 2
0000
0000
0000
0000
,  // measure 3
0000
0000
0000
0000
,  // measure 4
0000
0000
0000
0000
,  // measure 5
0000
0000
0000
0000
,  // measure 6
0000
0000
0000
0000
0000
1000
0100
0010
,  // measure 7
0001
0000
0100
0000
0001
1000
0010
0000
,  // measure 8
0100
0010
1000
0100
0010
0000
0001
0000
,  // measure 9
0100
0000
0001
0010
0001
0000
0100
0010
,  // measure 10
1000
0100
0010
0001
1000
0001
0100
0000
,  // measure 11
0010
0100
0010
0001
0100
0010
1000
0001
,  // measure 12
0100
0001
0100
1000
,  // measure 13
0100
0010
1000
0010
0100
0001
0010
0100
,  // measure 14
1000
0001
0202
0303
,  // measure 15
1000
0100
0010
0001
2000
0000
0001
0000
,  // measure 16
3100
0000
0010
0100
0001
0010
0020
0000
,  // measure 17
0130
1000
0010
0100
0010
1000
0200
0000
,  // measure 18
1000
0000
1300
0010
0001
0010
0200
0000
,  // measure 19
0301
0010
0100
1000
0001
0100
0002
1000
,  // measure 20
2003
0000
3100
0100
1000
0010
0100
0000
,  // measure 21
0002
0000
0010
0000
0103
0000
1000
0100
,  // measure 22
0001
0000
0001
0100
2000
0000
0001
0000
,  // measure 23
3001
0010
0001
1000
0010
0100
0010
1000
,  // measure 24
0010
0001
0010
1000
0100
1000
0001
0100
,  // measure 25
0010
1000
0100
0010
0001
0100
0001
0010
,  // measure 26
1000
0010
0001
0100
1000
0100
0001
0010
,  // measure 27
0001
1000
1000
0100
1000
0010
0100
0001
,  // measure 28
0100
0010
1000
0001
0100
0010
0100
0001
,  // measure 29
0010
0100
1000
0100
1000
0001
0100
0001
,  // measure 30
0010
0000
0000
0100
0000
0000
1000
0000
0000
0001
0000
0000
0100
0000
0000
0000
0010
0000
0000
0000
1000
0000
0000
0000
,  // measure 31
1001
0000
0100
0010
0100
1000
0001
0100
,  // measure 32
0001
0000
0000
0000
1000
0000
0100
0000
0010
0000
0000
0001
0000
0000
1000
0000
,  // measure 33
0100
0000
0000
0010
0100
0000
0000
0000
0001
0000
0100
0000
0001
0000
1000
0000
,  // measure 34
0010
0000
0010
0100
0001
1000
0100
1000
,  // measure 35
0010
0000
1000
0100
0010
0001
0010
0100
,  // measure 36
0001
0100
1000
0100
0010
1000
0001
0100
,  // measure 37
0010
0000
0000
1000
0001
0000
0010
0000
0010
0000
0100
0000
1000
0000
0010
0000
,  // measure 38
1000
0000
0000
0001
0100
0000
0010
0000
0100
0000
0001
0000
1000
0000
0100
0000
,  // measure 39
0010
0001
0010
0001
0100
0001
0100
0010
0100
0010
1000
0010
,  // measure 40
1000
0001
1000
0001
0100
0001
0100
0010
0100
0020
0000
0000
,  // measure 41
0100
0100
1030
0100
0010
0001
0100
0000
,  // measure 42
2002
0000
3003
0001
0010
0100
1100
0000
,  // measure 43
1001
0000
0100
0010
0100
0001
1001
0000
,  // measure 44
0101
0000
1000
0010
0100
0001
1010
0000
,  // measure 45
0110
0000
0000
0000
0000
0000
0001
0000
0010
0000
0100
0000
1000
0000
0000
0010
0000
0000
0100
0000
0000
0010
0000
0000
,  // measure 46
1000
0100
0010
0001
0100
0001
1010
0000
,  // measure 47
0100
0000
1001
0000
0010
0000
0001
0100
,  // measure 48
0001
1000
0100
0010
0100
1000
0001
0100
,  // measure 49
1000
0100
0001
0010
1000
0010
0001
1000
,  // measure 50
0001
1000
0100
1000
0100
1000
0110
0000
,  // measure 51
0101
0000
0010
1000
0100
0010
1100
0000
,  // measure 52
0101
0000
0010
0100
0001
1000
0110
0000
,  // measure 53
1001
0000
0000
0000
0000
0000
1000
0000
0100
0000
0010
0000
0001
0000
0000
0100
0000
0000
0001
0000
0000
1000
0000
0000
,  // measure 54
0100
1000
0010
0100
0001
0100
1001
0000
,  // measure 55
0001
0000
1100
0000
0010
0000
1000
1000
,  // measure 56
0100
0100
0010
0010
0001
0001
1000
0100
,  // measure 57
1000
0100
0010
0100
0010
0100
1001
0000
,  // measure 58
0220
0000
0000
0000
,  // measure 59
0000
0000
0000
0000
,  // measure 60
0330
0000
0000
0000
1000
0100
0001
0000
,  // measure 61
0001
0100
1000
0000
0010
0000
0100
0001
,  // measure 62
0100
0000
0010
0000
1000
0010
0001
0000
,  // measure 63
1000
0010
0001
0000
1000
0010
0001
0000
,  // measure 64
1000
0000
0010
0000
1000
0000
0010
0000
0000
0000
0000
0000
0100
0000
0000
0010
0000
0000
0100
0000
0000
0000
0000
0000
,  // measure 65
0001
0000
0001
0000
0001
0010
0100
0000
,  // measure 66
0100
0000
1000
0100
1000
0001
0100
0000
,  // measure 67
0010
0000
0100
0000
0010
0100
2002
0000
,  // measure 68
0000
0000
3003
0000
0010
0010
0001
0100
,  // measure 69
0010
1000
0100
0010
0001
1000
0001
0100
,  // measure 70
0010
1000
0100
0100
1000
0001
0100
0001
,  // measure 71
0010
1000
0010
0001
0100
0010
1000
0001
,  // measure 72
0010
0001
0100
0010
1000
0001
0010
0100
,  // measure 73
0010
0001
1000
0100
0010
0100
0001
0100
,  // measure 74
1000
0010
0100
0001
1000
0001
1000
0100
,  // measure 75
0001
0100
1000
0100
0001
0100
1000
0100
,  // measure 76
0001
0100
1000
0100
0001
0100
1000
0010
,  // measure 77
0001
0010
1000
0010
0001
0010
1000
0010
,  // measure 78
0001
0000
0000
0000
0000
0000
0010
0000
0000
0000
0000
0000
1000
0000
0000
0000
0100
0000
0000
0000
0010
0000
0000
0000
0001
0000
0000
0000
0010
0000
0000
0000
0100
0000
0000
0000
1000
0000
0000
0000
0000
0000
0000
0000
0000
0200
0000
0000
,  // measure 79
0020
0000
0000
0330
;
