#TITLE:PARANOiA KCET ~clean mix~ (Zenius Summer Special);
#SUBTITLE:;
#ARTIST:2MB;
#TITLETRANSLIT:;
#SUBTITLETRANSLIT:;
#ARTISTTRANSLIT:;
#CREDIT:;
#BANNER:PARANOiA KCET (clean mix).png;
#BACKGROUND:PARANOiA KCET (clean mix)-bg.png;
#LYRICSPATH:;
#CDTITLE:./CDTITLES/DANCE DANCE REVOLUTION HOME VERSION.PNG;
#MUSIC:PARANOiA KCET (clean mix).mp3;
#OFFSET:-0.057;
#SAMPLESTART:61.360;
#SAMPLELENGTH:15.000;
#SELECTABLE:YES;
#DISPLAYBPM:180.000;
#BPMS:0.000=359.999,144.000=90.000,159.500=180.000,303.000=359.999;
#STOPS:163.000=0.100
,165.000=0.100
,167.500=0.100
,170.500=0.100
,173.000=0.100
;
#BGCHANGES:;

//---------------dance-single - Copied from----------------
#NOTES:
     dance-single:
     Copied from:
     Challenge:
     12:
     0.870,1.000,1.000,0.021,0.146:
0000
0000
0000
0000
,
0000
0000
0000
0000
,
0000
0000
0000
0000
,
0000
0000
0000
0000
,
0000
0000
0000
0000
,
0000
0000
0000
0000
,
0000
0000
0000
0000
,
0000
0000
0000
0000
,
0000
0000
0000
0000
,
0000
0000
0000
0000
,
0000
0000
0000
0000
,
0000
0000
0000
0000
,
0001
1000
0010
0100
,
0010
1000
0010
0110
,
0110
0000
1000
0001
,
0100
0010
1000
0010
,
1001
1010
0001
0100
,
0010
1000
0010
1010
,
1001
0000
0101
0001
,
0110
1000
0001
0110
,
0101
0000
0001
0010
,
1000
0010
0100
0110
,
0011
0000
0001
0010
,
1000
0010
1010
0110
,
0101
0000
0001
0100
,
0010
0100
0001
1001
,
1001
0000
0010
0100
,
0010
1000
0010
1100
,
0110
0000
0001
0010
,
0001
1100
0010
0110
,
0110
0000
0010
1000
,
0010
0100
0110
1001
,
0110
0000
0001
0010
,
1000
0100
0010
1001
,
1001
0000
0010
0100
,
0010
1000
1001
0110
,
1001
0010
0010
0000
1000
0010
0100
0010
0100
0010
1000
0010
0100
0001
0010
1000
,
1001
0010
0100
0010
1000
0100
0010
0001
0010
1000
0010
0100
0010
0100
0010
1000
,
1001
0000
0010
0100
1000
0100
0010
0001
0010
0100
0010
1000
0010
0100
0010
0010
,
0110
0000
0001
0010
0100
1000
0100
0010
0001
0010
1000
0010
0100
0010
1000
0000
,
0000
0001
0010
1000
0100
0010
0100
0000
,
0001
0010
1000
0000
0010
0100
0010
0001
,
0000
0000
0000
0010
1000
0010
0000
0001
,
0010
1000
0010
0000
0000
0000
0001
0010
,
0100
1000
0010
0100
0010
0100
0010
1000
,
0001
0010
0011
0010
0100
1010
0001
0110
,
1000
1001
0001
0110
0010
1010
0100
0101
,
0000
0100
1000
0010
1010
0000
0001
0010
,
1000
0010
0100
0110
1001
0010
0100
1001
,
0010
0101
1000
0010
0110
0010
1010
0001
,
1010
0100
0101
0010
0101
0010
1001
0010
,
0100
1000
0100
0010
0001
0000
1000
0010
,
0100
0010
0110
0001
0010
1001
0101
0010
,
1001
0100
0110
1001
0010
1010
0001
1001
,
0010
0100
0110
1000
1001
0010
0101
1010
,
0110
0001
0010
0100
1000
0100
0010
0100
,
1001
0110
0011
0100
1001
0110
0010
1100
,
0101
0010
0110
1000
0110
0001
0110
0100
,
1001
0010
0110
0001
1100
1100
0010
0101
,
0110
0001
1010
0100
0001
0110
1000
0100
,
0010
0001
0010
1000
0010
0110
0110
0000
,
0001
0010
1000
0100
0010
0110
0110
0000
,
0001
0010
0100
1000
0001
1001
1001
0000
,
0010
0100
1000
0100
0010
0110
0110
0000
,
0001
0010
0100
1000
0010
1000
1010
0000
,
0001
0010
1000
0010
0100
0110
0110
0000
,
0001
1000
0100
0010
0001
0010
1001
0000
,
0010
0100
1000
0010
0100
0110
0110
0000
,
0001
0010
0100
1000
0100
0011
0011
0000
,
0001
0010
0100
1000
0100
0010
0110
0000
,
0001
0010
0100
1000
0010
0110
0110
0000
,
0001
0010
1000
0100
0010
0001
1001
0000
,
0010
0100
0010
1000
0001
0010
1010
0000
,
0001
0010
0100
1000
0100
0010
0110
0000
,
0001
0010
0100
1000
0010
0101
0101
0000
,
0010
1000
0100
0010
0001
0100
1001
0000
,
0010
0010
0100
0010
,
1000
0110
0001
0101
,
0000
0010
1000
0100
,
0010
1001
0000
0010
,
0100
1000
0110
0001
,
0010
1000
1010
0010
,
0000
0001
0110
1000
,
0010
0110
0100
0001
,
0010
1000
0100
0010
,
1001
1001
0010
0100
,
0000
0010
1000
0010
,
0101
0101
0000
0010
,
1000
0100
0010
0001
,
0010
1000
0010
0101
,
0010
1000
0001
1001
,
1000
2002
0000
0000
,
0000
0000
0000
0000
,
0000
0000
3003
0000
;

//---------------dance-single - ----------------
#NOTES:
     dance-single:
     :
     Hard:
     8:
     0.580,1.000,0.135,0.021,0.000:
0000
0000
0000
0000
,
0000
0000
0000
0000
,
0000
0000
0000
0000
,
0000
0000
0000
0000
,
0000
0000
0000
0000
,
0000
0000
0000
0000
,
0000
0000
0000
0000
,
0000
0000
0000
0000
,
0000
0000
0000
0000
,
0000
0000
0000
0000
,
0000
0000
0000
0000
,
0000
0000
0000
0000
,
1000
0000
0010
0100
,
0010
1000
0010
0010
,
0010
0000
1000
0001
,
0100
0010
1000
0010
,
0010
0000
0100
0010
,
1000
0001
0100
0010
,
0010
0000
1000
0010
,
0100
0010
0100
0001
,
0001
0000
0010
1000
,
0010
0100
0010
0100
,
0100
0000
0010
1000
,
0001
0100
0010
0100
,
0100
0000
0010
1000
,
0001
0100
0010
1000
,
0010
0000
0100
1000
,
0100
0010
0001
0010
,
0010
0000
1000
0010
,
0001
0010
1000
0100
,
0010
0000
1000
0010
,
1000
0010
1000
0010
,
0010
0000
0100
0001
,
0100
0010
1000
0010
,
0010
0000
0100
0001
,
1000
0010
1000
0001
,
1001
1000
0100
0010
0001
1001
0010
0110
,
0001
0010
0100
1000
0010
0110
0001
0110
,
0001
0010
0100
1000
0010
1010
0010
0110
,
0001
0010
0100
1000
0100
0010
0001
1001
,
0000
0100
0010
1000
0010
0100
0010
0000
,
1000
0001
1000
0000
0010
0100
0010
0001
,
0000
0000
0000
1000
0010
1000
0000
0010
,
1000
0100
0001
0000
0000
0000
1010
0000
,
0010
1000
0010
1001
,
0010
0100
0100
0010
,
1000
0100
0010
0001
,
0010
0000
1000
0010
1000
0000
0010
0000
,
0100
1000
1000
1000
,
0010
0100
0100
0100
,
0001
0010
1000
0100
,
0010
1010
1010
0001
,
0010
0000
1000
0000
0010
0000
0100
0010
,
0100
0000
1000
0010
1000
0000
0010
0100
,
0010
0000
0001
0010
0001
0000
1000
0100
,
0010
0001
0010
1000
0010
0000
0010
0000
,
0010
0000
1000
0100
0010
0000
1000
1000
,
1000
0000
0010
0100
0010
0000
0100
0001
,
0100
0000
0010
1000
0010
0000
1000
0100
,
0010
0001
0010
0100
1000
0000
0010
0000
,
0100
0010
0100
0010
1000
0010
0010
0000
,
0100
0001
0000
0010
1000
0010
1000
0000
,
0010
0100
0010
1000
0100
0010
0010
0000
,
0001
0001
0000
0010
1000
0010
1000
0000
,
0010
0100
0010
1000
0100
0010
0010
0000
,
0100
0001
0000
0100
0010
0100
0100
0000
,
0001
0010
0100
1000
0010
0100
0001
0000
,
1000
0010
0100
0010
0100
0010
0010
0000
,
1000
0001
0010
0100
1000
0100
0010
0000
,
0100
0010
0000
1000
0100
0010
0001
0000
,
0010
0100
0010
1000
0010
0010
0010
0000
,
0100
0001
0000
0100
0010
1000
0010
0000
,
0100
1000
0100
0010
0001
0010
0010
0000
,
1000
0010
0100
0010
0100
0010
0010
0000
,
1000
0100
0001
0010
0100
0010
0100
0000
,
0010
0100
0001
0010
0100
1000
0001
0000
,
1000
0010
0100
0010
,
0100
0010
0010
0010
,
0000
1000
1000
0000
,
0010
0010
0000
0100
,
0001
0010
1000
0100
,
0010
0001
0010
0010
,
0000
0100
0100
0000
,
0010
1000
0000
0001
,
0010
0100
1000
0100
,
0010
0001
0010
0100
,
0000
0010
1000
0000
,
0010
1000
0000
0001
,
0001
0000
0010
1000
,
0010
1000
0010
0010
,
0000
0100
0001
0010
,
0100
2002
0000
0000
,
0000
0000
0000
0000
,
0000
0000
0000
3003
;

//---------------dance-single - ----------------
#NOTES:
     dance-single:
     :
     Medium:
     6:
     0.430,0.726,0.344,0.062,0.000:
0000
0000
0000
0000
,
0000
0000
0000
0000
,
0000
0000
0000
0000
,
0000
0000
0000
0000
,
0000
0000
0000
0000
,
0000
0000
0000
0000
,
0000
0000
0000
0000
,
0000
0000
0000
0000
,
0000
0000
0000
0000
,
0000
0000
0000
0000
,
0000
0000
0000
0000
,
0000
0000
0000
0000
,
0010
0000
0010
0000
,
1000
0000
1000
0000
,
0010
0000
0100
0000
,
0001
0000
0010
0000
,
1001
0000
0010
0000
,
1000
0000
0100
0000
,
0010
0000
0001
0000
,
0010
0000
1000
0000
,
0110
0000
0001
0000
,
0010
1000
0010
1000
,
0010
0000
0010
0000
,
0100
0000
0100
0000
,
0001
0000
0010
0000
,
1000
0000
0010
0000
,
0100
0000
0001
0000
,
0010
0000
1000
0010
,
1000
0000
0001
0010
,
0100
1000
0100
0010
,
0010
0000
1000
0000
,
0001
0000
0100
0000
,
0010
0000
1000
0100
,
0010
0001
0010
0010
,
0010
0000
0100
0000
,
0001
0000
0010
0000
,
1001
1000
0010
0100
0010
0100
0010
0010
,
0000
0000
0001
0010
0100
1000
0010
0100
,
0000
0000
0010
1000
0100
0010
0001
0010
,
0000
0000
1000
0010
0100
0001
0010
1000
,
0000
0010
0000
1000
0000
0010
0000
0000
,
1000
0000
1000
0001
,
0000
0000
0000
1000
0000
0000
0000
0010
,
0000
0100
0000
0000
0000
0000
0000
0000
,
0010
0100
0001
1001
,
1001
0110
0110
0001
,
0010
0100
0010
1010
,
1010
0010
0100
0001
,
0010
1010
1010
0110
,
0110
0001
0010
1000
,
0010
0110
0001
0011
,
0010
1010
0010
0100
,
0001
0101
0101
1010
,
0110
1010
1001
0010
,
0100
1000
0010
0110
,
0110
0001
0010
1010
,
0010
0100
0100
0010
,
1010
0001
0101
0010
,
1000
0100
0010
0001
,
0010
0110
0001
0010
,
0100
0010
1000
0110
,
0001
0010
0100
0100
,
0010
1000
0010
0110
,
0001
0010
1000
1000
,
0010
0110
0001
0001
,
0010
1000
0010
0110
,
0001
0010
1000
1000
,
0010
0100
0100
0002
,
0000
0000
1000
0000
1000
0000
1000
0003
,
0010
0100
0100
0020
,
1000
0000
1000
0000
0100
0000
0100
0030
,
0001
0010
0100
0200
,
0010
0010
0010
0301
,
0010
0100
0010
0010
,
2000
0010
0010
0001
,
3010
0100
0010
1000
,
0000
0010
0000
1000
,
0000
0001
0000
0010
,
0000
0100
0000
0010
,
0000
1000
0000
1000
,
1000
0000
0000
0010
,
0000
0100
0000
0001
,
0000
0010
0000
0100
,
0000
0100
0000
0001
,
0001
0000
0000
0010
,
0000
1000
0000
0010
,
0000
0100
0000
0001
,
0000
0100
0000
0010
,
0010
0000
0000
1000
,
0000
0001
0000
0010
,
0000
1000
0000
0001
,
0000
2002
0000
0000
,
0000
0000
0000
0000
,
3003
0000
0000
0000
;

//---------------dance-single - ----------------
#NOTES:
     dance-single:
     :
     Easy:
     2:
     0.202,0.438,0.010,0.010,0.000: // measure 1
0000
0000
0000
0000
,  // measure 2
0000
0000
0000
0000
,  // measure 3
0000
0000
0000
0000
,  // measure 4
0000
0000
0000
0000
,  // measure 5
0000
0000
0000
0000
,  // measure 6
0000
0000
0000
0000
,  // measure 7
0000
0000
0000
0000
,  // measure 8
0000
0000
0000
0000
,  // measure 9
0000
0000
0000
0000
,  // measure 10
0000
0000
0000
0000
,  // measure 11
0000
0000
0000
0000
,  // measure 12
0000
0000
0000
0000
,  // measure 13
1000
0000
0000
0000
,  // measure 14
0000
0000
0000
0000
,  // measure 15
0100
0000
0000
0000
,  // measure 16
0000
0000
0000
0000
,  // measure 17
0001
0000
0000
0000
,  // measure 18
0000
0000
0000
0000
,  // measure 19
1000
0000
0000
0000
,  // measure 20
0000
0000
0000
0000
,  // measure 21
0010
0000
0000
0000
,  // measure 22
0000
0000
0000
0000
,  // measure 23
1000
0000
0000
0000
,  // measure 24
0000
0000
0000
0000
,  // measure 25
0010
0000
0000
0000
,  // measure 26
0000
0000
0000
0000
,  // measure 27
1000
0000
0000
0000
,  // measure 28
0000
0000
0000
0000
,  // measure 29
0001
0000
0000
0000
,  // measure 30
0000
0000
0000
0000
,  // measure 31
0100
0000
0000
0000
,  // measure 32
0000
0000
0000
0000
,  // measure 33
0010
0000
0000
0000
,  // measure 34
0000
0000
0000
0000
,  // measure 35
1000
0000
0000
0000
,  // measure 36
0000
0000
0000
0000
,  // measure 37
1000
0010
0001
0010
,  // measure 38
0100
1000
0010
0001
,  // measure 39
0010
0100
0100
0010
,  // measure 40
0010
0001
0001
0010
,  // measure 41
0100
0000
0100
0000
,  // measure 42
0100
0000
0100
0000
,  // measure 43
0000
0000
0010
0000
,  // measure 44
0010
0000
0000
0010
,  // measure 45
0000
0001
0000
0010
,  // measure 46
0000
1000
0000
0010
,  // measure 47
0000
0100
0000
0001
,  // measure 48
0000
0010
1000
0000
,  // measure 49
0000
0000
0010
0010
,  // measure 50
0010
0010
0010
0010
,  // measure 51
0010
0010
0010
0100
,  // measure 52
0100
0100
0100
0000
,  // measure 53
0000
0001
0001
0001
,  // measure 54
0001
0010
0100
0000
,  // measure 55
0000
1000
1000
1000
,  // measure 56
0000
0001
0001
0000
,  // measure 57
0100
0010
1000
0010
,  // measure 58
0100
0001
0001
0000
,  // measure 59
0000
1000
0000
0010
,  // measure 60
0000
0000
0100
0000
,  // measure 61
0001
0010
0100
1000
,  // measure 62
0010
0010
0100
0100
,  // measure 63
0000
0001
0010
0100
,  // measure 64
0000
1000
1000
1000
,  // measure 65
0000
0000
0000
0010
,  // measure 66
0000
0000
0000
1000
,  // measure 67
0000
0000
0000
0100
,  // measure 68
0000
0000
0000
0001
,  // measure 69
0001
0000
0000
0010
,  // measure 70
0010
0000
0000
1000
,  // measure 71
1000
0000
0000
0100
,  // measure 72
0100
0000
0000
0001
,  // measure 73
0010
0000
0000
0100
,  // measure 74
0010
0000
0000
1000
,  // measure 75
1000
0000
0000
1001
,  // measure 76
0000
0000
0000
1000
,  // measure 77
0000
0010
0000
0100
,  // measure 78
0000
0100
0000
0100
,  // measure 79
0000
0000
0000
0000
,  // measure 80
0000
0000
0000
0001
,  // measure 81
0000
0100
0000
0010
,  // measure 82
0000
1000
0000
0010
,  // measure 83
0000
0000
0000
0000
,  // measure 84
0000
0000
0000
0001
,  // measure 85
0000
0010
0000
0100
,  // measure 86
0000
0010
0000
0010
,  // measure 87
0000
0000
0000
1000
,  // measure 88
0000
1000
0000
0010
,  // measure 89
0000
0010
0000
0001
,  // measure 90
0000
0010
0000
0100
,  // measure 91
0000
0001
0000
1000
,  // measure 92
0000
0020
0000
0000
,  // measure 93
0000
0000
0000
0000
,  // measure 94
0000
0000
0030
0000
;
