#TITLE:The Last Day of Pompeii;
#SUBTITLE:;
#ARTIST:Nadeco;
#TITLETRANSLIT:;
#SUBTITLETRANSLIT:;
#ARTISTTRANSLIT:;
#CREDIT:348 with Timer Rabbit;
#BANNER:;
#BACKGROUND:;
#LYRICSPATH:;
#CDTITLE:;
#MUSIC:The Last Day of Pompeii.mp3;
#OFFSET:-0.337;
#SAMPLESTART:69.321;
#SAMPLELENGTH:15.000;
#SELECTABLE:YES;
#BPMS:0.000=167.000,64.000=41.750,72.000=167.000,104.000=83.500,120.000=167.000;
#STOPS:148.000=0.359
,149.000=0.180
,149.500=0.180
;
#BGCHANGES:;

//---------------dance-single - ----------------
#NOTES:
     dance-single:
     :
     Beginner:
     1:
     0.101,0.149,0.023,0.000,0.000:
0000
0000
0000
0000
,
0000
0000
0000
0000
,
0000
0000
0000
0000
,
0000
0000
0000
0000
,
1000
0000
0000
0000
,
0001
0000
0000
0000
,
1000
0000
0000
0000
,
0001
0000
0000
0000
,
0100
0000
0000
0000
,
0100
0000
0000
0000
,
0100
0000
0000
0000
,
0100
0000
0000
0000
,
0010
0000
0000
0000
,
0010
0000
0000
0000
,
0010
0000
0000
0000
,
0010
0000
0000
0000
,
1000
0000
0000
0000
,
0001
0000
0000
0000
,
1000
0000
0000
0100
,
0100
0000
0000
0000
,
0010
0000
0000
0001
,
0001
0000
0000
0000
,
0100
0000
0000
0000
,
0010
0000
0000
1000
,
1000
0000
0000
0001
,
0001
0000
0000
0000
,
0100
0000
0000
0000
,
0000
0000
0000
0000
,
0010
0000
0000
0000
,
0000
0000
0000
0000
,
0100
0100
0000
0000
,
0100
0000
0000
0000
,
0010
0010
0000
0000
,
0010
0000
0000
0000
,
1000
1000
0000
0000
,
0001
0001
0000
0000
,
1000
0000
0001
0000
,
1000
0000
0001
0000
,
0000
0000
0100
0000
,
0010
0000
0100
0000
,
0000
0000
0001
0000
,
1000
0000
0001
0000
,
0000
0000
1000
0000
,
0100
0000
1000
0000
,
0000
0000
0010
0000
,
0010
0000
0010
0000
,
1000
0000
0010
0000
,
0000
0100
0100
0000
,
0000
0001
0001
0000
,
0000
0000
1000
0000
,
0010
0000
0100
0000
,
0000
0000
0001
0000
,
0000
0000
0001
0000
,
1000
0000
1001
0000
,
0000
0000
0000
0000
,
0000
0100
0010
0000
,
0000
0000
0000
0000
,
0000
0000
0110
0000
,
0000
0000
0000
0000
,
0000
1000
0001
0000
,
0000
0000
0000
0000
,
0000
0000
0100
0000
,
0000
0000
0100
0000
,
0000
0000
0001
0000
,
0000
0000
0001
0000
,
0000
0000
1000
0000
,
0000
0000
1000
0000
,
0000
0000
0010
0000
,
0000
0000
0010
0000
,
0000
0000
1000
0000
,
0000
0000
0000
0000
,
0000
0000
0001
0000
,
0000
0000
0000
0000
,
0000
0000
1000
0000
,
0000
0000
0001
0000
,
0000
0000
1000
0000
,
0001
0000
1000
0000
,
0001
0000
1001
0000
;

//---------------dance-single - ----------------
#NOTES:
     dance-single:
     :
     Easy:
     4:
     0.319,0.329,0.208,0.193,0.000:
0000
0000
0000
0000
,
0000
0000
0000
0000
,
0000
0000
0000
0000
,
0000
0000
0000
0000
,
1000
0100
1000
0000
,
0001
0010
0001
0000
,
0100
0001
1000
0010
,
1000
0001
0100
0000
,
0001
0100
0010
1000
,
0002
0000
1000
1003
,
1000
0001
0100
0010
,
0200
0000
0010
0310
,
0010
1000
0001
0100
,
0001
0010
0100
1000
,
0110
0000
1001
0000
,
0010
0100
1001
0000
,
0020
0030
2000
3000
,
0200
0300
0002
0003
,
0010
0001
2000
0000
,
3010
1000
0002
0000
,
0103
0001
2000
0000
,
3100
1000
0002
0003
,
1100
0000
1010
0000
,
0101
0000
0011
0000
,
1000
0100
0010
0001
,
2000
0000
3002
0000
,
1003
1000
0001
0001
,
0100
0000
0001
0000
0100
0100
0100
0000
,
0010
0010
0100
0100
,
0001
0000
1000
0000
0001
0001
0001
0000
,
2000
0000
3100
1100
,
0002
0000
0013
0011
,
0200
0000
0301
0101
,
0020
0000
1030
1010
,
0001
0100
1000
0010
,
0001
0100
1000
0010
,
0001
0100
1000
0100
,
0002
0000
0000
0003
2000
0000
0000
0000
,
3001
0100
1000
0100
,
0001
1000
0002
0000
,
1003
0100
0001
0100
,
1000
0001
0200
0000
,
0320
0000
1030
0001
,
1000
0001
1100
0000
,
0101
0000
1000
0001
,
1001
0000
0010
0000
,
1000
0100
0001
0000
,
0100
1000
0001
0100
,
0100
0001
1000
0000
,
0110
0000
0001
0000
,
1000
0100
0001
0100
,
0010
0001
0010
1000
,
0010
0001
2200
0000
,
0000
3300
0001
0100
,
0001
0100
0010
1000
,
0001
1000
0001
0100
,
0010
1000
0010
0100
,
0010
1000
0001
0100
,
0001
0010
0100
1000
,
0001
0010
0100
1000
,
0001
1000
0001
1000
,
0001
0000
0110
0000
,
1100
0000
0001
1000
,
0100
1000
0011
0000
,
0110
0000
1000
0001
,
0100
0010
1001
0000
,
0100
0001
1000
0010
,
1010
0000
0101
0000
,
1000
0001
0010
0100
,
1001
0000
0100
0000
,
0010
0000
1000
0000
,
0100
0000
0010
0000
,
0001
0000
0100
0000
,
0010
0000
1000
0100
,
0010
0001
1000
0010
,
0100
0001
1000
1100
,
0001
0011
2000
3100
,
0002
0013
1001
0000
;

//---------------dance-single - ----------------
#NOTES:
     dance-single:
     :
     Medium:
     7:
     0.475,0.508,0.386,0.247,0.000:
0000
0000
0000
0000
,
0000
0000
0000
0000
,
0000
0000
0000
0000
,
0000
0000
0000
0000
,
0001
0000
0001
0000
1000
0100
1000
0000
,
0010
0000
0010
0000
0100
0001
0100
0000
,
0001
0000
0001
0000
0010
0001
0010
0000
,
2002
0000
0000
3003
,
0010
0000
0001
0010
0001
0010
0001
0000
,
0100
0000
0010
1000
0010
1000
0010
0000
,
1000
0000
0100
1000
0100
1000
0100
0000
,
0010
0000
0001
1000
0001
1000
0001
0000
,
0100
0000
0101
0000
1000
0010
1000
0000
,
0010
0000
1010
0000
0001
0100
0001
0000
,
1000
0100
0010
0000
0100
0010
0001
0000
,
2200
3300
0011
1001
,
0010
0000
1000
0100
1000
0000
0001
0100
,
0001
0000
1000
0001
1000
0000
0002
0000
,
1003
1000
1000
0101
,
0010
0010
0010
1100
,
0001
0001
0001
1010
,
0100
0100
0100
0011
,
1000
0020
0130
0110
,
0001
0200
0301
0101
,
1000
0002
1003
1001
,
0010
2000
3010
1010
,
0001
0000
0100
0010
0100
0000
0010
1000
,
0010
0000
1000
0001
1000
0000
0002
0000
,
0013
0000
0001
0010
0001
0000
1000
0010
,
1000
0000
0001
1000
0001
0000
0200
0000
,
0310
0000
1100
0000
,
0011
0000
1001
0000
,
0110
0000
0101
0000
,
1010
0000
0110
0000
,
1100
0101
1010
0011
,
1100
0011
0101
1010
,
1000
0001
0100
0000
0001
1000
0010
0000
,
1001
0000
0110
0000
1000
0100
0001
0100
,
1000
0100
0010
0001
1000
0000
0011
0000
,
2100
0000
3001
0000
0010
0001
0010
1000
,
0010
0001
1000
0100
1000
0000
0101
0000
,
1020
0000
0130
0000
1000
0100
1000
0000
,
0002
0000
1003
0000
0001
0010
0001
0000
,
2000
0000
3100
0000
0001
0010
0100
1000
,
0100
0010
0001
1000
0020
0000
0000
0000
,
0130
0001
0100
0000
1001
0000
1100
0000
,
0001
0010
0001
0000
0100
0001
0100
0001
,
1000
0010
1000
0000
0110
0000
0101
0000
,
0010
1000
0010
0000
0100
0010
0100
0010
,
1000
0001
1000
0000
0002
0000
2003
0000
,
3020
0000
0230
0000
0301
1000
0002
0000
,
2003
0000
3010
0000
0001
0100
0010
0000
,
0100
0010
1000
0000
2002
0000
0000
0000
,
0000
0000
3003
0000
0100
0001
1000
0000
,
0001
1000
0010
0000
2000
0000
3100
0000
,
0110
0000
0010
0000
0010
0001
0100
0000
,
0010
1000
0100
0000
2000
0000
3001
0000
,
0101
0000
0100
0000
0001
0010
1000
0010
,
0002
0000
1003
0000
1000
0100
0001
0100
,
2000
0000
3001
0000
0001
1000
0100
0000
,
0010
0001
1000
0000
0011
0000
1001
0000
,
1010
0000
1001
0000
0000
0010
0000
0001
,
0000
0010
0000
1000
0000
0010
0000
0001
,
0000
1000
0000
0100
0000
0001
0000
1000
,
0000
0100
0000
0010
0000
0001
0000
1000
,
0000
0010
0000
1000
0000
0001
0000
0100
,
0000
0001
0000
0100
0000
0010
0000
1000
,
0000
0001
0000
0100
0000
0001
0000
1000
,
0000
0010
0000
1000
0000
0100
0000
1000
,
0000
0001
0000
0100
0020
0000
1000
0000
,
0001
1030
0200
1000
,
0001
1300
0002
0010
,
0100
1003
2000
0100
,
0010
0000
3001
0000
0001
0010
0001
0000
,
0010
0100
0010
0000
0100
1000
0100
0000
,
1000
0001
1000
0000
0001
0010
0001
0010
,
0100
1000
0100
1000
0001
0000
0110
0000
,
0110
1001
1001
0000
;

//---------------dance-single - ----------------
#NOTES:
     dance-single:
     :
     Hard:
     9:
     0.650,0.926,0.416,0.301,0.247: // measure 1
0000
0000
0000
0000
,  // measure 2
0000
0000
0000
0000
,  // measure 3
0000
0000
0000
0000
,  // measure 4
0000
0000
0000
0000
,  // measure 5
0101
0000
0000
0000
1010
0000
0000
0001
0100
0000
0010
0000
0100
0000
0000
0000
,  // measure 6
0011
0000
0000
0000
1100
0000
0000
0010
1000
0000
0001
0000
0100
0000
0000
0000
,  // measure 7
0001
0100
1000
0100
0001
0010
1000
0010
,  // measure 8
0002
0023
0230
2300
,  // measure 9
3001
0000
0010
0000
0100
0000
1000
0001
1000
0000
0100
0000
1000
0000
0000
0000
,  // measure 10
0010
0000
1000
0000
0001
0000
0100
0010
0100
0000
0001
0000
1000
0000
0000
0000
,  // measure 11
0001
0000
0100
0000
0001
0000
1000
0010
1000
0000
0001
0000
0010
0000
0000
0000
,  // measure 12
0100
0000
1000
0000
0100
0000
1000
0001
1000
0000
0010
0000
0100
0000
0000
0000
,  // measure 13
0001
0100
1010
0000
0001
0010
1100
0000
,  // measure 14
1000
0100
0011
0000
1000
0010
0101
0000
,  // measure 15
1000
0100
0010
0100
1000
0100
0010
0100
,  // measure 16
2000
3001
0110
1001
,  // measure 17
0200
0000
0301
0000
0002
0000
0103
0010
2000
0000
3010
0000
0020
0000
0130
0001
,  // measure 18
2000
0000
3001
0010
0002
0000
0103
0010
0200
0000
0310
1000
0020
0000
0130
0000
,  // measure 19
0110
0000
0000
0000
1001
0000
0000
0000
0010
0100
0010
0000
1000
0000
0000
0000
,  // measure 20
0012
0000
0000
0000
1003
0000
0000
0000
0001
0010
0100
0000
0010
0000
0000
0000
,  // measure 21
0011
0000
0000
0000
1100
0000
0000
0000
0001
1000
0001
0000
0100
0000
0000
0000
,  // measure 22
2010
0000
0000
0000
3100
0000
0000
0000
0001
0100
1000
0000
0100
0000
0000
0000
,  // measure 23
0101
0000
0000
0000
1010
0000
0000
0000
0100
0001
0100
0000
0010
0000
0000
0000
,  // measure 24
0210
0000
0000
0000
0301
0000
0000
0000
1000
0001
0100
0000
0010
0000
0000
0000
,  // measure 25
1001
0000
0000
0000
0110
0000
0000
0000
0100
0010
0100
0000
0001
0000
0000
0000
,  // measure 26
1100
1010
0011
0101
,  // measure 27
2000
0000
0000
3001
0100
0000
0001
0000
0002
0000
0000
1003
0010
0000
0100
0000
,  // measure 28
0200
0000
0000
0301
0100
0000
0010
0000
0020
0000
0000
1030
0001
0000
1000
0000
,  // measure 29
0002
0000
1003
0000
1000
0001
1000
0000
0020
0000
0130
0000
0100
0010
0100
0000
,  // measure 30
0001
0010
0100
0000
0010
0100
1000
0000
0001
0010
0100
1000
0001
0100
0010
1000
,  // measure 31
0001
0010
0001
0000
2000
0100
3100
0000
,  // measure 32
0020
0100
0130
0000
1000
0001
1100
0000
,  // measure 33
0001
1000
0011
0000
2000
3100
1100
0000
,  // measure 34
0002
0013
0011
0000
1000
0001
1000
0000
,  // measure 35
0001
0010
1000
0010
0001
0010
0001
0010
,  // measure 36
0100
1000
0100
0001
0100
1000
0010
0001
,  // measure 37
0010
1000
0100
0010
0100
0010
0001
1000
,  // measure 38
0002
0000
0000
0000
2003
0000
3020
0000
1030
0000
0100
0000
0001
0000
0100
1000
,  // measure 39
0100
1000
0001
0100
0010
0000
1002
0000
,  // measure 40
0103
0000
0000
0000
0110
0000
0000
0000
0001
0000
0100
0000
0001
0000
1000
0100
,  // measure 41
1000
0010
0100
0010
1000
0000
0120
0000
,  // measure 42
1030
0000
0000
0000
1001
0000
0000
0000
0100
0000
0001
0000
1000
0000
0010
1000
,  // measure 43
0010
1000
0001
0100
0002
0000
1003
0100
,  // measure 44
0001
0100
1000
0001
0100
0000
0001
1000
,  // measure 45
0100
1000
0001
1000
0001
0000
0110
0000
,  // measure 46
2100
0000
0000
0000
3001
0000
0000
0000
0100
0000
0001
0000
0100
0000
0010
1000
,  // measure 47
0010
1000
0100
0010
0002
0000
1003
0010
,  // measure 48
0001
0000
0010
0000
2000
0000
0000
0000
3001
0000
0010
0000
0100
0000
0010
0001
,  // measure 49
0010
0100
1000
0001
0200
0000
0310
1000
,  // measure 50
0001
1000
0020
0000
1030
0100
0010
0001
,  // measure 51
1100
0000
0011
0000
0100
0001
1000
0010
,  // measure 52
1010
0000
0000
0000
0101
0000
0000
0000
1000
0000
0100
0000
0010
0000
0001
1000
,  // measure 53
0001
0010
0100
1000
0002
0000
0000
0000
,  // measure 54
2003
0000
0000
0000
3001
0000
0000
0000
0010
0000
0000
0010
0001
0000
0000
0001
,  // measure 55
1000
0000
0000
1000
0010
0000
0000
0001
0010
0000
0000
1000
0100
0000
0000
0001
,  // measure 56
0100
0000
0000
1000
0001
0000
0000
0001
0100
0000
0000
0100
0010
0000
0000
0010
,  // measure 57
1000
0000
0000
1000
0001
0000
0000
0100
0001
0000
0000
0010
0001
0000
0000
1000
,  // measure 58
0100
0000
0000
0100
1000
0000
0000
1000
0001
0000
0000
0001
1000
0000
0000
1000
,  // measure 59
0010
0000
0000
0010
0100
0000
0000
1000
0100
0000
0000
0001
0100
0000
0000
1000
,  // measure 60
0010
0000
0000
0001
0010
0000
0000
1000
0001
0000
0000
0100
0010
0000
0000
0010
,  // measure 61
0100
0000
0000
0001
1000
0000
0000
1000
0001
0000
0000
0000
0110
0000
0000
0000
,  // measure 62
1000
0001
1000
0000
0001
0100
0000
0100
,  // measure 63
0000
0010
1000
0010
0000
1000
0000
1000
,  // measure 64
0000
0001
1000
0110
0000
0001
0000
0001
,  // measure 65
0000
0100
0001
0100
0000
0010
0000
0010
,  // measure 66
0000
1000
0100
0010
0001
1000
0000
1000
,  // measure 67
0000
0010
1000
0010
0000
0100
0000
0100
,  // measure 68
0000
0001
0100
0001
0000
0010
0000
0010
,  // measure 69
0000
0010
0001
0010
0000
0001
0000
0001
,  // measure 70
0000
1000
0010
0100
1001
0000
0110
0000
,  // measure 71
0110
1001
0011
1100
,  // measure 72
0001
1000
0010
0000
1010
0000
0101
0000
,  // measure 73
1000
0001
0010
0000
1000
0100
0001
0000
,  // measure 74
1000
0010
0001
0000
1000
0100
0010
0001
,  // measure 75
0100
1000
0100
0001
1000
0010
1000
0010
,  // measure 76
0100
0001
0100
0001
1000
0100
0001
0100
,  // measure 77
1000
0001
0100
0010
1100
0000
0101
0000
,  // measure 78
0011
1010
1001
0000
;

//---------------dance-single - ----------------
#NOTES:
     dance-single:
     :
     Challenge:
     10:
     0.777,1.000,0.416,0.416,0.416: // measure 1
0000
0000
0000
0000
,  // measure 2
0000
0000
0000
0000
,  // measure 3
0000
0000
0000
0000
,  // measure 4
0000
0000
0000
0000
,  // measure 5
1001
0000
0000
0000
0110
0000
0000
0000
0001
0010
0001
0000
1000
0000
0100
0000
,  // measure 6
1000
0000
0000
0000
1001
0000
0000
0000
0100
0010
0100
0000
0001
0000
1000
0000
,  // measure 7
0010
0000
0000
0000
0110
0000
0000
0000
0001
0100
0001
0100
0001
0000
1000
0000
,  // measure 8
0002
0000
0020
0030
0200
0300
2000
3003
,  // measure 9
1000
0000
0100
0000
0001
0000
0100
1000
0100
0000
0010
0000
0001
0000
1000
0000
,  // measure 10
1001
0000
0001
0000
1000
0000
0010
0100
0010
0000
1000
0000
0100
0000
0010
0000
,  // measure 11
0110
0000
0100
0000
0010
0000
0001
1000
0001
0000
0100
0000
0010
0000
1000
0000
,  // measure 12
1001
0000
0001
0000
0010
0000
0001
0100
0001
0000
1000
0000
0010
0000
0100
0000
,  // measure 13
0110
0000
1000
0100
0011
0000
0001
0100
,  // measure 14
1010
0000
1000
0010
0101
0000
0001
0100
,  // measure 15
1010
0000
0001
0010
0001
0000
0010
0100
0010
0000
0100
1000
0100
0000
1000
0001
,  // measure 16
2000
3001
0120
0130
,  // measure 17
2001
0000
0000
0000
0000
0000
0000
0000
3010
0000
0000
0000
0100
0000
0000
0000
0102
0000
0000
0000
0000
0000
0013
0000
0100
0000
0000
0000
1000
0000
0000
0000
0201
0000
0000
0000
0000
0000
0301
0010
0001
0000
0000
0000
0100
0000
0000
0000
0120
0000
0000
0000
0000
0000
1030
0000
0001
0000
0000
0000
0100
0000
0000
0000
,  // measure 18
1020
0000
0000
0000
0000
0000
0000
0000
0130
0000
0000
0000
0001
0000
0000
0000
2100
0000
0000
0000
0000
0000
3010
0100
0010
0000
0000
0000
0100
0000
0000
0000
1002
0000
0000
0000
0000
0000
1003
0000
0010
0000
0000
0000
0100
0000
0000
0000
0210
0000
0000
0000
0000
0000
0310
1000
0010
0000
0000
0000
0100
0000
0000
0000
,  // measure 19
0001
0000
1000
0000
0010
0000
0100
0001
0100
0000
0010
0000
1010
0000
0000
0000
,  // measure 20
0001
0000
1000
0000
0100
0000
1000
0010
1000
0000
0001
0000
1100
0000
0000
0000
,  // measure 21
1000
0000
0001
0000
0010
0000
0001
0100
0001
0000
1000
0000
0101
0000
0000
0000
,  // measure 22
1000
0000
0010
0000
1000
0000
0100
0001
0100
0000
1000
0000
0011
0000
0000
0000
,  // measure 23
1000
0000
0010
0100
0010
0000
1000
0000
0101
0000
0000
0000
1010
0000
0000
0000
,  // measure 24
0100
0000
0001
1000
0001
0000
0100
0000
0011
0000
0000
0000
1100
0000
0000
0000
,  // measure 25
0001
0000
0010
1000
0010
0000
0001
0000
1000
0000
0010
0001
0010
0000
1000
0000
,  // measure 26
0001
0010
0001
0100
0010
1000
0100
1000
,  // measure 27
0002
0000
0000
0000
0000
0000
1003
0100
1000
0000
0000
0000
0001
0000
0000
0000
0200
0000
0000
0000
0000
0000
0301
0000
0010
0000
0000
0000
1000
0000
0000
0000
,  // measure 28
0020
0000
0000
0000
0000
0000
0031
1000
0001
0000
0000
0000
1000
0000
0000
0000
2000
0000
0000
0000
0000
0000
3001
0000
0100
0000
0000
0000
0010
0000
0000
0000
,  // measure 29
1000
0000
0100
0000
0020
0000
0000
0030
0001
0100
0001
0000
0200
0000
0000
0000
0310
0000
1000
0000
0002
0000
0000
0000
1003
0100
1000
0000
0020
0000
0000
0000
,  // measure 30
1030
0000
0100
0000
0010
0000
0001
0000
1000
0000
0010
0100
0010
0000
1000
0000
0001
0000
0100
0000
0010
0000
1000
0000
0001
0000
0100
0010
0100
0000
0001
0000
,  // measure 31
1000
0000
0100
0000
0010
0000
0100
1000
0001
0000
0010
0000
0001
0000
0010
0000
,  // measure 32
0100
0000
0001
0000
1000
0000
0001
0010
0001
0000
1000
0000
0100
0000
0010
0000
,  // measure 33
0001
0000
0100
0000
0010
0000
1000
0010
0100
0000
0010
0000
0100
0000
0001
0000
,  // measure 34
1000
0000
0010
0000
0001
0000
0010
1000
0100
0000
0010
0000
0001
0000
0100
0000
,  // measure 35
0010
0000
1000
0100
1000
0000
0001
0000
0010
0000
0001
0100
0001
0000
1000
0000
,  // measure 36
0100
0000
0010
0001
0010
0000
0001
0000
0100
0000
0010
1000
0010
0000
1000
0000
,  // measure 37
0001
0000
0100
0010
0100
0000
0001
1000
0001
0000
1000
0001
1000
0000
0010
0100
,  // measure 38
0020
0000
0000
0030
1001
0000
0110
0000
2200
0000
0000
0000
3300
0000
0001
0010
,  // measure 39
0001
0100
0010
0100
0010
1000
0001
1000
,  // measure 40
0010
0000
0000
0000
0101
0000
0000
0000
0022
0000
0000
0000
0033
0000
0100
0001
,  // measure 41
0100
0010
1000
0100
0001
0100
1000
0001
,  // measure 42
0100
0000
0000
0000
1010
0000
0000
0000
0002
0000
0000
0000
1003
0000
0010
0100
,  // measure 43
0010
0000
1000
0000
2000
0000
0000
0000
3020
0000
0000
0000
0130
0000
0001
1000
,  // measure 44
0001
0010
0020
0000
0230
0000
2300
0000
,  // measure 45
3002
0000
0023
0000
0031
0100
1000
0100
,  // measure 46
0001
0000
0100
0000
0010
0000
1000
0000
2020
0000
0000
3030
0001
0000
1000
0100
,  // measure 47
1000
0000
1001
0000
0100
0001
1000
0010
,  // measure 48
1000
0000
0001
0000
0100
0000
0001
0000
0202
0000
0000
0303
1000
0000
0010
0100
,  // measure 49
0010
0000
0110
0000
0001
1000
0100
0010
,  // measure 50
0100
0000
1000
0000
0001
0000
1000
0000
0011
0000
0000
0000
1000
0000
0001
0100
,  // measure 51
0001
0000
0101
0000
0101
0000
0000
0000
1100
0000
0000
0000
0010
0000
1000
0010
,  // measure 52
1000
1010
1010
0000
0001
0010
0100
1000
,  // measure 53
0001
0010
0100
2000
0002
0000
3003
0000
,  // measure 54
0110
0000
0000
0000
1001
0000
0000
0000
0110
0000
1000
0100
1000
0000
0100
0010
,  // measure 55
0100
0000
0010
0001
0010
0000
0001
1000
0001
0000
1000
0010
1000
0000
0010
0100
,  // measure 56
0010
0000
0100
0001
0100
0000
0010
0100
0010
0000
1000
0010
0100
0000
0010
0100
,  // measure 57
0001
0000
0010
0001
1000
0000
0001
1000
0010
0000
1000
0001
0100
0000
0010
1000
,  // measure 58
0001
0000
0100
0001
0010
0000
0100
1000
0010
0000
1000
0100
1000
0000
0001
0100
,  // measure 59
0001
0000
1000
0010
1000
0000
0001
0010
0001
0000
1000
0100
0010
0000
0100
0010
,  // measure 60
0001
0000
1000
0001
0010
0000
0100
1000
0001
0000
1000
0001
1000
0000
0001
0000
,  // measure 61
0100
0010
1000
0002
0200
0000
0303
0000
,  // measure 62
1001
0000
0110
0000
1000
0100
0000
1001
,  // measure 63
0000
0010
0001
0010
0000
0002
0000
0103
,  // measure 64
0000
0100
0010
0100
0000
0011
0000
1000
,  // measure 65
0000
0001
1000
0020
0000
2030
0000
3100
,  // measure 66
0000
0010
0001
0200
0000
0310
0000
1100
,  // measure 67
0000
0001
0100
0001
0000
0200
0000
0301
,  // measure 68
0000
1000
0100
0010
0000
0002
0000
0103
,  // measure 69
0000
1000
0010
0100
0000
0001
0000
1000
,  // measure 70
0000
0010
1000
0001
0200
0000
0301
0000
,  // measure 71
2000
0000
3010
0000
0002
0100
0103
0000
,  // measure 72
2000
0010
3010
0000
0001
0010
1000
0010
,  // measure 73
0001
1000
0100
0001
0100
1000
0001
0010
,  // measure 74
0100
0000
1000
0000
0100
0000
0010
0000
0001
0000
1000
0000
0100
0000
1000
0001
,  // measure 75
1000
0000
0100
0000
1000
0000
0001
0000
0010
0000
0001
0000
1000
0000
0010
0100
,  // measure 76
0010
0000
1000
0000
0001
0000
0010
0000
0001
0000
1000
0100
1000
0000
0001
0000
,  // measure 77
1000
0000
0001
0100
0001
0000
1000
0000
0020
0000
0000
0000
1000
0000
0000
0000
,  // measure 78
0001
0130
1001
0000
;
