#TITLE:天上の星;
#SUBTITLE:~黎明記~;
#ARTIST:TËЯRA;
#TITLETRANSLIT:Tenjo no Hoshi;
#SUBTITLETRANSLIT:~Reimeiki~;
#ARTISTTRANSLIT:TERRA;
#GENRE:;
#CREDIT:Telperion;
#BANNER:Tenjo no Hoshi-bn.png;
#BACKGROUND:Tenjo no Hoshi.png;
#LYRICSPATH:;
#CDTITLE:;
#MUSIC:Tenjo no Hoshi.ogg;
#OFFSET:-1.814;
#SAMPLESTART:40.637;
#SAMPLELENGTH:29.647;
#SELECTABLE:YES;
#DISPLAYBPM:85.000:170.000;
#BPMS:0.000=85.000,38.000=170.000,140.000=85.000,156.000=170.000;
#STOPS:;
#BGCHANGES:;
#KEYSOUNDS:;

//---------------dance-single - Telperion----------------
#NOTES:
     dance-single:
     Telperion:
     Challenge:
     8:
     0.520,0.671,0.338,0.089,0.104:
0000
0000
0000
0000
,
0000
0000
0000
0000
,
0000
0000
0000
0000
,
0000
0000
0000
0000
0000
0000
0000
0000
0000
0000
0001
1000
0001
0000
0001
0000
,
1000
0000
0100
0000
0001
0100
0010
0000
,
0001
0000
0000
0000
1000
0000
0001
0000
0100
0000
0010
0000
0001
0000
0001
0010
,
1000
0000
1000
0100
1000
0000
0001
0000
,
0101
0000
1010
0000
0110
0010
1000
0100
,
0010
0100
0010
0100
1000
0001
0010
0000
0001
1000
0001
1000
0010
0100
0001
0000
,
1000
0100
0010
0001
0100
0010
1000
0100
0020
0000
0000
0000
0000
0000
0000
0000
,
0000
0030
0110
0110
,
1000
0100
0010
0000
0002
1000
0003
2000
,
0000
3000
0001
0100
0010
0000
0110
0000
,
1000
0010
0110
0000
0001
1000
0100
0010
,
0001
0100
0010
0100
0001
0000
1000
0001
,
0100
0010
0100
1000
0100
0000
0010
0100
,
0100
0000
0001
0100
0001
0000
0011
0000
,
1000
0000
1010
0000
1001
0100
0010
0001
,
1000
0010
0100
0001
1000
0000
1000
0100
,
1000
0000
1100
0000
2001
0000
3001
0200
,
0001
0300
0100
0010
0100
0000
0001
0000
,
0010
0110
1001
0011
,
1000
0100
0011
0000
0001
0100
0001
0100
,
0010
1000
0100
0010
0001
0100
1000
0001
,
0010
0100
1000
0001
0010
0100
0010
0100
,
0001
0100
0001
1000
0100
1000
0001
0010
,
0001
1000
0010
1000
0001
0000
1000
0001
,
0001
0101
0110
0000
,
0200
0000
0320
0000
1030
0000
0001
1000
,
1000
0000
0100
0010
0011
0000
0000
0000
,
0002
0000
0203
0000
0301
1000
0100
0010
,
0001
0010
0100
1000
0001
0000
0000
0000
,
0101
0000
0110
0000
1000
0001
0100
0010
,
1000
0100
0001
0100
1000
0000
0001
1000
,
0001
0000
0000
0000
0100
0100
0000
0100
,
0100
0000
0000
0000
0001
0000
0000
0000
1000
0000
0000
0000
1000
0000
0000
0100
,
0000
0000
0010
0000
0001
0000
0100
0010
0000
0010
1000
0000
0010
0000
0000
1000
,
0100
1000
0100
0010
0001
0000
0000
0001
0100
0001
0100
0010
1000
0000
0000
0000
,
0100
0001
0010
0000
0001
0100
1000
0000
,
1001
0000
1001
0000
0110
0000
0001
0100
,
1000
0000
0110
0000
0101
0001
0000
0100
,
0100
0000
0110
0000
1010
0000
1000
0010
,
1000
0000
1001
0000
0110
0000
0000
0010
,
0001
0100
0010
1000
0100
0000
1000
0100
,
0100
0000
1000
0001
0100
0000
0001
0100
,
0100
0010
0001
0100
,
1000
0010
0001
1000
,
0010
0000
0001
0000
1000
0000
0100
1000
,
0001
0000
0001
0100
0010
0100
0001
0010
,
0001
0000
0100
0000
1000
0000
1000
0100
,
0001
0100
0010
0000
1000
0010
0100
0001
,
1000
0100
0010
0001
0100
0000
0101
0000
,
1000
0100
1000
0000
0011
0000
1100
0000
,
0001
1000
0100
0000
1000
0001
0100
0001
,
0010
0100
1000
0010
1000
0100
0010
0001
,
0100
0001
1000
0100
0010
0000
0001
0001
,
1000
1001
0000
0000
;

//---------------dance-single - Telperion----------------
#NOTES:
     dance-single:
     Telperion:
     Hard:
     7:
     0.396,0.559,0.268,0.159,0.025:
0000
0000
0000
0000
,
0000
0000
0000
0000
,
0000
0000
0000
0000
0000
1000
1000
0000
,
0000
0000
0000
0000
0000
0001
0001
0000
,
0110
0100
0010
0010
,
1000
0100
0001
0010
,
0001
0000
0000
0000
0001
0000
0100
0000
1000
0000
0000
0001
0000
0000
1000
0000
,
0001
0100
0010
0000
,
0110
0000
0000
0010
0100
0000
0001
0000
0010
0001
0010
0000
0001
1000
0001
0000
,
1000
0000
0100
1000
0001
0000
0100
0000
2002
0000
0000
0000
0000
0000
0000
0000
,
3003
0000
1001
0100
,
1001
0000
0100
0000
0010
0000
0100
0001
,
0010
0000
0100
1000
0001
0000
0100
0000
,
1000
0000
1100
0000
0101
0000
0000
0001
,
0000
0001
1000
0100
1000
0000
0000
1000
,
0000
1000
0001
0100
0001
0000
0001
0010
,
0001
0100
0010
0001
,
0100
1000
0010
1000
,
0100
0000
0010
0000
0001
0000
0001
1000
,
0001
0000
1000
0000
0100
0000
0010
0100
,
0010
0000
0010
0100
1000
0000
0001
1000
,
0001
1001
0110
0000
,
0001
0000
1000
0000
0001
0010
0100
1000
,
0001
0000
1000
0001
0010
0001
0100
0010
,
1000
0000
0001
1000
0001
0010
0100
1000
,
0001
0010
0100
1000
0001
0100
0010
1000
,
0100
0010
0100
0010
0200
0000
0300
0000
,
0100
1000
0001
0101
,
2002
3003
1001
0010
,
0011
0100
1100
0000
,
2002
3003
0100
0001
,
0101
0000
0010
0000
1100
0000
0001
1000
,
0002
0000
0003
0000
1000
0100
1000
0000
,
0001
0100
0001
0000
2000
0000
0000
0000
,
3002
0000
0000
0000
0103
0000
0000
0100
,
0000
0002
0000
2003
,
0000
3200
0000
0310
,
0010
0100
1000
0000
1000
0100
0001
0000
,
0001
0100
0010
0000
0001
0000
0200
0000
,
0020
0330
0110
0010
,
1010
0000
1000
0001
1000
0000
0100
0000
,
0100
0000
0000
1000
0001
0000
0000
0100
,
0000
0010
0100
0001
,
0010
0001
1000
0100
,
0001
0100
1000
0010
,
0001
0010
1000
1010
,
0001
0000
0011
0000
0110
0000
0100
1000
,
0001
0010
0100
1000
0002
0000
0000
0000
,
0000
0000
0000
0000
1003
0000
0001
1000
,
0000
1000
0001
0000
0100
0000
0010
0100
,
0001
0010
0100
0000
,
0000
0000
1000
0001
,
0101
0001
1000
1100
,
0010
0011
0101
0010
,
1100
0010
0001
0100
,
1000
0000
0010
0000
0001
0000
1000
1000
,
0000
1000
0000
0000
;

//---------------dance-single - Telperion----------------
#NOTES:
     dance-single:
     Telperion:
     Medium:
     5:
     0.274,0.307,0.089,0.050,0.000:
0000
0000
0000
0000
,
0000
0000
0000
0000
,
0000
0000
0000
0000
,
0000
0000
0000
0000
,
1000
0000
0001
0000
0100
0000
0001
0010
,
0100
0000
1000
0100
0010
0100
1000
0000
,
0001
0100
0001
0100
,
0010
0000
1000
0100
0010
0001
0100
0010
,
1000
0000
0000
0000
0001
0100
0010
1000
,
0001
1000
2002
0000
,
3003
0000
0001
1000
,
0100
0010
0001
0010
,
0100
1000
0010
0100
,
0001
1000
0001
0000
,
1000
0100
0001
0000
,
0100
0010
0001
0000
,
0100
0010
1000
0001
,
0100
0001
0010
0000
,
0100
1000
0001
0100
,
0010
0100
1000
0100
,
0010
0000
1000
0100
,
0001
0100
1000
0000
,
1001
0000
0011
0000
,
0001
0000
1010
0000
,
1000
0000
0011
0000
,
1010
0000
1001
0000
,
0110
0000
0000
0000
0100
0000
0010
1000
,
0010
0100
0001
0000
,
0020
0000
0000
0000
0031
0000
0010
0001
,
0010
0001
0100
0000
,
0000
0000
0000
0000
0001
0000
1000
0100
,
1000
0100
1000
0000
,
0200
0000
0000
0000
0310
0000
0001
0010
,
0001
0000
0010
0001
0010
0000
0000
0000
,
0000
0000
1000
0000
,
0001
0000
0100
0000
,
0100
0010
0100
0001
,
1000
0100
0000
0100
,
0000
0100
1000
0001
,
1001
0000
1000
0001
,
0100
0010
0100
0001
,
0010
0001
0100
0010
,
1000
0100
0010
0000
,
0100
1000
0001
0010
,
0001
0010
0100
1000
,
0100
1000
0001
0100
,
0010
1000
0100
0001
,
0100
1000
0001
0000
,
0001
1000
0001
0000
,
0100
0010
0100
0000
,
1000
0100
0001
0000
,
1000
0100
0001
0000
,
0100
0010
0100
0000
,
1000
0001
0100
0010
,
1000
0100
0010
0001
,
0100
0010
0200
0300
,
0000
0100
0000
0000
;

//---------------dance-single - Telperion----------------
#NOTES:
     dance-single:
     Telperion:
     Easy:
     3:
     0.129,0.193,0.030,0.010,0.000:
0000
0000
0000
0000
,
0000
0000
0000
0000
,
0000
0000
0000
0000
,
0000
0000
0000
0000
,
1000
0000
0000
0000
,
0001
0000
0000
0000
,
0100
0000
0000
0000
,
1000
0000
0100
0000
,
0001
0000
1000
0000
,
0001
0000
1001
0000
,
0000
0000
1000
0000
,
0000
0000
0100
0000
,
0000
0000
1000
0000
,
1000
0000
1000
0000
,
0000
0000
0001
0000
,
0000
0000
0100
0000
,
0000
0000
0010
0000
,
0010
0000
0010
0000
,
0000
0000
0100
0000
,
0100
0000
0010
0000
,
0010
0000
0100
0000
,
0010
0000
0110
0000
,
0000
0000
1000
0000
,
0100
0000
0010
0000
,
0001
0000
1000
0000
,
0010
0000
0100
0000
,
0001
0000
0001
0000
,
0000
0000
1000
0000
,
0000
0000
1000
0000
,
0000
0000
0001
0000
,
0000
0000
0001
0000
,
0010
0000
0100
0000
,
0000
0000
1000
0000
,
0010
0000
0100
0000
,
0000
0000
0001
0000
,
0001
0000
0000
1000
,
0000
0001
1000
0100
,
0000
1000
0000
1000
,
0000
0001
1000
0001
,
0000
0000
1000
1000
,
1000
0000
1000
1000
,
1000
0000
0100
0000
,
0010
0000
0001
0000
,
0000
0000
0001
0000
,
0001
0000
0100
0000
,
0100
0000
0010
0000
,
1000
0000
0010
0010
,
0010
0010
0020
0000
,
0000
0000
0030
0000
,
0000
0000
0100
0000
,
0001
0000
0010
0000
,
0000
0000
0100
0000
,
1000
0000
0001
0000
,
0100
0000
0010
0000
,
1000
0000
0100
0000
,
0010
0000
1001
0000
;

//---------------dance-double - Telperion----------------
#NOTES:
     dance-double:
     Telperion:
     Hard:
     7:
     0.368,0.531,0.189,0.089,0.020:
00000000
00000000
00000000
00000000
,
00000000
00000000
00000000
00000000
,
00000000
00000000
00000000
00000000
00000000
00010000
00010000
00000000
,
00000000
00000000
00000000
00000000
00000000
00001000
00001000
00000000
,
00001100
00000001
00000010
00001000
,
00010000
00000000
00000100
00000000
00001000
00000100
00000001
00000000
,
00000100
00001000
00000001
00000000
00000100
00001000
00010000
00000000
,
01000000
00100000
00001000
00000010
,
00000001
00000000
00000010
00000000
00000001
00000000
00000010
00000001
00001000
00000000
00000100
00000000
00010000
00001000
00100000
00010000
,
00100000
00000000
00010000
10000000
01000000
00000000
00010000
00000000
00021000
00000000
00000000
00000000
00000000
00000000
00000000
00000000
,
00031000
00000000
00001000
00000000
01000000
00000000
00010000
01000000
,
00100000
01000000
00010000
00000000
10000000
00000000
01000000
00000000
,
00010000
00000000
00001000
00000000
00000100
00000000
00000010
00000100
,
00000001
00000100
00000010
00000000
00000110
00000000
00000000
00000000
,
00000001
00000010
00001000
00000000
00010000
00000000
00001000
00000000
,
00001000
00100000
00010000
00000000
10000000
00000000
00010000
00000000
,
01000000
00001000
00010000
00000000
00001000
00000000
00000100
00000000
,
00000010
00001000
00100000
00000000
,
01000000
00100000
01000000
00100000
10000000
00000000
01000000
10000000
,
00010000
01000000
01010000
00001000
,
00011000
00000000
00100000
00000000
01000000
00000000
10000000
01000000
,
00000000
00010000
00001000
00000000
00011000
00000000
00000000
00000000
,
00000100
00000100
00001000
00001100
,
00000001
00000100
00001000
00000000
00010000
00000000
00011000
00000000
,
00100000
01000000
10000000
00000000
01000000
00000000
00100000
00000000
,
00010000
00001000
00000100
00000010
,
00000001
00000000
00000000
00000000
00000001
00000010
00000001
00000010
,
00000100
00001000
00000100
00010000
00001000
00000000
00000000
00000000
,
00000000
00000000
00000000
00000000
00001000
00010000
00001000
00100000
,
00010000
00100000
01000000
10000000
01000000
00000000
00000000
00000000
,
00000000
00000000
00000000
00000000
10000000
00000000
10000000
01000000
,
00010000
00011000
00010100
00000000
,
00000000
00000000
00000000
00000000
00000001
00000100
00000001
00000100
,
00001000
00010000
00011000
00000000
,
00000000
00000000
00000000
00000000
00001000
00010000
00000000
00001000
,
00010000
00002000
00000000
02003000
,
00000000
03100000
00010000
00001000
,
00000100
00000002
00000013
00002000
,
00013000
00001000
00000100
00000000
00000010
00000100
00001000
00000000
,
00010000
00000000
00000000
00000000
00011000
00000000
00001000
00010000
,
00001000
00000000
00100000
00000000
01000000
00000000
00000000
01000000
,
00000000
01000000
10000000
01000000
,
00010000
00000100
00000010
00000000
,
00000001
00001000
00000001
00000001
,
00000100
00000100
00001000
00001000
,
00010000
01000000
10000000
00100000
,
00010000
00001000
00000200
00000001
,
00000001
00000000
00000301
00000000
00000100
00000000
00000001
00000100
,
00000001
00000000
00000010
00000000
00000100
00000000
00001000
00000100
,
00010000
00000000
00001000
01000000
00020000
00000000
00000000
00000000
,
00030200
00000000
00000302
00000000
,
00000003
00000000
00000001
00000011
,
00000010
00001000
00010000
00011000
,
00010000
00100000
01000000
01010000
,
00100000
01100000
10000000
10010000
,
00100000
00000000
00101000
00000000
00011000
00000000
00010000
00010000
,
00000000
00010000
00000000
00000000
;

//---------------dance-double - Telperion----------------
#NOTES:
     dance-double:
     Telperion:
     Challenge:
     8:
     0.504,0.671,0.328,0.109,0.099:
00000000
00000000
00000000
00000000
,
00000000
00000000
00000000
00000000
,
00000000
00000000
00000000
00000000
00000000
00000000
00000000
00000000
00000000
00000000
10000000
00010000
10000000
00000000
00000000
00000000
,
00000000
00000000
00000000
00000000
00000000
00000000
00000000
00000000
00000000
00000000
00001000
00010000
00001000
00000000
00001000
00000000
,
00011000
00000000
00000100
00001000
00000001
00000000
00000100
00000020
,
00001000
00000000
00010030
00001000
00000100
00000100
00000100
00000000
,
00001000
00000000
00010000
00002000
01000000
00000000
00103000
01000000
,
00010000
00000000
00001000
00000000
00000010
00000000
00000001
00000100
,
00000010
00000100
00000010
00000000
00001000
00000010
00001000
00000000
00000010
00000100
00000010
00001000
00000100
00010000
00001000
00000000
,
00010000
00000100
00100000
00001000
10000000
00010000
00100000
00000000
20020000
00000000
00000000
00000000
00000000
00000000
00000000
00000000
,
00000000
00000000
30030000
00000000
10010000
00000000
10000000
01000000
,
00100000
00000000
00000000
00000000
00100000
00000000
00000000
00000000
01000000
00100000
00000000
00000000
00000000
00000000
10000000
00100000
,
00000000
00010000
01000000
01100000
,
00010000
01000000
00100000
00000000
00100000
01000000
00010000
00100000
,
00001000
00010000
00000100
00000000
00001000
00000000
00000011
00000000
,
00001000
00000100
00000010
00000000
00000001
00000000
00000101
00000000
,
00001000
00000100
00001000
00000000
00000001
00000100
00000001
00000010
,
00000001
00000000
00001000
00000100
00010000
00000000
00011000
00000000
,
00001000
00010000
01000000
00100000
00010000
00000000
10000000
00010000
,
10000000
00000000
00000000
00000000
10100000
00000000
00000000
00000000
10000000
00010000
00000000
00000000
00000000
00000000
10000000
01000000
,
00000000
00000000
01000000
00010000
00001000
00000000
00011000
00000000
,
00000100
00001000
00000001
00000000
00000100
00000000
00000110
00000000
,
00000100
00000001
00000001
00000000
00000010
00000001
00000100
00000010
,
00010000
00001000
00100000
01000000
10000000
00100000
01000000
00001000
,
00010000
00000100
00010000
00001000
01000000
00000000
01010000
00000000
,
00001000
00000000
00011000
00000000
01000000
10000000
01000000
00100000
,
00001000
00010000
00100000
00000000
00100000
01000000
00010000
00100000
,
00001000
00010000
00010100
00000000
00002010
00000000
00000000
00000000
,
00003001
00000000
00000001
00000000
00000010
00000100
00001000
00000010
,
00010000
00001000
00100000
01000000
20000000
00000000
30000000
00000000
,
00110000
00000000
11000000
00000000
10000000
00010000
01000000
00001000
,
00001000
00100000
00001000
00000000
00012000
00000000
00000000
00000000
,
00003100
00000000
00000001
00000000
00000011
00000000
00000001
00001000
,
00001100
00000000
00010100
00000000
00011000
00000000
00001000
00010000
,
00000100
00010000
00001000
00100000
01000000
01000000
00000000
01000000
,
01000000
00000000
00000000
00000000
20000000
00000000
00000000
00000000
30000000
00000000
00000000
00000000
00010000
00000000
00000000
00001000
,
00000000
00000000
00000100
00000000
00000010
00000000
00000000
00000100
00010000
00000000
00001000
00000000
00010000
00000000
00000000
00000000
,
00001000
00010000
00110000
00000000
01000000
00100000
01010000
00000000
,
10000000
01000000
00010000
00000000
00001000
00000100
00000001
00000000
,
00001000
00000000
00000001
00000000
00001001
00000000
00000001
00000100
,
00000001
00000000
00000000
00000000
00001000
00000000
00000100
00000000
00000001
00000100
00000000
00000000
00000000
00000000
00001000
00000100
,
00000000
00000000
00010000
00000100
00001000
00000000
00001100
00000100
,
00010000
00011000
00000100
00001100
,
00010000
00001000
01001000
00000000
00001000
00010000
00001000
00100000
,
00010000
00000000
01000000
00000000
00100000
00000000
00010000
00000000
00001000
00010000
00000000
00000000
00000000
00000000
00010000
00000010
,
00000000
00000000
00000101
00000000
00000001
00000100
00000010
00000000
,
00001000
00000100
00000010
00000000
00000100
00010000
00001000
00100000
,
00010000
10000000
01000000
00010000
00001000
00000000
01001000
00000000
,
00100000
00010000
01000000
00010000
00200000
00000000
00000000
20300000
,
00000000
00000000
30100000
00000000
00002000
00000000
00003000
00010000
,
00001000
00000000
00000100
00000000
00000001
00000100
00001000
00000000
,
00010000
00001000
00010000
00000000
00000100
00000000
00010100
00000000
,
00000100
00010000
00001000
01000000
00010000
00000000
01010000
00000000
,
00100000
01000000
10000000
00000000
00010000
00100000
00001000
00000000
,
00001000
00000010
00000001
00000000
00000001
00000010
00000100
00001000
,
00010000
00100000
01000000
00100000
00010000
00000000
10000000
10000000
,
00000000
00011000
00000000
00000000
;

//---------------dance-double - Telperion----------------
#NOTES:
     dance-double:
     Telperion:
     Medium:
     5:
     0.238,0.224,0.099,0.050,0.000:
00000000
00000000
00000000
00000000
,
00000000
00000000
00000000
00000000
,
00000000
00000000
00000000
00000000
,
00000000
00000000
00000000
00000000
,
10000000
01000000
10000000
00010000
,
01000000
00100000
00010000
00000000
,
00000100
00001000
00000100
00000010
,
00000001
00000000
00000100
00000000
,
00001000
00000000
00001000
00000000
,
00001000
00000100
00002002
00000000
,
00003003
00000000
00000001
00000010
,
00000001
00000000
00000100
00000000
,
00010000
00000000
01000000
00001000
,
00100000
01000000
10000000
00000000
,
10000000
00010000
01000000
00000000
,
01000000
00001000
00010000
00000000
,
00010000
00001000
00000100
00000010
,
00000100
00000001
00001000
00000000
,
00010000
10000000
02000000
00000000
,
03000000
00000000
10000000
00000000
,
10000000
01000000
00010000
00001000
,
00000100
00000001
00000010
00000000
,
00000001
00000010
00000001
00000001
,
00000100
00000000
00000001
00001000
,
00000100
00010000
00001000
00100000
,
00010000
00100000
01000000
00010000
,
00001000
00000000
00011000
00000000
,
00010100
00000000
00001100
00000000
,
00000000
00000000
00000011
00000000
,
00000101
00000000
00001010
00000000
,
00000000
00000000
00011000
00000000
,
00101000
00000000
00110000
00000000
,
00000000
00000000
10000000
01000000
,
00010000
00000100
00000010
00000000
,
00000000
00000000
00000002
00000000
,
00001003
00000000
00000000
00010000
,
00000000
00000000
00100000
00010000
,
00000000
10000000
00000000
01000000
,
10000000
00010000
10000000
00100000
,
01000000
00000000
00100000
01000000
,
00010000
00100000
01000000
00010000
,
00001000
00100000
00010000
00100000
,
00001000
00010000
00000100
00000000
,
00000100
00010000
00001000
00001000
,
00010000
00010000
01000000
10000000
,
01000000
00100000
00001000
00000000
,
00000100
00000000
00000001
00000100
,
00000100
00001000
00010000
00000000
,
00001000
00100000
00010000
00000000
,
10000000
00010000
01000000
00001000
,
00010000
00000100
00000020
00000000
,
00000030
00000000
00000001
00000100
,
00000001
00000100
00001000
00000100
,
00001000
00010000
00001000
00001000
,
00100000
00100000
00010000
10000000
,
01000000
00010000
00001000
00010000
,
00000000
00010000
00000000
00000000
;

//---------------dance-double - Telperion----------------
#NOTES:
     dance-double:
     Telperion:
     Easy:
     2:
     0.112,0.140,0.000,0.000,0.000:
00000000
00000000
00000000
00000000
,
00000000
00000000
00000000
00000000
,
00000000
00000000
00000000
00000000
,
00000000
00000000
00000000
00000000
,
00000100
00000000
00000100
00000000
,
00001000
00000000
00001000
00000000
,
00000001
00000000
00000000
00000000
,
00000100
00000000
00001000
00000000
,
00010000
00000000
00000000
00000000
,
00010000
00000000
00000000
00000000
,
00000000
00000000
00010000
00000000
,
00000000
00000000
00001000
00000000
,
00000000
00000000
00010000
00000000
,
00001000
00000000
01000000
00000000
,
00000000
00000000
00100000
00000000
,
00000000
00000000
01000000
00000000
,
00000000
00000000
00010000
00000000
,
00100000
00000000
01000000
00000000
,
00000000
00000000
10000000
00000000
,
00000000
00000000
01000000
00000000
,
00000000
00000000
00100000
00000000
,
00010000
00000000
00100000
00000000
,
00001000
00000000
00010000
00000000
,
00000000
00000000
00001000
00000000
,
00000000
00000000
00010000
00000000
,
00001000
00000000
00010000
00000000
,
00001000
00000000
00010000
00000000
,
00000000
00010000
00010000
00000000
,
00000000
00000000
00000100
00000000
,
00000000
00000100
00000100
00000000
,
00000000
00000000
00001000
00000000
,
00000000
00001000
00001000
00000000
,
00000000
00000000
00000010
00000000
,
00000010
00000000
00000010
00000000
,
00000000
00000000
00000100
00000000
,
00000000
00000000
00000000
00000001
,
00000000
00001000
00000000
00000100
,
00000000
00000010
00000000
00000010
,
00000000
00000100
00010000
00001000
,
00000000
00000000
00010000
00000000
,
00001000
00000000
00100000
00000000
,
00000000
00000000
00010000
00000000
,
00100000
00000000
01000000
00000000
,
00000000
00000000
10000000
00000000
,
10000000
00000000
00010000
00000000
,
00010000
00000000
01000000
00000000
,
00100000
00000000
01000000
00000000
,
00000000
00000000
00010000
00000000
,
00000000
00000000
10000000
00000000
,
00000000
00000000
01000000
00000000
,
00010000
00000000
00001000
00000000
,
00000000
00000000
00010000
00000000
,
00000000
00000000
00001000
00000000
,
00000000
00000000
00000100
00000000
,
00000001
00000000
00000010
00000000
,
00000100
00000000
00001000
00001000
,
00000000
00001000
00000000
00000000
;
