#TITLE:Counting Down the Days;
#SUBTITLE:;
#ARTIST:Italobrothers;
#TITLETRANSLIT:;
#SUBTITLETRANSLIT:;
#ARTISTTRANSLIT:;
#CREDIT:;
#BANNER:;
#BACKGROUND:;
#LYRICSPATH:;
#CDTITLE:;
#MUSIC:Counting Down the Days.mp3;
#OFFSET:-0.172;
#SAMPLESTART:56.280;
#SAMPLELENGTH:12.000;
#SELECTABLE:YES;
#BPMS:0.000=70.025,34.000=140.050,94.000=70.025,96.000=140.050;
#STOPS:;
#BGCHANGES:;

//---------------dance-single - ----------------
#NOTES:
     dance-single:
     :
     Challenge:
     7:
     0.509,0.521,0.024,0.989,0.218:
0000
0000
0000
0000
0000
0000
0000
0000
0000
0000
1000
0100
0010
0001
0100
0020
,
0000
2030
0000
3200
0000
0000
0000
0000
0000
0310
0001
0010
0200
0000
1300
0010
,
0200
0000
0000
0000
0000
0000
0000
0000
0000
0000
0301
0010
0100
0000
1000
0200
,
0000
0320
0000
0032
0000
0000
0000
0000
0000
0013
0100
1000
0200
0000
0310
0001
,
2000
0000
0000
0000
0000
0000
3010
0100
0002
0000
0013
0000
0100
0000
1000
0020
,
0000
0230
0000
0302
0000
0000
0000
0000
0000
0000
0103
0010
2000
0000
3010
0100
,
0002
0000
0000
0000
0000
0000
0000
0000
0000
0000
1003
0100
0010
0000
0001
0200
,
0000
0000
0320
0000
0000
0000
2030
0000
0000
0000
0000
0000
3010
0000
0100
0000
0001
0000
0000
0000
0100
0000
0010
0000
0000
0000
1000
0000
0000
0100
0000
0000
,
1000
0000
0000
0001
0010
0100
1000
0001
0011
0000
0000
0000
0200
0000
0000
0000
,
2300
0000
0010
0010
0000
0001
3002
0000
,
0103
0010
1000
0020
0000
0000
0000
0000
,
0130
0000
0000
0001
0000
0000
0010
0000
0200
0000
0000
0000
0000
0000
1300
0000
,
0010
0100
0001
0010
0200
0000
1300
0000
,
0002
1003
0020
1030
,
0100
0010
0001
2000
0000
3020
0000
0230
,
0000
0000
0000
0301
2000
0000
3002
0000
,
0103
0010
1000
0001
0002
0000
0023
0000
,
0230
0000
1300
2000
0000
3100
0200
0000
,
1300
0010
0100
0002
0000
0000
0000
0000
,
0013
0000
0000
0100
0000
0000
1000
0000
0002
0000
0000
0000
0000
0000
0103
0000
,
0010
1000
0010
0100
0002
0000
0023
0000
,
0230
0000
1300
2000
0000
0010
3020
0000
,
0000
0130
0001
0200
0000
0320
0000
2030
,
0000
0000
0000
0000
0000
0000
0000
0000
3001
0000
0100
0020
0000
2030
0000
3002
,
0000
0000
0000
1003
0100
0010
0001
0100
,
0020
0000
2030
0000
3020
0000
0130
0001
,
0200
0000
0320
0000
2030
0000
0000
3002
,
0000
0000
2003
0000
3200
0000
0301
0100
,
2000
0000
0000
3001
0010
0100
1000
0010
,
0002
0000
0023
0000
0230
0000
0301
0010
,
0200
0000
2300
0000
3020
0000
0000
0230
,
0000
0000
0302
0000
0203
0000
0310
1000
,
0010
0000
0100
0001
0010
0100
0010
0001
,
0020
0000
0032
0000
2003
0000
3010
0100
,
0002
0000
0203
0000
2300
0000
0000
3200
,
0000
0000
0001
0000
0301
0000
0100
0010
,
2000
0000
0000
3001
0100
0010
1000
0100
,
0020
0000
0230
0000
2300
0000
3010
0100
,
0002
0000
0203
0000
0320
0000
0000
2030
,
0000
3001
0010
0001
,
1000
1001
0000
0000
;

//---------------dance-single - Copied from----------------
#NOTES:
     dance-single:
     Copied from:
     Hard:
     8:
     0.484,0.474,0.424,0.071,0.218:
0000
0000
0000
0000
0000
0000
0000
0000
0000
0000
1000
0100
0010
0001
0100
0010
,
0000
1000
0000
0001
0000
0000
0000
0000
0000
0010
0100
1000
0100
0000
0100
0010
,
0001
0000
0000
0000
0000
0000
0000
0000
0000
0000
0010
0100
1000
0000
0010
0100
,
0000
0001
0000
0100
0000
0000
0000
0000
0000
0010
1000
0010
1000
0000
0100
0010
,
0001
0000
0000
0000
0000
0000
1000
0100
0010
0000
0001
0000
0010
0000
0100
1000
,
0000
0010
0000
1000
0000
0000
0000
0000
0000
0000
0100
0010
0001
0000
1000
0010
,
0100
0000
0000
0000
0000
0000
0000
0000
0000
0000
0001
0010
0001
0000
0010
0100
,
0000
0000
1000
0000
0000
0000
0001
0000
0000
0000
0000
0000
0010
0000
0100
0000
1000
0000
0000
0000
0100
0000
0010
0000
0000
0000
0010
0000
0000
0100
0000
0000
,
1000
0000
0000
0001
0010
0100
1000
0001
0011
0000
0000
0000
0100
0000
1000
0000
,
0100
0001
0100
0010
0001
0010
0100
1000
,
0010
0001
0010
0100
0001
0010
0100
1000
,
1000
0000
0000
0100
0000
0000
0010
0000
0001
0000
0000
0000
0000
0000
0001
0000
,
1000
0010
1000
0001
0100
0000
0101
0000
,
0001
0011
0010
0110
,
0100
0000
0110
0000
0010
0000
0001
0010
,
0100
1000
0100
0010
,
0001
0010
0001
1000
0001
0100
0001
0100
,
0010
1000
0001
1000
0010
1000
0010
0100
,
0001
0100
0001
1000
0001
0010
0100
1000
,
0010
0000
0000
0100
0000
0000
0001
0000
0011
0000
0000
0000
0000
0000
0100
0000
,
1000
0010
0100
0001
0010
0100
1000
0001
,
0010
0100
1000
0010
0001
0010
0100
0010
,
1000
0100
0010
0001
1000
0010
0001
0010
,
0100
0000
0001
0000
0010
0000
0100
0000
2000
0000
3100
0020
0000
0032
0000
2003
,
0000
0000
0000
3100
0010
0001
1000
0001
,
0011
0000
0110
0000
1100
0000
1000
0010
,
1010
0000
0110
0000
0101
0000
0000
1001
,
0000
0000
1100
0000
0110
0000
0001
0010
,
0011
0000
0000
0100
1000
0100
0010
0001
,
0011
0000
1100
0000
1010
0000
0100
0001
,
0101
0000
1100
0000
0011
0000
0000
0102
,
0000
0000
1000
0000
1003
0000
0100
0010
,
0001
0000
0010
0100
0010
0001
0010
0100
,
1000
0000
1100
0000
0110
0000
0010
0001
,
0101
0000
0110
0000
1010
0000
0000
2001
,
0000
0000
0100
0000
3100
0000
1000
0010
,
0100
0000
0000
0001
0100
0010
1000
0100
,
0010
0000
0011
0000
1100
0000
1000
0001
,
1001
0000
0101
0000
0101
0000
0000
1010
,
0000
0001
0010
0001
,
1000
1001
0000
0000
;

//---------------dance-single - ----------------
#NOTES:
     dance-single:
     :
     Medium:
     6:
     0.366,0.379,0.165,0.165,0.100:
0000
0000
0000
0000
0000
0000
0000
0000
0000
0000
1000
0000
0010
0000
0000
0100
,
0000
0001
0000
0100
0000
0000
0000
0000
0000
0000
0001
0000
0010
0000
0001
0000
,
1000
0000
0000
0000
0000
0000
0000
0000
0000
0000
0010
0000
0010
0000
0000
0100
,
0000
0001
0000
0100
0000
0000
0000
0000
0000
0000
0010
0000
1000
0000
0010
0000
,
1000
0000
0000
0000
0000
0000
1000
0000
0100
0000
0010
0000
0001
0000
0000
0010
,
0000
0001
0000
1000
0000
0000
0000
0000
0000
0000
0100
0000
0010
0000
0001
0000
,
0100
0000
0000
0000
0000
0000
0000
0000
0000
0000
0010
0000
1000
0000
0000
0100
,
0000
0010
0000
0001
0000
0000
0010
0000
0100
0000
1000
0000
0000
0000
0000
0000
,
0001
0000
0010
0100
1000
0000
0100
0000
,
0010
0000
0001
0100
0000
0010
1000
0000
,
0010
0100
0001
0100
0000
0000
0000
0000
,
0010
0000
0000
0010
0000
0000
0001
0000
0001
0000
0000
0000
0000
0000
0001
0000
,
1000
0010
1000
0001
0100
0000
0101
0000
,
0000
0011
0000
0110
,
0000
0000
0110
0000
0010
0000
0001
0010
,
0100
1000
0100
0010
,
0001
0010
0001
1000
0001
0000
0011
0000
,
0110
0000
1000
0010
0000
0010
0100
0000
,
0001
0100
0010
1000
0000
0000
0000
0000
,
0010
0000
0000
0100
0000
0000
0001
0000
0010
0000
0000
0000
0000
0000
0100
0000
,
1000
0000
0001
0010
0002
0000
0100
0000
,
1000
0003
0200
0010
0000
0320
1000
0000
,
0000
1030
0001
2000
0000
0100
0000
3020
,
0000
0000
0000
0000
0000
0000
0130
0000
0001
0000
0100
0010
0000
1000
0000
0010
,
0000
0000
0000
0100
0001
0100
0010
1000
,
0100
0000
1100
0000
0110
0000
0100
0010
,
0001
0000
1000
0000
0110
0000
0000
1001
,
0000
0000
1100
0000
0110
0000
0002
0010
,
0013
0000
0000
0100
1000
0100
0010
0001
,
1000
0000
0100
0000
0010
0000
0001
1000
,
0001
0000
0010
0000
0100
0000
0000
1002
,
0000
0000
0100
0000
0103
0000
0100
0010
,
0001
0000
0010
0100
0010
0001
0010
0100
,
2000
0000
3200
0000
0320
0000
0031
0100
,
0002
0000
0023
0000
0230
0000
0300
2000
,
0000
0000
0100
0000
3100
0000
1000
0010
,
0100
0000
0000
0001
0100
0010
1000
0100
,
0010
0000
0010
0000
0001
0000
0100
0010
,
1000
0000
0100
0000
0010
0000
0000
0100
,
0000
1000
0100
1000
,
0001
1001
0000
0000
;

//---------------dance-single - ----------------
#NOTES:
     dance-single:
     :
     Easy:
     4:
     0.266,0.284,0.094,0.082,0.000: // measure 1
0000
0000
0000
0000
,  // measure 2
1000
0000
0100
0000
,  // measure 3
0010
0000
0001
0000
,  // measure 4
0100
0000
0010
0000
,  // measure 5
1000
0000
0000
0000
0001
0100
0010
0000
,  // measure 6
1000
0010
0100
0000
0001
0010
0100
0000
,  // measure 7
1000
0100
0010
0000
0001
0100
0001
0000
,  // measure 8
1000
0010
0100
0000
0001
0000
0000
0000
,  // measure 9
1001
0000
1000
0100
1000
0000
0010
0000
,  // measure 10
0100
0001
0100
0010
,  // measure 11
1000
0100
0010
0000
,  // measure 12
0110
0000
1001
0000
,  // measure 13
0001
0010
0001
0001
,  // measure 14
0100
0100
0010
0010
,  // measure 15
1000
1000
0010
0010
,  // measure 16
0100
0100
0001
0010
,  // measure 17
0100
1000
0010
0100
,  // measure 18
0001
0100
0001
1000
,  // measure 19
0010
0100
0001
1000
,  // measure 20
1001
0000
0110
0000
,  // measure 21
0010
0100
0010
0001
,  // measure 22
0010
0100
1000
0010
,  // measure 23
0100
0001
0100
0010
,  // measure 24
1000
0001
1001
0000
,  // measure 25
0000
0000
0100
0010
,  // measure 26
0020
0031
0001
0100
,  // measure 27
0020
0000
1030
0000
0100
0000
0000
0200
,  // measure 28
0000
0310
0001
0100
,  // measure 29
0010
0000
1000
0100
,  // measure 30
0020
0031
0100
0010
,  // measure 31
2000
0000
3010
0000
0100
0000
0000
0002
,  // measure 32
0000
0013
0100
1000
,  // measure 33
0001
0100
0001
0010
,  // measure 34
0100
1000
0100
0010
,  // measure 35
0001
0000
0100
0000
0010
0000
0000
2000
,  // measure 36
0000
3100
0010
0001
,  // measure 37
0100
0000
0010
1000
,  // measure 38
0010
0100
0001
0010
,  // measure 39
0100
0000
1000
0000
0001
0000
0000
0011
,  // measure 40
0000
0100
0100
0010
,  // measure 41
0100
1001
0000
0000
;
