#TITLE:abstract;
#SUBTITLE:(Radical Mix);
#ARTIST:TaQ;
#TITLETRANSLIT:;
#SUBTITLETRANSLIT:;
#ARTISTTRANSLIT:;
#CREDIT:;
#BANNER:;
#BACKGROUND:;
#LYRICSPATH:;
#CDTITLE:;
#MUSIC:abstract (Radical Mix).mp3;
#OFFSET:-7.710;
#SAMPLESTART:30.750;
#SAMPLELENGTH:15.360;
#SELECTABLE:YES;
#BPMS:0.000=125.000;
#STOPS:;
#BGCHANGES:;

//---------------dance-single - ----------------
#NOTES:
     dance-single:
     :
     Challenge:
     9:
     0.668,0.631,0.122,0.057,0.773:
1000
0010
0100
0001
1000
0100
0001
0100
,
1000
0001
0100
0010
0001
1000
0001
0010
,
1000
0100
0010
0001
1000
0100
0010
0100
,
1000
0000
0010
0000
0100
0000
0001
0000
0100
0010
0000
1000
0000
0001
0000
1000
,
0100
0000
0010
0001
0010
0000
0001
0000
1000
0001
1000
0000
0000
0000
0001
0000
,
0100
0000
0010
1000
0010
0000
1000
0000
0100
1000
0100
0000
0000
0000
0010
0000
,
0001
0000
1000
0001
1000
0000
0001
0000
0100
0010
0100
0000
0000
0000
0001
0000
,
1000
0000
0001
0010
0001
0000
1000
0000
0001
1000
0000
0010
0000
0100
0000
0001
,
2000
0000
3000
0101
,
2002
0000
0000
0000
0000
0000
0000
0000
3003
0000
0000
0001
1000
0000
1000
0100
,
0000
0022
0000
0000
0000
0000
0033
0000
,
1000
0001
0000
0000
0001
1000
0000
0000
1000
0010
1000
0010
0100
0001
0100
0001
,
1000
0000
0001
0000
1000
0000
0100
0000
0010
0100
0010
0000
0100
0000
1000
0000
,
0001
0000
0100
0000
0010
0000
0100
0000
0001
0100
0001
0000
1000
0100
1000
0000
,
0001
0000
0010
0000
1000
0000
0010
0000
0001
0010
0001
0000
1000
0000
0010
0000
,
0100
0001
1000
0000
0001
1000
0100
0000
0010
0001
1000
0100
0000
0010
0000
0100
,
1000
0000
0001
1000
0001
0000
1000
0000
0001
0000
0100
0000
0001
0000
1000
0000
,
0100
0000
0010
0100
0010
0000
0100
0000
0010
0000
0001
0000
1000
0000
0001
0000
,
0100
0000
0010
0100
0010
0000
0100
0000
0001
0100
0001
0000
1000
0000
0100
0000
,
1000
0000
0001
0000
0100
0010
0100
0000
0001
1000
0000
0100
0000
0010
0000
0001
,
0100
0000
0000
0000
0010
0000
0100
0000
0001
1000
0001
0000
1000
0000
0100
0000
,
0010
0000
0000
0000
0100
0000
0010
0000
0001
1000
0001
0000
1000
0000
0010
0000
,
0100
0000
0000
0000
0001
0000
1000
0000
0100
0010
0100
0000
0010
0000
0001
0000
,
1000
0000
0001
0100
0000
0001
0100
0001
1000
0001
0000
1000
0000
0001
0010
0000
,
0011
0000
0000
0000
0001
0000
1000
0000
0010
0100
0010
0000
1000
0000
0001
1000
,
0001
0000
0000
0000
1000
0000
0100
0000
0010
0100
0010
0000
0100
0000
0010
0001
,
0010
0000
0000
0000
0001
0000
0100
0000
0010
1000
0010
0000
0100
0000
0001
1000
,
0001
1000
0100
0001
0100
1000
0010
0100
,
0110
0000
0000
0010
1000
0000
0000
0001
0000
1000
0000
0001
1000
0000
0000
0001
,
0000
0010
0000
0001
0010
0000
0000
0100
0000
1000
0000
0100
1000
0100
0010
0000
,
0000
0000
0100
0010
0100
1000
0000
0001
0000
0100
0000
0001
1000
0000
0000
0001
,
0000
0010
0000
0001
1000
0000
0000
0100
0000
0010
0000
0001
0010
0100
0010
0000
,
0000
0000
0100
0010
0100
1000
0000
0001
0000
0100
0000
0001
1000
0100
0000
0010
,
0000
0100
0000
1000
0010
0100
0000
0001
0000
0100
0000
0001
1000
0100
0010
0000
,
0000
0000
0100
1000
0001
1000
0000
0010
0000
0100
0000
0010
0100
0001
0000
1000
,
0000
0100
0000
0010
0100
1000
0000
0001
0000
1000
0000
0001
0010
0001
1000
0000
,
0000
0000
0001
1000
0001
1000
0000
0001
0000
1000
0010
0000
0010
0000
0100
0001
,
0000
0100
0001
0000
1000
0001
1000
0000
0100
0000
1000
0100
0000
0000
1001
0000
,
0000
0000
0100
0001
0100
0001
0000
1000
0000
0100
1000
0100
0000
0010
0001
0000
,
1000
0001
0000
1000
0001
0000
0100
0010
0000
0100
0010
1000
0001
0000
1001
0000
,
0101
0000
0100
0001
0100
0000
0001
1000
0001
0000
1000
0100
1000
0001
0010
0001
,
0000
0001
1000
0000
0010
1000
0000
1000
0001
0000
0001
0100
0000
0001
0100
0000
,
2002
0000
0000
3003
,
1000
0001
0000
0000
0001
1000
0000
0000
0010
0100
0010
0100
0001
1000
0001
1000
,
0100
0000
0010
0000
0001
0000
0100
0000
0010
1000
0010
0000
0100
0001
0100
0000
,
0001
0000
1000
0000
0100
0000
1000
0000
0001
0100
0001
1000
0000
0001
1000
0000
,
0001
0000
0100
0000
0010
0000
1000
0000
0001
0100
0001
0000
1000
0100
1000
0000
,
0100
0000
0010
0000
0100
0000
1000
0000
0001
1000
0010
0100
0000
0001
0100
0000
,
0001
0000
1000
0100
1000
0000
0001
0010
0001
0000
1000
0010
0000
0010
0100
0000
,
0001
0000
1000
0100
1000
0000
0001
0000
0010
0001
1000
0100
0000
0010
0001
0000
,
1000
0000
0010
1000
0010
0100
0010
0000
1000
0000
0100
0010
0100
0000
0010
0000
,
0001
0000
1000
0100
0010
0000
0001
0000
1000
0000
0010
0100
0000
0000
0110
0000
,
1001
0000
1000
0001
1000
0000
0010
0000
1000
0000
0001
0000
1001
0000
0000
0000
,
0001
0000
1000
0100
1000
0000
0001
0000
0010
0000
0100
0000
0110
0000
0000
0000
,
0010
0000
0001
1000
0010
0000
0100
0000
0010
0000
0100
0000
0110
0000
0000
0000
,
0010
0000
1000
0010
0100
0000
0001
0000
1000
0010
1000
0010
1000
0001
1000
0001
,
0100
0000
0001
0100
0001
0000
1000
0000
0100
0010
0100
0000
0010
0001
0010
0000
,
0001
0000
1000
0010
1000
0000
0001
0000
0100
0001
0100
0001
1000
0001
1000
0010
,
0100
0000
0001
0100
0001
0000
1000
0000
0100
1000
0100
0000
1000
0001
0010
0000
,
0001
0000
1000
0100
0010
0001
0100
0010
0100
0010
0000
1001
0000
0000
0000
0000
;

//---------------dance-single - ----------------
#NOTES:
     dance-single:
     :
     Hard:
     8:
     0.581,0.510,0.260,0.065,0.342:
1000
0100
0100
0010
0100
0100
1000
0001
,
0100
0010
0010
1000
0001
0001
1000
0100
,
0010
0100
0100
0010
0001
0001
0100
0010
,
1000
0000
0001
0000
0001
0000
0100
0000
0000
0010
0000
0010
0000
0010
0000
0010
,
1000
0001
0001
1000
0100
0010
0100
0100
,
0100
1000
1000
0001
0100
0010
1000
1000
,
1000
0001
0001
0100
0010
1000
0100
0100
,
0100
0000
0010
0000
0010
0000
0001
0000
1000
0001
1000
0001
0000
0110
0000
0000
,
2002
0000
3003
1010
,
0202
0000
0000
0000
0000
0000
0000
0000
0303
0000
0000
0001
1000
0000
0100
1000
,
0000
2200
0000
0000
0000
0000
3300
0000
,
0010
0001
0000
0000
0001
0100
0000
0000
0100
0000
0010
0000
1000
0000
0001
0000
,
1001
0000
1000
0010
0100
0001
0100
0010
,
0110
0000
0010
1000
0100
0010
0001
1000
,
1100
0000
0010
0001
0100
0001
1000
0010
,
0110
0000
0000
0000
0010
0000
1000
0000
0001
0010
0001
0010
0001
0000
1000
0000
,
1100
0100
0010
0100
1000
0001
0100
0010
,
0110
0100
0001
1000
0100
0010
0001
1000
,
1010
0010
0100
0001
0010
0001
1000
0100
,
0110
0000
0010
0000
0001
0000
1000
0000
0001
1000
0000
0001
0000
1000
0000
0010
,
0100
0000
0000
0000
0101
0000
0000
0000
0001
1000
0001
0000
1000
0000
0100
0000
,
0010
0000
0000
0000
0110
0000
0000
0000
0100
0010
0100
0000
0010
0000
0001
0000
,
1000
0000
0000
0000
1010
0000
0000
0000
0001
0100
0001
0000
1000
0000
0100
0000
,
0010
0000
0000
0000
1001
0000
0000
1000
0001
1000
0000
0001
0000
0100
0000
0010
,
0100
0000
0001
1000
0001
0000
1000
0000
0000
0000
0011
0000
0000
0000
1000
0000
,
0001
0000
1000
0010
1000
0000
0010
0000
0000
0000
0101
0000
0000
0000
0001
0000
,
1000
0000
0100
0010
0100
0000
0010
0000
0000
0000
0011
0000
0000
0000
0001
0000
,
1000
0010
0100
0001
0010
0100
0010
0001
,
1001
0000
0000
0001
1000
0000
0000
0000
0001
0000
0000
1000
0100
0000
0000
0000
,
0010
0000
0000
0001
1000
0000
0000
0000
0001
0000
0000
1000
0001
0000
0100
0000
,
0000
0000
0001
1000
0001
0000
0000
0000
0100
0000
0000
0001
1000
0000
0000
0000
,
1000
0000
0000
0010
1000
0000
0000
0000
0001
0000
0000
0100
0001
0000
1001
0000
,
0000
0000
0000
0001
0100
0000
0000
0010
0000
1000
0000
0001
0100
0000
0000
0001
,
0000
0010
0000
0100
1000
0000
0000
0100
0000
1000
0000
0001
0010
0000
0001
0000
,
0000
0000
1000
0001
0100
0000
0000
0010
0000
1000
0000
0001
1000
0000
0000
0010
,
0000
0100
0000
0001
0100
0000
0000
0001
0000
1000
0000
1001
0000
0000
1001
0000
,
0000
0000
1000
0100
1000
0000
0001
0000
0010
0000
0001
0000
0100
0000
0010
0000
,
1000
0100
0010
0100
1000
0001
0100
0101
,
0000
0000
1000
0010
1000
0000
0001
0000
0100
0000
0001
0000
1000
0000
0100
0000
,
0010
0100
1000
0010
0100
0001
1000
1001
,
0110
0000
0100
0010
0100
0000
0010
0000
1000
0000
0001
0000
1000
0000
0100
0000
,
0010
0001
0100
0010
1000
0001
0100
0101
,
2002
0000
0000
3003
,
1000
0100
0000
0000
0010
0001
0000
0000
1000
0001
1000
0001
1000
0001
1000
0001
,
1000
0000
0001
0000
0100
0000
0010
0000
0100
0001
0100
0000
0001
0000
1000
0000
,
0100
0000
0010
0000
0100
0000
1000
0000
0001
0100
0001
0000
1000
0000
0010
0000
,
0100
0000
0001
0000
1000
0000
0100
0000
0010
0100
0010
0000
0100
0000
0010
0000
,
0001
0000
1000
0000
0010
0000
0100
0000
0001
0100
0001
0100
0001
0000
1000
0000
,
1100
0000
0100
0000
0001
0000
0100
0000
1000
0100
1000
0000
0001
0000
0100
0000
,
1000
0000
0100
0000
0001
0000
0010
0000
0100
0010
0100
0000
0010
0000
0001
0000
,
1001
0000
1000
0000
0010
0000
0100
0000
0010
1000
0010
0000
0100
0000
0001
0000
,
1000
0000
0100
0000
0010
0000
0100
0000
1000
0100
1000
0100
0000
0000
0010
0000
,
0100
0010
0001
0100
0010
0010
0010
0000
,
0100
0001
1000
0100
0010
0010
0010
0000
,
0100
1000
0010
0100
0001
0001
0001
0000
,
1000
0000
0100
0000
0010
0000
0001
0000
0100
0000
0100
0000
0100
0001
0100
0001
,
1000
0000
0100
0010
0001
0000
1000
0000
0100
0000
0010
0000
0001
0000
0100
0000
,
0001
0000
0100
0010
1000
0000
0001
0000
0100
0000
0010
0000
1000
0000
0001
0000
,
1000
0000
0100
0010
0100
0000
0010
0000
0001
0000
0100
0000
0010
0000
0100
0010
,
0100
0000
0010
1000
0010
0000
1000
0000
0001
1000
0000
1001
0000
0000
0000
0000
;

//---------------dance-single - ----------------
#NOTES:
     dance-single:
     :
     Medium:
     6:
     0.393,0.388,0.081,0.065,0.008:
1000
0001
1000
0000
0001
0000
0100
0000
,
0001
1000
0100
0000
0010
0100
0010
0000
,
0001
1000
0001
0000
1000
0000
0010
0000
,
0100
0001
1000
0000
0002
0000
0000
0000
,
1003
0000
0001
1000
0010
1000
0100
0000
,
0010
0000
0001
0010
0001
1000
0100
0000
,
0010
0000
0001
1000
0001
1000
0010
0000
,
0100
0001
0100
0000
0010
1000
0010
0000
,
2002
0000
0000
3003
,
0202
0000
0000
0000
0000
0000
0000
0000
0303
0000
0000
0101
0000
0000
1001
0000
,
0000
2200
0000
0000
0000
0000
3300
0000
,
0010
0000
0001
0000
1000
0001
1000
0001
,
0100
0000
0010
0000
0100
0100
0001
0000
,
1000
0000
0100
0000
0010
0010
0100
0000
,
0010
0000
0001
0000
1000
1000
0001
0000
,
1000
0010
1000
0000
0001
0001
0100
0001
,
1000
0000
0001
0000
1000
0100
0010
0001
,
0100
0000
0001
0000
1000
0010
1000
0000
,
0001
0000
0100
0000
0010
1000
0100
0010
,
0001
0000
1000
0000
0001
1000
0100
1000
,
0001
0000
1000
0000
0001
0100
0001
0100
,
0010
0000
0100
0000
0001
1000
0001
1000
,
0100
0000
1000
0000
0100
0010
0100
0010
,
0001
0000
1000
0000
0001
1000
0001
0000
,
0110
0000
1001
0000
0001
1000
0001
1000
,
0100
0000
0110
0000
0010
0001
1000
0001
,
1000
0000
1001
0000
1000
0010
0100
0001
,
0100
0100
0100
0000
0001
0001
0001
0000
,
1000
0100
0001
0100
,
1000
0000
0010
0000
0100
0000
0001
0100
,
0000
0100
0010
0000
1000
0000
0100
0000
,
0010
0000
0100
0000
0010
0000
0001
1000
,
0000
1000
0001
0000
1000
0000
0010
0000
,
0100
0000
0001
0000
1000
0000
0010
0100
,
0000
0100
0001
0000
1000
0000
0100
0000
,
0010
0001
0010
0000
0001
1000
0001
1000
,
0000
0001
0100
0000
0001
1000
0100
0000
,
1000
0001
0100
0000
0001
1000
0010
0100
,
0000
0010
0100
0000
0001
0100
0001
0000
,
1000
0100
1000
0000
0001
0010
0001
0100
,
0000
0010
0100
0000
0001
1000
0100
0000
,
0010
0001
1000
0000
0010
0100
0010
1000
,
0002
0000
0000
0000
,
1003
0000
0001
0000
1000
0100
0010
0001
,
1000
0000
0001
0000
0100
0001
0100
0001
,
1000
0000
0001
0000
1000
0100
1000
0000
,
0001
0000
0010
0000
0100
0010
0100
0010
,
0001
0000
1000
0000
0010
0100
0010
0000
,
0100
0000
0001
0000
1000
0100
1000
0000
,
0001
0000
0100
0000
0001
1000
0100
1000
,
0001
0000
1000
0000
0010
0100
0010
0000
,
1000
0000
0100
0000
1000
0001
0000
1000
,
0001
0000
0001
0100
0001
1000
0001
0000
,
1000
0000
1000
0010
1000
0100
1000
0000
,
0100
0000
0100
1000
0100
0010
0100
0000
,
0010
0000
0010
0001
0010
0001
1000
0001
,
0100
0000
0001
0100
0001
1000
0010
0000
,
0001
0000
1000
0100
0010
0001
0010
0000
,
0001
0000
0100
0001
1000
0001
1000
0000
,
0001
0000
1000
0000
0100
0000
0010
0000
0100
0000
0000
0110
0000
0000
0000
0000
;

//---------------dance-single - ----------------
#NOTES:
     dance-single:
     :
     Easy:
     4:
     0.266,0.339,0.122,0.065,0.000:
1000
0001
0100
0010
,
0100
0001
1000
0100
,
0010
0100
1000
0001
,
1000
0100
0010
0000
,
0110
0010
0100
0010
,
0001
1000
0001
1000
,
0010
0100
0001
0100
,
0010
1000
0100
1000
,
2002
0000
0003
3010
,
0220
0000
0000
0000
0000
0000
0000
0000
0000
0000
0000
0030
0000
0000
0300
0000
,
0000
1001
0000
0000
0000
0000
0000
0000
,
1000
0001
0100
0010
,
0110
0000
0010
1000
,
0001
0000
1000
0001
,
0010
0000
0001
1000
,
0100
0010
0001
0100
,
0010
0000
0100
0010
,
1000
0000
0100
1000
,
0100
0000
0010
0001
,
0100
0010
1000
0001
,
1000
1000
0001
0100
,
0001
0001
1000
0100
,
0010
0010
0100
1000
,
0001
0001
1000
0010
,
0110
0000
0100
0001
,
1000
0000
0001
1000
,
0001
0000
1000
0010
,
2002
0000
0000
3003
,
0110
0000
0001
0010
,
0001
0000
1000
0000
0100
0000
1000
1000
,
0000
0000
1000
0010
,
1000
0000
0001
0000
0010
0000
0100
0100
,
0000
0000
0100
1000
,
0100
0000
0010
0000
0001
0000
0100
0100
,
0000
0000
1000
0010
,
0100
0000
0001
0000
1000
0000
0010
0010
,
0000
1000
0100
0010
,
0001
0000
1000
0000
0010
0000
0100
0100
,
0000
0010
0100
0001
,
1000
0000
0100
0000
1000
0000
0001
0001
,
0000
1000
0100
0010
,
0001
1000
0010
0100
,
2002
0000
0000
3003
,
1001
1001
0110
0110
,
1001
1000
0100
0010
,
0001
1000
0010
0100
,
0001
0010
0001
1000
,
0100
1000
0010
0100
,
0010
0010
0100
0001
,
1000
1000
0100
0010
,
0100
0100
0010
0001
,
1000
1000
0001
0000
,
1001
0001
0100
0000
,
0010
0100
0001
0000
,
1000
0100
1000
0000
,
0001
1000
0100
0000
,
1000
0100
0010
0001
,
0100
0010
0100
0010
,
1000
0100
0010
0100
,
0010
0001
1000
0000
;

//---------------dance-single - ----------------
#NOTES:
     dance-single:
     :
     Beginner:
     1:
     0.124,0.145,0.089,0.000,0.000:
1000
0000
0001
0000
,
0100
0000
0010
0000
,
0100
0000
0001
0000
,
1000
0000
0001
0000
,
1001
0000
1000
0000
,
0100
0000
1000
0000
,
0001
0000
1000
0000
,
0001
0000
0100
0000
,
0110
0000
0000
0000
,
1001
0000
0000
0000
,
0000
0110
0000
0000
0000
0000
0000
0000
,
1001
0000
0000
0000
,
1000
0000
0100
0000
,
1000
0000
0000
0000
,
0001
0000
0100
0000
,
0001
0000
1000
0000
,
0100
0000
0010
0000
,
0100
0000
0000
0000
,
0010
0000
0001
0000
,
1000
0000
0001
0000
,
0100
0000
0100
0000
,
0001
0000
1000
0000
,
0100
0000
0100
0000
,
1000
0000
0001
0000
,
1000
0000
0100
0000
,
0010
0000
0001
0000
,
1000
0000
0010
0000
,
0110
0000
0000
0000
,
1001
0000
0000
0000
,
0001
0000
0000
0000
,
1000
0000
0000
0000
,
0010
0000
0000
0000
,
0100
0000
0000
0000
,
0001
0000
0000
0000
,
1000
0000
0000
0000
,
0100
0000
0000
0000
,
0010
0000
0000
0000
,
0001
0000
0000
0000
,
1000
0000
0000
0000
,
0001
0000
0000
0000
,
0100
0000
0000
0000
,
0010
0000
0000
0000
,
1001
0000
0000
0000
,
0110
0000
0000
0000
,
1001
0000
0001
0000
,
0100
0000
0010
0000
,
1000
0000
0100
0000
,
1000
0000
0000
0000
,
0001
0000
0010
0000
,
0001
0000
1000
0000
,
0010
0000
0100
0000
,
0010
0000
1000
0000
,
0001
0000
0001
0000
,
1000
0000
0100
0000
,
1000
0000
1000
0000
,
0010
0000
0100
0000
,
0001
0000
0001
0000
,
1000
0000
0100
0000
,
0010
0000
0100
0000
,
0010
0000
0110
0000
;

//---------------dance-double - ----------------
#NOTES:
     dance-double:
     :
     Challenge:
     9:
     0.675,0.704,0.171,0.057,0.801: // measure 1
00010000
00000000
10000000
01000000
00100000
00000000
00001000
00000000
00010000
00000000
00001000
00000000
00000100
00000000
00000010
00000000
,  // measure 2
00001000
00000000
00000100
00010000
00001000
00000000
00010000
00000000
01000000
00000000
00100000
00000000
00010000
00000000
00100000
00000000
,  // measure 3
00001000
00000000
00010000
00000100
00010000
00000000
00000100
00000000
00010000
00000000
00001000
00000000
00000100
00000000
00001000
00000000
,  // measure 4
00010000
00000000
00000100
00000010
00000001
00000000
00000001
00000000
00000010
00000001
00000000
00001000
00000000
00000010
00000000
00000100
,  // measure 5
00000001
00000000
00001000
00000010
00001000
00000000
00000100
00000000
00010000
00000000
00100000
00000000
00010000
00000000
00100000
10000000
,  // measure 6
00100000
00000000
10000000
00010000
10000000
00000000
00010000
00000000
00100000
00000000
00001000
00000000
00010000
00000000
00000100
00001000
,  // measure 7
00000100
00000000
00000010
00000001
00000010
00000000
00000001
00000000
00000100
00000000
00001000
00000000
00000100
00000000
00000001
00000100
,  // measure 8
00000001
00000000
00001000
00000100
00001000
00000100
00001000
00000000
00000100
00010000
00001000
00100000
00000000
00010000
00000000
01000000
,  // measure 9
00020000
00000000
00000000
10030000
,  // measure 10
02002000
00000000
00000000
00000000
00000000
00000000
00000000
00000000
03003000
00000000
00000000
01000000
00001000
00000000
00001000
00010000
,  // measure 11
00000000
00022000
00000000
00000000
00000000
00000000
00033000
00000000
,  // measure 12
00010000
00000100
00000000
00000000
00000010
00000001
00000000
00000000
00001000
00000010
00001000
00000010
00010000
00001000
00010000
00001000
,  // measure 13
00010000
00000000
00001000
00000000
01000000
00000000
00100000
00000000
01000000
00010000
01000000
00000000
10010000
00000000
00000000
00000000
,  // measure 14
10000000
00000000
01000000
00000000
00100000
00000000
00010000
00000000
00100000
00001000
00100000
00000000
00011000
00000000
00000000
00000000
,  // measure 15
00001000
00000000
00010000
00000000
00000100
00000000
00000010
00000000
00000100
00000010
00000001
00000000
00000011
00000000
00000010
00000000
,  // measure 16
00000001
00000000
00000100
00000000
00000010
00000000
00001000
00000000
00000010
00001000
00000010
00000100
00000000
00000001
00000000
00001000
,  // measure 17
00000100
00000000
00001000
00000100
00010000
00000000
00001000
00000000
00100000
00000000
00010000
00000000
01000000
00000000
00100000
01000000
,  // measure 18
00010000
00000000
10000000
01000000
10000000
00000000
00010000
00000000
00100000
00000000
00001000
00000000
00010000
00000000
00001000
00010000
,  // measure 19
00000100
00000000
00000010
00000001
00000100
00000000
00000010
00000000
00001000
00000000
00000100
00000000
00010000
00000000
00001000
01000000
,  // measure 20
00010000
00000000
10000000
00010000
01000000
00000000
00010000
10000000
00000000
01000000
00000000
00100000
00000000
00010000
00000000
00100000
,  // measure 21
00010000
00000000
00100000
00001000
00010000
00001000
00000100
00001000
,  // measure 22
00010000
00000000
00000100
00001000
00000100
00000010
00000001
00000100
,  // measure 23
00000010
00000000
00000100
00000010
00001000
00000100
00010000
00001000
,  // measure 24
00100000
00000000
00010000
00000000
10000000
00000000
01000000
00000000
00100000
00010000
00000000
00100000
00000000
00001000
00000000
00010000
,  // measure 25
00001000
00000000
00010000
00000100
00000010
00000000
00000100
00000000
00010000
00000000
00001000
00000000
01000000
00000000
00100000
01000000
,  // measure 26
00010000
00000000
00010000
01000000
00100000
00000000
10000000
00000000
01000000
00000000
00100000
00000000
00010000
00000000
00100000
00001000
,  // measure 27
00010000
00000000
00010000
00001000
00100000
00000000
00001000
00000000
00010000
00000000
00000100
00000000
00000010
00000000
00000001
00000100
,  // measure 28
00000001
00000100
00001000
00000100
00000001
00000100
00001000
00000100
,  // measure 29
00000110
00000000
00000000
00000010
00001000
00000000
00000000
00000100
00000000
00010000
00000000
00001000
00010000
00000000
00000000
00001000
,  // measure 30
00000000
01000000
00000000
00010000
01000000
00000000
00000000
00100000
00000000
10000000
00000000
00010000
10000000
00010000
01000000
00000000
,  // measure 31
00000000
00000000
00001000
00100000
00001000
00000000
00000000
00010000
00000000
00000100
00000000
00001000
00000001
00000000
00000000
00001000
,  // measure 32
00000000
00000010
00000000
00010000
00001000
00000000
00000000
00100000
00000000
00010000
00000000
10000000
01000000
00100000
00010000
00000000
,  // measure 33
00000000
00000000
00100000
00001000
00100000
00000000
00000000
00001000
00000000
00010000
00000000
00000100
00001000
00000000
00000000
00000100
,  // measure 34
00000000
00010000
00000000
00001000
00100000
00000000
00000000
00010000
00000000
10000000
00000000
01000000
00100000
01000000
00100000
00000000
,  // measure 35
00000000
00000000
00001000
00010000
00001000
00000000
00000000
00010000
00000000
00010000
00000000
00000100
00001000
00000000
00000000
00000001
,  // measure 36
00001000
00000001
00001000
00000010
00001000
00000010
00001000
00000000
00000100
00010000
00000000
00010100
00000000
00000000
00011000
00000000
,  // measure 37
00000000
00000000
00001000
01000000
00001000
01000000
00000000
00010000
00000000
10000000
00000000
01000000
10000000
01000000
00000000
00100000
,  // measure 38
00000000
00010000
00000000
00100000
00001000
00010000
00001000
00010000
00000000
00000100
00001000
00000000
00000100
00000000
00000011
00000000
,  // measure 39
00000000
00000000
00001000
00000001
00001000
00000100
00000000
00010000
00000000
00001000
00000000
00100000
00010000
00100000
00000000
00010000
,  // measure 40
00000000
10000000
00000000
00100000
10000000
00100000
01000000
00010000
00000000
01000000
00010000
00000000
00100000
00000000
00101000
00000000
,  // measure 41
00011000
00000000
00010000
00000100
00010000
00001000
00000000
00010000
00000000
00000100
00000000
00001000
00000100
00001000
00000000
00000100
,  // measure 42
00000000
00000010
00000000
00000001
00000100
00000010
00001000
00000010
00000000
00001000
00000100
00000000
00011000
00000000
01001000
00000000
,  // measure 43
02020000
00000000
00000000
03030000
,  // measure 44
10000000
01000000
00000000
00000000
00100000
00010000
00000000
00000000
00100000
00001000
00100000
00001000
00010000
00000100
00010000
00000100
,  // measure 45
00000010
00000000
00000001
00001000
00000001
00000000
00001000
00000000
00000010
00000000
00010000
00000000
00000100
00000000
00010000
00000000
,  // measure 46
00001000
00000000
01000000
00010000
01000000
00000000
00100000
00000000
10000000
00000000
01000000
00000000
00010000
00000000
01000000
00000000
,  // measure 47
00100000
00000000
00010000
00100000
00010000
00000000
00100000
00000000
00001000
00000000
00010000
00000000
00000100
00000000
00000010
00000000
,  // measure 48
00000100
00000010
00000001
00000000
00001000
00000010
00000000
00000010
00010000
00000000
00010000
00001000
00000000
00001000
01000000
00000000
,  // measure 49
01010000
00000000
00010000
10000000
00010000
10000000
01000000
00100000
01000000
00000000
00100000
00010000
00000000
00010000
00100000
00000000
,  // measure 50
00001000
00000000
00010000
00001000
00010000
00001000
00010000
00000100
00001000
00000000
00000100
00000010
00000000
00000010
00000001
00000000
,  // measure 51
00001000
00000000
00000010
00001000
00000010
00001000
00000100
00001000
00000100
00010000
00000000
00000100
00010000
00000100
00010000
00000000
,  // measure 52
00001000
00010000
00001000
00010000
00001000
01000000
00001000
01000000
00010000
10000000
00010000
10000000
00000000
00000000
01010000
00000000
,  // measure 53
10010000
00000000
10000000
01000000
00100000
00000000
01000000
00000000
00100000
00000000
00001000
00000000
00011000
00000000
00000000
00000000
,  // measure 54
00010000
00000000
00000100
00001000
00000001
00000000
00000100
00000000
00000010
00000000
00001000
00000000
00001100
00000000
00000000
00000000
,  // measure 55
00000100
00000000
00010000
00001000
00010000
00000000
00001000
00000000
01000000
00000000
00100000
00000000
01100000
00000000
00000000
00000000
,  // measure 56
00100000
10000000
00000000
00000000
00010000
01000000
00000000
00000000
00001000
00010000
00001000
00010000
00000100
00001000
00000100
00001000
,  // measure 57
00000001
00000000
00001000
00000100
00001000
00000000
00000100
00000000
00010000
00001000
00010000
00001000
00010000
00000000
00001000
00000000
,  // measure 58
01000000
00000000
00010000
01000000
00010000
00000000
10000000
00000000
01000000
00100000
01000000
00100000
00010000
00000000
00100000
00001000
,  // measure 59
00100000
00000000
00001000
00010000
00001000
00000000
00010000
00000000
00000100
00001000
00000100
00000000
00001000
00000000
00000001
00000010
,  // measure 60
00000001
00001000
00000000
00000001
00001000
00000001
00000000
00001000
00000010
00001000
00000000
00000101
00000000
00000000
00000000
00000000
;

//---------------dance-double - ----------------
#NOTES:
     dance-double:
     :
     Hard:
     8:
     0.596,0.534,0.155,0.041,0.399: // measure 1
00010000
00000100
00010000
00001000
00100000
00001000
01000000
00000000
,  // measure 2
00010000
01000000
00100000
10000000
01000000
00010000
01000000
00000000
,  // measure 3
00100000
00010000
00100000
00001000
00010000
00000100
00000010
00000000
,  // measure 4
00000001
00000000
00000100
00000000
00001000
00000000
00010000
00000000
00001000
00100000
00000000
00100000
00000000
00100000
00000000
00100000
,  // measure 5
00010000
00000000
10000000
00100000
10000000
00000000
00010000
00000000
00000000
00000000
00100000
00000000
00001000
00000000
00010000
00000000
,  // measure 6
00000100
00000000
00000010
00000001
00000010
00000000
00000001
00000000
00000000
00000000
00001000
00000000
00000100
00000000
00010000
00000000
,  // measure 7
00001000
00000000
01000000
00010000
01000000
00000000
00100000
00000000
00000000
00000000
01000000
00000000
00010000
00000000
10000000
00000000
,  // measure 8
01000000
00000000
00100000
00010000
00100000
00000000
00001000
00000000
00010000
00000000
00000100
00001000
00000000
00000001
00000000
00001000
,  // measure 9
00000002
00000000
00000000
00001003
,  // measure 10
00002020
00000000
00000000
00000000
00000000
00000000
00000000
00000000
00003030
00000000
00000000
00000010
00001000
00000000
00000100
00010000
,  // measure 11
00000000
00022000
00000000
00000000
00000000
00000000
00033000
00000000
,  // measure 12
00001000
01000000
00000000
00000000
01000000
00010000
00000000
00000000
00010000
10000000
00010000
10000000
00010000
10000000
00010000
00000000
,  // measure 13
11000000
00100000
00010000
00100000
00001000
00010000
00000100
00000100
,  // measure 14
00000100
00001000
00000010
00000100
00000001
00001000
00000010
00000010
,  // measure 15
00000010
00010000
00001000
00010000
01000000
10000000
00100000
00100000
,  // measure 16
00100000
00000000
01000000
00000000
00010000
00000000
00100000
00000000
00001000
00010000
00000000
00001000
00000000
00010000
00000000
00000100
,  // measure 17
00001000
00000000
00000100
00000010
00000001
00000000
00001000
00000000
00000010
00000000
00000100
00000000
00000001
00000000
00001000
00000000
,  // measure 18
00000100
00000000
00010000
00001000
00010000
00000000
00001000
00000000
00100000
00000000
00010000
00000000
01000000
00000000
01000000
00000000
,  // measure 19
01000000
00000000
00100000
10000000
01000000
00000000
00100000
00000000
00010000
00000000
00100000
00000000
00001000
00000000
00001000
00000000
,  // measure 20
00001000
00000000
00010000
00000100
00001000
00000000
00000100
00000000
00000010
00000001
00001000
00000001
00000000
00001000
00000000
00000100
,  // measure 21
00010000
00001000
01000000
00010000
10000000
01000000
00000000
00100000
,  // measure 22
00001000
00010000
00001000
00000100
00000010
00000100
00000000
00000010
,  // measure 23
00001000
00000100
00010000
00001000
01000000
00010000
00000000
00010000
,  // measure 24
10000000
00000000
01000000
00000000
00100000
00000000
00010000
00000000
00100000
00000000
00001000
00000000
00010000
00001000
00010000
00000100
,  // measure 25
00001000
00000000
00000001
00000000
00000010
00000000
00001000
00000000
00000010
00000000
00000001
00000000
00001000
00000010
00001000
00000000
,  // measure 26
00000100
00000000
00010000
00000000
00001000
00000000
01000000
00000000
10000000
00000000
01000000
00000000
00010000
01000000
00010000
00000000
,  // measure 27
00100000
00000000
00001000
00000000
00010000
00000000
00000100
00000000
00000010
00000000
00000100
00000000
00001000
00000100
00001000
00000000
,  // measure 28
00000100
00010000
00000010
00010000
00000100
00010000
00000010
00010000
,  // measure 29
00011000
00000000
00000000
00001000
00100000
00000000
00000000
00000000
00010000
00000000
00000000
10000000
01000000
00000000
00000000
00000000
,  // measure 30
00100000
00000000
00000000
00010000
00100000
00000000
00000000
00000000
00010000
00000000
00000000
10000000
00100000
00000000
01010000
00000000
,  // measure 31
00000000
00000000
00010000
01000000
00001000
00000000
00000000
00000000
00010000
00000000
00000000
00010000
00000100
00000000
00000000
00000000
,  // measure 32
00000010
00000000
00000000
00000001
00001000
00000000
00000000
00000000
00000100
00000000
00000000
00010000
00001000
00000000
00011000
00000000
,  // measure 33
00000000
00000000
00010000
00001000
00100000
00000000
00000000
00010000
00000000
10000000
00000000
00010000
01000000
00000000
00000000
00001000
,  // measure 34
00000000
00010000
00000000
00000100
00001000
00000000
00000000
00000001
00000000
00000010
00000000
00000001
00001000
00000000
00000110
00000000
,  // measure 35
00000000
00000000
00000010
00001000
00000010
00000000
00000000
00001000
00000000
00000100
00000000
00010000
00001000
00000000
00000000
01000000
,  // measure 36
00000000
00010000
00000000
10000000
00100000
00000000
00000000
10000000
00000000
01000000
00000000
00100000
00010000
00000000
01010000
00000000
,  // measure 37
00000000
00000000
00010000
00100000
00010000
00000000
00100000
00000000
00001000
00000000
00010000
00000000
00001000
00000000
01000000
00000000
,  // measure 38
00010000
00000000
10000000
00000000
01000000
00000000
10000000
00010000
00000000
10000000
00010000
00000000
01000000
00000000
01010000
00000000
,  // measure 39
00000000
00000000
01000000
00001000
01000000
00000000
00001000
00000000
00010000
00000000
00000100
00000000
00000010
00000000
00000001
00000000
,  // measure 40
00000100
00000000
00000010
00000000
00001000
00000000
00000100
00010000
00000000
00010000
00001000
00000000
01000000
00000000
01010000
00000000
,  // measure 41
01001000
00000000
00001000
00010000
00001000
00000000
00010000
00000000
00000100
00000000
00000001
00000000
00000100
00000000
00001000
00000000
,  // measure 42
00000010
00000000
00000100
00000000
00000001
00000000
00001000
00000100
00000000
00000100
00001000
00000000
00000001
00000100
00000001
00000000
,  // measure 43
00001000
00000100
00010000
00000100
00001000
00000100
00010000
00001000
,  // measure 44
01000000
00010000
00000000
00000000
10000000
00100000
00000000
00000000
10000000
00010000
10000000
00010000
10000000
00010000
10000000
00000000
,  // measure 45
00010000
00000000
00100000
00001000
00100000
00000000
00001000
00000000
00000010
00000000
00000001
00000000
00000100
00000000
00001000
00000000
,  // measure 46
00000100
00000000
00000001
00000100
00000001
00000000
00001000
00000000
00000100
00000000
00010000
00000000
00001000
00000000
01000000
00000000
,  // measure 47
00001000
00000000
01000000
00010000
01000000
00000000
10000000
00000000
01000000
00000000
00010000
00000000
10000000
00000000
01000000
00000000
,  // measure 48
00100000
00010000
00100000
00001000
00010000
00000100
00000010
00000001
,  // measure 49
00000101
00000000
00001000
00000010
00001000
00000000
00000100
00000000
00010000
00000000
00001000
00000000
01000000
00000000
10000000
00000000
,  // measure 50
01000000
00000000
00010000
01000000
00010000
00000000
10000000
00000000
01000000
00000000
00100000
00000000
01000000
00000000
00100000
00000000
,  // measure 51
00110000
00000000
00010000
00100000
00001000
00000000
00010000
00000000
00000100
00000000
00000010
00000000
00000001
00000000
00000100
00000000
,  // measure 52
00001000
00000000
00000100
00000001
00000100
00000000
00000001
00000000
00001000
00000000
00000100
00010000
00000000
00000000
00010100
00000000
,  // measure 53
00011000
00001000
01000000
10000000
01000000
00001000
00011000
00000000
,  // measure 54
00010000
00000100
00000001
00000100
00010000
00001000
00011000
00000000
,  // measure 55
00001000
01000000
00100000
01000000
00001000
01000000
01010000
00000000
,  // measure 56
10000000
00010000
00000000
00000000
00100000
00001000
00000000
00000000
00010000
00000100
00010000
00000100
00010000
00000100
00010000
00000100
,  // measure 57
00001000
00000000
00000100
00000010
00000100
00000000
00001000
00000000
00000100
00000000
00010000
00000000
00001000
00000000
01000000
00000000
,  // measure 58
00100000
00000000
01000000
00010000
01000000
00000000
00010000
00000000
10000000
00000000
01000000
00000000
00010000
00000000
01000000
00000000
,  // measure 59
10000000
00000000
00010000
00100000
00010000
00000000
00100000
00000000
00001000
00000000
00010000
00000000
00000100
00000000
00000010
00000000
,  // measure 60
00000001
00000000
00000100
00001000
00000100
00000000
00000001
00000000
00001000
00000100
00000000
00010100
00000000
00000000
00000000
00000000
;

//---------------dance-double - ----------------
#NOTES:
     dance-double:
     :
     Medium:
     6:
     0.368,0.340,0.171,0.065,0.008:
00010000
00000000
01000000
00000000
00100000
01000000
00100000
00000000
,
10000000
00000000
01000000
00000000
00100000
00010000
00100000
00000000
,
00001000
00000000
00010000
00000000
00000100
00000010
00000100
00000000
,
00000010
00000001
00001001
00000000
,
00001000
00000100
00010000
00000000
00001000
00010000
00001000
00000000
,
01000000
00000000
00010000
00000000
10000000
00100000
10000000
00000000
,
00010000
00000000
00100000
00000000
00001000
00010000
00001000
00000000
,
00010000
00000000
00000100
00000000
00001000
00000001
00001000
00000000
,
00000220
00000000
00000000
00000330
,
00002002
00000000
00000000
00000000
00000000
00000000
00000000
00000000
00003003
00000000
00000000
00000001
00000000
00000000
00001000
00000000
,
00000000
00002200
00000000
00000000
00000000
00000000
00003300
00000000
,
00000100
00000000
00010000
00000000
00001000
01000000
00010000
00000000
,
01010000
00000000
00000000
00000000
00100000
10000000
00010000
10000000
,
01000000
00000000
00000000
00000000
00100000
00010000
00100000
00001000
,
00010000
00000000
00000000
00000000
00000100
00010000
00000100
00001000
,
00000100
00000000
00011000
00010100
,
00001100
00000000
00000010
00000000
00000001
00001000
00000010
00001000
,
00000100
00000000
00001000
00000000
00000100
00010000
00000100
00010000
,
00001000
00000000
01000000
00000000
00100000
01000000
00010000
10000000
,
01000000
00000000
00100000
00000000
00010000
00100000
00001000
00000000
,
00011000
00000000
00010000
00000000
00000100
00000100
00000100
00000000
,
00001000
00000000
00000010
00000000
00000100
00000100
00000100
00000000
,
00000010
00000000
00010000
00000000
00001000
00001000
00001000
00000000
,
01000000
00010000
01000000
00000000
00100000
00100000
01100000
00000000
,
10010000
00000000
00000000
00010000
00000000
10000000
00010000
00100000
,
00001000
00000000
00000000
00010000
00000000
00000100
00001000
00000100
,
00010000
00000000
00000000
00000010
00000000
00000100
00000001
00000100
,
00000010
00000000
00010000
00000000
00001000
00010000
00001000
00000000
,
00011000
00010000
00001000
01000000
,
00100000
00000000
10000000
00000000
01000000
00000000
00100000
00010000
,
00000000
00100000
00001000
00000000
00010000
00000000
00000100
00000000
,
00000010
00000000
00000001
00000000
00000100
00000000
00000010
00001000
,
00000000
00000100
00010000
00000000
00001000
00000000
01000000
00000000
,
00100000
00000000
01000000
00000000
00010000
00000000
10000000
01000000
,
00000000
00100000
00010000
00000000
00100000
00000000
00001000
00000000
,
00010000
00000000
00000100
00000000
00001000
00000000
00000001
00001001
,
00000000
00001000
00001000
00000000
00000100
00000000
00010000
00000000
,
00001000
00000000
01000000
00000000
00010000
00000000
10000000
00010000
,
00000000
10000000
00010000
00000000
00100000
00000000
00001000
00000000
,
00010000
00000000
00000100
00000000
00000010
00000000
00000100
00001000
,
00000000
00000100
00010000
00000000
00001000
00000000
01000000
00000000
,
00100000
00000000
01000000
00000000
00010000
00000000
10000000
00010000
,
20020000
00000000
00000000
30030000
,
01010000
01001000
00011000
00010100
,
00000110
00000000
00000100
00000000
00001000
00000100
00001000
00000100
,
00010000
00000000
00001000
00000000
01000000
00001000
01000000
00000000
,
00010000
00000000
10000000
00000000
01000000
10000000
01000000
10000000
,
00010000
00000000
00100000
00000000
00001000
00010000
00001000
00000000
,
00010000
00000000
00000100
00000000
00000010
00000100
00000010
00000001
,
00001000
00000000
00000010
00000000
00001000
00000100
00001000
00000000
,
00000100
00000000
00010000
00000000
00001000
00100000
00001000
01000000
,
00010000
01000000
00100000
00000000
10000000
00010000
10000000
00000000
,
10010000
00000000
00010000
00000000
00100000
00100000
00100000
00000000
,
00001000
00000000
00010000
00000000
00000100
00000100
00000100
00000000
,
00000010
00000000
00000100
00000000
00001000
00001000
00001000
00000000
,
00000100
00000000
00010000
00000000
00001000
00010000
00001000
01000000
,
00010000
00000000
10000000
00000000
01000000
01000000
01000000
00100000
,
01000000
00000000
00100000
00000000
00010000
00010000
00010000
00100000
,
00001000
00000000
00010000
00000000
00000100
00000100
00000100
00001000
,
00000001
00000000
00000000
00000000
00001000
00000000
00000100
00000000
00010000
00000000
00000000
00011000
00000000
00000000
00000000
00000000
;

//---------------dance-double - ----------------
#NOTES:
     dance-double:
     :
     Easy:
     4:
     0.246,0.266,0.098,0.016,0.000:
10000000
01000000
00100000
00100000
,
00010000
00100000
00001000
00001000
,
00010000
00000100
00000010
00000010
,
00000100
00010000
00011000
00000000
,
00001000
01000000
00010000
00010000
,
10000000
01000000
10000000
10000000
,
00010000
00100000
00001000
00001000
,
00010000
00000100
00000010
00000010
,
00000110
00000000
00000000
00000000
,
00001001
00000000
00000000
00000000
,
00000000
00001001
00000000
00000000
00000000
00000000
00000000
00000000
,
00001000
00000100
00010000
00001000
,
00011000
00000000
00001000
01000000
,
00010000
00000000
00010000
10000000
,
01000000
00000000
10000000
00010000
,
00100000
00001000
00010000
00001000
,
01000000
00000000
00010000
01000000
,
00001000
00000000
00010000
00000100
,
00001000
00000000
00000100
00001000
,
00000001
00000010
00000100
00000010
,
00000001
00000000
00001000
00000000
,
00000010
00000000
00001000
00000000
,
00000100
00000000
00010000
00000000
,
00001000
00010000
00001000
00010000
,
00011000
00000000
00001000
01000000
,
00010000
00000000
00010000
10000000
,
00100000
00000000
00100000
10000000
,
01000000
00100000
00010000
00100000
,
00101000
00000000
00100000
00001000
,
00010000
00000000
00001000
00000000
00010000
00000000
00000100
00000100
,
00000000
00000100
00001000
00000100
,
00000010
00000000
00000001
00000000
00001000
00000000
00000001
00000001
,
00000000
00000001
00001000
00000010
,
00001000
00000000
00000100
00000000
00010000
00000000
00001000
00001000
,
00000000
00010000
00001000
01000000
,
00010000
00000000
10000000
00000000
00100000
00000000
01000000
01000000
,
00000000
00100000
10000000
01000000
,
00100000
00010000
00100000
00001000
,
00011000
00010000
00000100
00001000
,
00000100
00000010
00000001
00001000
,
00001001
00001000
00000100
00010000
,
00001000
01000000
00010000
10000000
,
20020000
00000000
00000000
00000000
,
00000000
00000000
00000000
30030000
,
10010000
00000000
00010000
00100000
,
00001000
00010000
00000100
00000010
,
00000100
00000000
00000010
00000001
,
00000100
00001000
00000100
00000010
,
00010000
00000000
00001000
00100000
,
00010000
10000000
01000000
00010000
,
01000000
00000000
00100000
00010000
,
00100000
00001000
00010000
00000000
,
00011000
00000000
00010000
00000100
,
00010000
00000000
00000100
00001000
,
00000100
00000000
00001000
00000001
,
00001000
00000001
00000100
00000010
,
00000100
00000100
00000001
00001000
,
00000100
00000100
00010000
00001000
,
01000000
01000000
00010000
10000000
,
00100000
01000000
00100000
00000000
;
