#TITLE:Tetris;
#SUBTITLE:(Doubles only);
#ARTIST:Dj Skribble;
#TITLETRANSLIT:;
#SUBTITLETRANSLIT:;
#ARTISTTRANSLIT:;
#CREDIT:;
#BANNER:bn.bmp;
#BACKGROUND:bg.bmp;
#LYRICSPATH:;
#CDTITLE:;
#MUSIC:tetris.mp3;
#OFFSET:-0.030;
#SAMPLESTART:13.340;
#SAMPLELENGTH:12.000;
#SELECTABLE:YES;
#BPMS:0.000=144.000;
#STOPS:;
#BGCHANGES:;

//---------------dance-double - ----------------
#NOTES:
     dance-double:
     :
     Hard:
     8:
     0.528,0.681,0.456,0.191,0.075: // measure 1
00000000
00000000
00000000
00000000
,  // measure 2
00000000
00000000
00000000
00000000
,  // measure 3
00000000
00000000
00000000
00000000
,  // measure 4
00000000
00000000
00000000
00000000
,  // measure 5
10000000
00010000
00000000
00010000
00100000
00000000
00010000
00010000
,  // measure 6
00100000
00000000
00000000
00000000
00000000
00000000
00010000
00000000
01000000
00000000
00000000
00010000
10000000
00000000
00010000
00000000
,  // measure 7
01000000
00000000
00010000
10000000
01000000
00000000
10000000
00000000
,  // measure 8
00110000
00011000
00001100
00000000
,  // measure 9
00001100
00000000
00001001
00000001
00001000
00000000
00001100
00001000
,  // measure 10
00000100
00000000
00000011
00000001
00000010
00000000
00000011
00000001
,  // measure 11
00000100
00000000
00000010
00000100
00000001
00000000
00000100
00000000
,  // measure 12
00001010
00000000
00010100
00000000
00011000
00000000
00001000
00100000
,  // measure 13
00010000
00100000
00000000
00010000
01000000
00000000
00100000
10000000
,  // measure 14
00010000
00000000
00000000
00000000
00000000
00000000
10000000
00000000
10000000
00000000
00000000
01000000
10000000
00000000
01000000
00000000
,  // measure 15
10000000
00000000
00010000
01000000
00010000
00000000
01010000
00000000
,  // measure 16
00011000
00010100
00101000
00000000
,  // measure 17
00100000
00001000
00010000
00001000
00100000
00001000
00010000
00001000
,  // measure 18
00100000
00001000
00010000
00001000
00100000
00001000
00010000
00010000
,  // measure 19
00001000
00010000
00000100
00010000
00001000
00010000
00000100
00010000
,  // measure 20
00001000
00010000
00000100
00010000
00001000
00000000
00011000
00110000
,  // measure 21
01100000
00000000
10010000
00000000
00010000
01000000
00100000
10000000
,  // measure 22
10100000
00000000
01010000
00000000
00100000
00001000
00010000
00000100
,  // measure 23
00001100
00000000
00000011
00000000
00000001
00000100
00000010
00001000
,  // measure 24
00001001
00001001
00001001
00000000
,  // measure 25
00001200
00000000
00001000
00001000
00001000
00000000
00001000
00001000
,  // measure 26
00001300
00000000
00000100
00010000
00001000
00000000
00001000
01000000
,  // measure 27
00100000
00000000
01100000
00100000
00100000
00000000
01000000
00000000
,  // measure 28
10010000
00000000
00110000
00000000
00011000
00000000
00001000
00100000
,  // measure 29
00020000
00100000
00000000
00100000
00100000
00000000
00100000
00100000
,  // measure 30
00130000
00000000
00000000
00010000
01000000
00000000
00100000
10000000
,  // measure 31
00010000
00000000
00100000
00010000
01000000
00000000
10010000
00000000
,  // measure 32
10000000
01000000
00010000
00100000
00010000
01000000
00010000
00100000
00001000
00010000
00000100
00001000
00000100
00001000
00000010
00000100
,  // measure 33
00000001
00000000
00000000
00000010
00000000
00000000
00000001
00000000
00000100
00000000
00000000
00000010
00000000
00000000
00001000
00000000
,  // measure 34
00000100
00000000
00000000
00010000
00000000
00000000
00001000
00000000
00100000
00000000
00000000
00010000
00000000
00000000
00010000
00000000
,  // measure 35
01000000
00000000
00000000
00100000
00000000
00000000
01000000
00000000
00100000
00000000
00000000
10000000
00000000
00000000
10000000
00000000
,  // measure 36
01000000
00000000
00000000
10000000
00000000
00000000
01000000
00000000
00100000
00000000
00000000
00000000
00010000
00000000
00100000
00000000
,  // measure 37
01000000
00100000
00010000
01000000
00010000
00000000
00010000
01000000
,  // measure 38
00001000
00000000
00000000
00001000
00010000
00000000
00001000
00100000
,  // measure 39
00010000
00000000
00100000
00001000
00010000
00000000
00001000
00000000
,  // measure 40
00020000
00000000
00032000
00000000
01003000
00000000
01000000
00100000
,  // measure 41
10000000
00010000
00100000
00010000
00100000
00000000
00011000
00000000
,  // measure 42
00000100
00001000
00000100
00001000
00000010
00000000
00000101
00000000
,  // measure 43
00000001
00000010
00000100
00001000
00000100
00000000
00011000
00000000
,  // measure 44
00001000
00100000
00010000
00100000
00010000
00000000
01100000
00000000
,  // measure 45
20200000
00300000
32000000
00000000
03200000
00000000
00300000
00000000
,  // measure 46
00202000
00300000
00023000
00000000
00000200
00000000
00030300
00000000
,  // measure 47
00001010
00000000
00001100
00000000
,  // measure 48
00011000
00000000
00000000
00000000
10010000
00000000
00000000
00000000
01100000
00000000
00000000
00010000
10000000
00000000
00010000
00000000
,  // measure 49
00100000
00100000
00010000
00100000
00100000
00000000
00010000
01000000
,  // measure 50
00100000
00100000
01000000
00100000
00100000
00000000
10000000
00010000
,  // measure 51
01000000
01000000
00010000
01000000
01000000
00000000
10000000
00010000
,  // measure 52
00100000
00100000
00010000
00100000
00100000
00000000
00100000
00001000
,  // measure 53
00010000
00010000
00001000
00010000
00010000
00000000
00010000
00000100
,  // measure 54
00010000
00010000
00000100
00010000
00010000
00000000
00010000
00000100
,  // measure 55
00000010
00000010
00000001
00000010
00000010
00000000
00000001
00000010
,  // measure 56
00000100
00010000
00001000
00100000
00010000
00000000
10010000
10010000
,  // measure 57
10020000
00000000
10000000
10000000
10000000
00000000
01000000
01000000
,  // measure 58
01000000
00000000
00100000
00100000
00130000
00000000
00100000
00001000
,  // measure 59
00011000
00000000
00000000
00010000
00000100
00000000
00010100
00000000
,  // measure 60
00011000
00001001
00011000
00000000
,  // measure 61
00000000
00001000
01000000
00100000
01000000
00000000
00100000
10000000
,  // measure 62
01000000
00000000
00000000
10000000
00110000
00000000
00100000
00001000
,  // measure 63
00010000
00000000
00000100
00010000
00001000
00000000
00010000
00000000
,  // measure 64
01001000
00010010
00001100
00000000
,  // measure 65
00000200
00000000
00000000
00010000
00010300
00000000
00000000
00000000
,  // measure 66
00002000
00000000
00000000
00100000
00103000
00000000
00000000
00000000
,  // measure 67
00020000
00000000
00000000
00100000
00130000
00000000
00000000
00000000
,  // measure 68
02000000
00000000
00000000
00100000
03100000
00000000
00000000
00000000
,  // measure 69
20000000
00000000
00000000
01000000
01000000
00000000
30000000
00000000
,  // measure 70
02000000
00000000
00000000
00100000
00100000
03000000
00000000
00000000
,  // measure 71
02000000
03200000
00302000
00000000
,  // measure 72
00020000
00000000
00000000
00003000
00030000
00000000
00000000
00000000
;

//---------------dance-double - ----------------
#NOTES:
     dance-double:
     :
     Medium:
     6:
     0.424,0.537,0.481,0.398,0.000:
00000000
00000000
00000000
00000000
,
00000000
00000000
00000000
00000000
,
00000000
00000000
00000000
00000000
,
00000000
00000000
00000000
00000000
,
00000000
00000000
00000000
00000000
,
00000000
00000000
00000000
00000000
,
00000000
00000000
00000000
00000000
,
00000000
00000000
00000000
00000000
,
00010000
00000000
01000000
00010000
01000000
00000000
00100000
01000000
,
00100000
00000000
10000000
00010000
10000000
00000000
00100000
01000000
,
00010000
00000000
00000000
01000000
00010000
00000000
00100000
00000000
,
00101000
00011000
00001100
00000000
,
00000000
00001000
00000000
00000001
00000010
00000000
00000001
00000100
,
00000010
00000000
00000000
00000010
00000100
00000000
00000010
00001000
,
00000100
00000000
00000100
00010000
00001000
00000000
00100000
00000000
,
00110000
11000000
10010000
00000000
,
20000000
31000000
02000000
03100000
,
00020000
00000000
00130000
00000000
00010000
00000000
00100000
00001000
,
00020000
00031000
00020000
00030100
,
00002000
00000000
00000100
00000000
00003100
00000000
00001000
00000001
,
00000200
00000301
00000002
00000013
,
00000002
00000103
00000200
00000310
,
00000020
00002030
00003200
00020300
,
00032000
00203000
00320000
00030000
,
10010000
00000000
00010000
10000000
01000000
00000000
00010000
10000000
,
01000000
00000000
00010000
10000000
01000000
00000000
10000000
01000000
,
00100000
00000000
00000000
00010000
00100000
00000000
00010000
00000000
,
00110000
00011000
00011000
00000000
,
00000000
00010000
00000000
00001000
01000000
00000000
00100000
10000000
,
00010000
00000000
00000000
10000000
10000000
00000000
10000000
00010000
,
01000000
00000000
00010000
01000000
00010000
00000000
01010000
00000000
,
01000000
00001000
00100000
00001000
00010000
00001000
00010000
00000100
,
00020100
00000100
00030100
00000200
,
00001300
00000200
00010300
00002000
,
00103000
00000000
00000000
00100000
00100000
00000000
00010000
00000000
,
10010000
01010000
00110000
00000000
,
00000000
01000000
01000000
00010000
00100000
00000000
00010000
01000000
,
00001000
00000000
00000000
00001000
00100000
00000000
00001000
00010000
,
00000100
00001000
00000100
00000010
,
00000011
00000101
00001010
00000000
,
00000002
00000010
00000020
00000033
,
00000002
00001000
00001003
00000000
,
00000200
00001000
00001300
00000000
,
00000200
00010000
00010300
00000000
,
00022000
00033000
00220000
00330000
,
02200000
03300000
22000000
33000000
,
20020000
30030000
02020000
03030000
,
00220000
00330000
00011000
00001010
,
00000001
00000100
00000000
00000001
00000100
00000000
00000001
00001000
,
00000100
00001000
00000000
00000100
00001000
00000000
00000100
00010000
,
00001000
00100000
00000000
00001000
00100000
00000000
00001000
00100000
,
00010000
00100000
00000000
00010000
00100000
00000000
00010000
01000000
,
00100000
01000000
00000000
00100000
01000000
00000000
00100000
10000000
,
00010000
00100000
00000000
00010000
01000000
00000000
00100000
10000000
,
00010000
00000000
00100000
00010000
00100000
00000000
00010000
00000000
,
00011000
00011000
00011000
00000000
,
00011000
00001100
00000110
00000011
,
00000101
00000011
00000101
00000110
,
00001010
00001100
00011000
00110000
,
01010000
11000000
01010000
00000000
,
10010000
00110000
00101000
00011000
,
00010100
00000000
00001100
00000000
,
00001001
00000011
00000011
00000101
,
00001001
00001001
00001100
00000000
,
00002000
00000000
00103000
00000000
,
00002000
00000000
00013000
00000000
,
00020000
00000000
00030100
00000000
,
00020000
00000000
00031000
00000000
,
00002000
00000000
01003000
00000000
,
02000000
00000000
03001000
00000000
,
00002000
00000000
00020000
00000000
,
00000000
00000000
00000000
00000000
,
00033000
00000000
00000000
00000000
;

//---------------dance-double - ----------------
#NOTES:
     dance-double:
     :
     Easy:
     4:
     0.268,0.412,0.199,0.207,0.000:
00000000
00000000
00000000
00000000
,
00000000
00000000
00000000
00000000
,
00000000
00000000
00000000
00000000
,
00000000
00000000
00000000
00000000
,
10000000
00010000
01000000
00010000
,
00100000
00000000
00110000
00010000
,
10000000
00010000
01000000
00010000
,
00100000
00001000
00010000
00000000
,
00010000
00001100
00010000
00001100
,
00010000
00000000
00001100
00000000
00000110
00000000
00000010
00000001
,
00000100
00000000
00000010
00000100
,
00000010
00001000
00001100
00000000
,
00000100
00010000
00001000
00100000
,
00010000
00000000
01010000
00000000
,
00010000
10000000
01000000
00100000
,
00010000
00100000
00001000
00000000
,
00020000
00000000
00000000
00030000
,
00002000
00000000
00000000
00003000
,
00200000
00000000
00000000
00300000
,
00020000
00000000
00000000
00030000
,
00020000
00000000
00100000
00030000
,
00200000
00000000
00001000
00000000
,
00302000
00100000
00103000
00001000
,
00010000
00001000
00100000
00000000
,
00202000
00000000
00000000
00303000
,
00001000
00100000
00001000
00010000
,
00000100
00000000
00001000
00001000
,
00000001
00000100
00000010
00001000
,
00002002
00000000
00000000
00003003
,
00000100
00000000
00000100
00000010
,
00001000
00001000
00000001
00001000
,
00001010
00001100
00011000
00110000
,
20020000
00000000
30030000
00000000
,
00010000
00000000
10000000
00000000
,
01000000
00000000
10000000
00000000
,
00010000
00000000
01000000
00010000
,
00100000
00000000
00001000
00000000
,
00010000
00000000
00000100
00000000
,
00001000
00000000
00000100
00000000
,
00001000
00000001
00000100
00000000
,
00000002
00000000
00000000
00000003
,
00002000
00000000
00000000
00003000
,
00000200
00000000
00000000
00000300
,
00002000
00000000
00000000
00003000
,
00000200
00000000
00000000
00000300
,
00020000
00000000
00000000
00030000
,
00002000
00000000
00010000
00013000
,
00011000
00000000
00110000
11000000
,
10010000
00010000
01000000
00010000
,
00100000
00010000
01000000
00100000
,
10000000
01000000
00100000
00010000
,
00110000
00011000
00001100
00000000
,
00001000
00000100
00001000
00000001
,
00000100
00000001
00000010
00000001
,
00000100
00000010
00001000
00000100
,
00001100
00001100
00001100
00000000
,
00000100
00000000
00000000
00010000
00000000
00000000
00001000
00000000
,
00100000
00000000
00000000
00010000
00000000
00000000
00010000
00000000
,
01000000
00000000
00000000
01000000
00000000
00000000
00100000
00000000
,
10000000
00000000
00000000
00010000
00000000
00000000
10000000
00000000
,
01000000
00000000
00000000
10000000
00000000
00000000
10000000
00000000
,
00010000
00000000
00000000
00010000
00000000
00000000
00010000
00000000
,
01000000
00000000
00000000
00010000
00000000
00000000
00010000
00000000
,
00100000
00000000
00000000
00010000
00000000
00000000
00000000
00000000
,
00200000
00000000
00010000
00300000
,
00020000
00000000
00100000
00030000
,
00200000
00000000
00001000
00300000
,
00002000
00000000
00010000
00003000
,
00000000
00000000
00000000
00001000
00010000
00000000
00000000
00000000
,
00000000
00000000
00000000
00001000
01000000
00000000
00000000
00000000
,
00000000
00000000
00000000
00100000
00002000
00000000
00000000
00000000
,
00003000
00000000
00000000
00000000
;
