#TITLE:Never Gonna Come Down;
#SUBTITLE:;
#ARTIST:BT ft. Mike Doughty;
#TITLETRANSLIT:;
#SUBTITLETRANSLIT:;
#ARTISTTRANSLIT:;
#GENRE:;
#CREDIT:Telperion;
#BANNER:;
#BACKGROUND:;
#LYRICSPATH:;
#CDTITLE:;
#MUSIC:Never Gonna Come Down.mp3;
#OFFSET:-3.512;
#SAMPLESTART:6.600;
#SAMPLELENGTH:19.853;
#SELECTABLE:YES;
#DISPLAYBPM:136.000;
#BPMS:0.000=136.000;
#STOPS:;
#BGCHANGES:;
#KEYSOUNDS:;

//---------------dance-double - Telperion----------------
#NOTES:
     dance-double:
     Telperion:
     Easy:
     4:
     0.242,0.247,0.056,0.177,0.000:
00000000
00000000
00000000
00000000
,
00020000
00000000
00002000
00033000
,
00011000
00001000
00010000
00010000
,
00100000
00010000
00100000
01000000
,
00010000
00010000
00100000
01000000
,
10000000
10000000
01000000
01000000
,
00100000
00100000
00010000
00100000
,
00001000
00001000
00001000
00010000
,
00002000
00000000
00000000
00000000
,
00010000
00000000
00010000
00013000
,
00001000
00000100
00000001
00000010
,
00000100
00001000
00000001
00001000
,
00000100
00010000
00001000
00010000
,
00001000
00000000
00010000
00010000
,
00001000
00100000
00010000
01000000
,
00100000
01000000
00010000
00100000
,
01000000
10000000
00010000
01000000
,
00100000
10000000
00010000
01000000
,
00200000
00000000
00000000
00000000
,
10300000
20000000
00000000
00000000
,
00000000
00000000
00000000
00000000
,
32000000
00000000
00000000
00000000
,
03010000
00000000
00001000
00000000
,
00000010
00000000
00000100
00000000
,
00020000
00000000
00000000
00000000
,
00001000
00000000
00001000
00031000
,
00011000
00000000
00001000
00010000
,
00010100
00000000
00000010
00000100
,
00001100
00000000
00000001
00000100
,
00000110
00000010
00000010
00000010
,
00001000
00000100
00001100
00000000
,
00000001
00000100
00000010
00001000
,
00000100
00010000
00000100
00001000
,
00000100
00010000
01000000
00100000
,
00010000
00000000
00010000
00000000
,
20000000
00010000
30010000
00000000
,
00100000
00000000
01000000
00000000
,
00100000
00001000
00010000
00000010
,
00001000
00000000
00000001
00000000
,
00002000
00000001
00003001
00000000
,
00000010
00000000
00000100
00000000
,
00001000
00000010
00010000
00001000
,
00100000
00000000
01000000
00000000
,
00200000
01000000
01300000
00000000
,
00100000
00010000
10000000
00000000
,
00100000
10000000
00010000
01000000
,
00001000
00000000
00010000
00000000
,
00001000
00000100
00000010
00001000
,
00000100
00000000
00001000
00000100
,
00000010
00000001
00000100
00000001
,
00000020
00000000
00000000
00000000
,
00002030
00000000
00000000
00000000
,
00023000
00000000
00000000
00000000
,
00230000
00000000
00000000
00000000
,
20300000
00000000
00000000
00000000
,
32000000
00000000
00000000
00000000
,
03020000
00000000
00000000
00000000
,
00032000
00000000
00000000
00000000
,
00020000
00000000
00000000
00000000
,
00033000
00000000
00000000
00000000
;

//---------------dance-double - Telperion----------------
#NOTES:
     dance-double:
     Telperion:
     Challenge:
     9:
     0.629,0.685,0.409,0.177,0.288:
00000000
00000000
00000000
00000000
,
10000000
00000000
10000000
01000000
00000000
01000000
00010000
00000000
00001000
00000000
00000100
00000000
00000010
00000000
00001000
00000000
,
00000001
00000000
00000010
00000000
00000011
00000000
00000000
00000001
00000100
00000000
00000010
00000000
00001010
00000000
00000000
00000000
,
00000100
00000000
00001000
00000000
00011000
00000000
00010000
00001000
00010000
00000000
01000000
00000000
01100000
00000000
00000000
00000000
,
00010000
00000000
10000000
00000000
11000000
00000000
00000000
10000000
00010000
00000000
01000000
00000000
01010000
00000000
00000000
00000000
,
00100000
00000000
01000000
00000000
10100000
00000000
00000000
01000000
00100000
00000000
00001000
00000000
00000100
00001000
00000100
00000000
,
00000020
00000000
00000000
00000000
00001030
00000000
00000000
00000100
00000010
00000000
00000001
00000000
00000011
00000000
00000000
00000000
,
00000002
00000000
00000000
00000000
00001003
00000000
00000000
00000010
00000100
00000000
00001000
00000000
00011000
00000000
00000000
00000000
,
00010000
00001000
00010000
00100000
01000000
00100000
10000000
01000000
,
00100000
01000000
00010000
00001000
01000000
00100000
00010000
00001000
,
00000100
00000000
00000010
00000000
00000110
00000000
00000000
00001000
00000100
00000000
00000010
00000000
00000011
00000000
00000000
00000000
,
00000001
00000000
00000100
00000000
00001000
00000000
00010000
00001000
00010000
00000000
01000000
00000000
10000000
00000000
01000000
00000000
,
00100000
00000000
00010000
00000000
00110000
00000000
00000000
01000000
00100000
00000000
10000000
00000000
11000000
00000000
00000000
00000000
,
01000000
00000000
00100000
00000000
00001000
00000000
00010000
00100000
00010000
00000000
00001000
00000000
00000100
00000000
00000000
00000000
,
00000010
00000000
00010000
00000000
00011000
00000000
00000000
00001000
00000010
00000000
00000100
00000000
00001100
00000000
00000000
00000000
,
00000001
00000000
00000010
00000000
00001000
00000000
00010000
00001000
00010000
00000000
01000000
00000000
01100000
00000000
00000000
00000000
,
10000000
00000000
01000000
00000000
00100000
00000000
00001000
00010000
00000000
00010000
00100000
00000000
01000000
00000000
00000000
00000000
,
00100000
00000000
00010000
00000000
00001000
00000000
00000100
00000010
00000000
00000010
00001000
00000000
00000100
00000000
00010000
00000000
,
00002000
00000000
00000000
00000000
,
00023000
20030000
00000000
00000000
,
00000000
00000000
00000000
32000000
,
03010000
00000000
00000000
00100000
00000000
00000000
01000000
00000000
00000000
00010000
00000000
00000000
00001000
00000000
00000000
00000000
,
00010000
00001000
00010000
00010000
,
00001000
00010000
00001000
00000100
,
00000020
00000000
00000000
00000000
,
00002000
00000030
00000002
00003003
,
00001002
00000000
00000000
00000000
00001003
00000000
00000000
00001000
00000100
00000000
00000010
00000000
00000101
00000000
00000000
00000000
,
00000010
00000000
00000000
00000000
00001100
00000000
00000000
00001000
00000010
00000000
00000100
00000000
00001000
00000100
00000000
00000000
,
00001000
00000000
00010000
00000000
00001000
00000000
00000000
00010000
00001000
00000000
00010000
00000000
00001000
00000000
00010000
00000000
,
01000000
00000000
00000000
01000000
10000000
00000000
00000000
10000000
00100000
00000000
00000000
00100000
00010000
00000000
00000000
00010000
,
02000000
00000000
00000000
00000000
03100000
00000000
00000000
00100000
01000000
00000000
10000000
00000000
01010000
00000000
00000000
00000000
,
00100000
00000000
00000000
00000000
11000000
00000000
00000000
01000000
00100000
00000000
00001000
00000000
00010000
00100000
00000000
00000000
,
00010000
00001000
00020000
00001000
00032000
00010000
00013000
00001000
,
00010000
00001000
00010000
00000100
00001000
00000100
00000000
00000010
00000001
00000100
00000010
00000100
00000001
00001000
00000100
00000010
,
00000001
00000000
00001000
00000000
00001001
00000000
00000001
00000100
00001000
00000000
00010000
00000000
00011000
00000000
00000000
00000000
,
00001000
00000000
00001000
00000000
00010000
00000000
00001000
00010000
00100000
00000000
01000000
00000000
01010000
00000000
00000000
00000000
,
00010000
00000000
10000000
00000000
10010000
00000000
10000000
01000000
00100000
00000000
01000000
00000000
01100000
00000000
00000000
00000000
,
10000000
01000000
00100000
01000000
00010000
00001000
00000001
00000100
,
00001000
00000000
00000010
00000000
00000110
00000000
00000001
00000010
00001000
00000000
00010000
00000000
00011000
00000000
00000000
00000000
,
00001000
00000000
00010000
00000000
00110000
00000000
00100000
00010000
00001000
00000000
00100000
00000000
00101000
00000000
00000000
00000000
,
00010000
00000000
00100000
00000000
01100000
00000000
00100000
10000000
01000000
00000000
00100000
00000000
00100000
00000000
00020000
00000000
,
10030000
10000000
01000000
00100000
00001000
00000100
00010000
00000010
,
00000100
00000000
00001000
00000000
00001100
00000000
00000100
00001000
00000001
00000000
00000100
00000000
00000101
00000000
00000000
00000000
,
00000010
00000000
00001000
00000000
00001100
00000000
00010000
00001000
00010000
00000000
00100000
00000000
01100000
00000000
00000000
00000000
,
00010000
00000000
00100000
00000000
01100000
00000000
00010000
00001000
00000000
00001000
00000100
00000000
00000010
00000000
00002000
00000000
,
00000000
00003100
00000010
00001000
00010000
00100000
01000000
00010000
,
00100000
00000000
01000000
00000000
10100000
00000000
10000000
01000000
00010000
00000000
00001000
00000000
00011000
00000000
00000000
00000000
,
00001000
00000000
00000100
00000000
00000101
00000000
00000001
00000010
00000100
00000000
00001000
00000000
00001020
00000000
00000000
00000000
,
00000130
00000000
00001000
00000000
00010000
00000000
01000000
00010000
00000000
00010000
00001000
00000000
00000100
00000000
00001000
00000000
,
01000000
00100000
10000000
01000000
00010000
00000100
00000010
00000001
,
00000200
00000000
00000000
00000000
00000310
00000000
00000000
00000010
00000000
00001000
00000100
00000000
00000010
00000000
00000001
00000000
,
00000100
00000000
00001000
00000000
00000100
00000000
00000010
00010000
00001000
00000000
00010000
00000000
01000000
00000000
00100000
00000000
,
00020000
00000000
00000000
00000000
01030000
00000000
00000000
01000000
00000000
00100000
10000000
00000000
01000000
00000000
00010000
00000000
,
01000000
10000000
00100000
00010000
00000010
00000100
00001000
00010000
,
00000100
00000000
00000010
00000000
00000011
00000000
00000001
00000100
00000010
00000000
00001000
00000000
00001100
00000000
00000000
00000000
,
00010000
00000000
00001000
00000000
00101000
00000000
00010000
01000000
00100000
00000000
10000000
00000000
11000000
00000000
00000000
00000000
,
00010000
00000000
00001000
00000000
00000100
00000000
00000010
00001000
00000100
00000000
00000010
00000000
00000001
00000000
00000010
00000000
,
00001000
00100000
01000000
00010000
00000100
00000010
00001000
00010000
,
00200000
00000000
00000000
00000000
,
00300000
00000000
00000000
00000000
;

//---------------dance-double - Telperion----------------
#NOTES:
     dance-double:
     Telperion:
     Hard:
     8:
     0.555,0.493,0.204,0.130,0.200:
00000000
00000000
00000000
00000000
,
10000000
00000000
01000000
00100000
00000000
00100000
00001000
00000000
00010000
00000000
00100000
00010000
00001000
00000000
00000100
00000000
,
00000010
00000000
00001000
00000000
00000001
00000000
00000100
00000010
00000000
00000010
00001000
00000000
00000001
00000000
00000000
00000000
,
00000010
00000000
00000001
00000000
00001000
00000000
00000100
00000010
00000000
00000010
00000001
00000000
00001000
00000000
00000000
00000000
,
00000100
00010000
00001000
00000000
01000000
00100000
10000000
01000000
,
00010000
00001000
01000000
00000000
00100000
00010000
00001000
00000100
,
00000010
00000000
00001000
00000000
00000100
00000000
00000010
00000001
00000000
00000001
00000100
00000000
00001000
00000000
00000000
00000000
,
00010000
00000000
00001000
00000000
00010000
00000000
01000000
10000000
00000000
10000000
01000000
00000000
00100000
00000000
00010000
00000000
,
10000000
00100000
01000000
00010000
00001000
00000010
00000100
00000001
,
00000010
00000100
00001000
00010000
00100000
01000000
10000000
00100000
,
00010000
00000000
00001000
00000000
00011000
00000000
00000000
01000000
00000000
00000000
10000000
00000000
10100000
00000000
00000000
00000000
,
00100000
00000000
10000000
00000000
11000000
00000000
00000000
00010000
00000000
00000000
00001000
00000000
01001000
00000000
00000000
00000000
,
00100000
00000000
00010000
00000000
00011000
00000000
00000000
00100000
00000000
00000000
01000000
00000000
01010000
00000000
00000000
00000000
,
00001000
00000000
00000100
00000000
00000010
00000000
00001000
00000100
00000000
00000010
00000100
00000000
00010000
00000000
00001000
00000000
,
00000100
00000000
00000010
00000000
00001010
00000000
00000000
00000001
00000000
00000000
00001000
00000000
00001100
00000000
00000000
00000000
,
00000100
00000000
00010000
00000000
00011000
00000000
00001000
00010000
00000000
00010000
00100000
00000000
01100000
00000000
00000000
00000000
,
01000000
00000000
00100000
00000000
00010000
00000000
00100000
10000000
00000000
10000000
01000000
00000000
00100000
00000000
00010000
00000000
,
10000000
01000000
00010000
00001000
01000000
00100000
00010000
00001000
,
00000020
00000000
00000000
00000000
,
00002030
02003000
00000000
00000000
,
00000000
00000000
00000000
00000000
,
03100000
00000000
00000000
10000000
00000000
00000000
01000000
00000000
00000000
00100000
00000000
00000000
00001000
00000000
00010000
00000000
,
00012000
00000000
00000000
00000000
,
02003000
00000000
23000000
00000000
,
30200000
00000000
00320000
00000000
,
02030000
00000000
00100000
03100000
,
01100000
00000000
00000000
00000000
00100000
00000000
00000000
10000000
01000000
00000000
00010000
00000000
00001000
00000000
00000000
00000000
,
00011000
00000000
00000000
00000000
00010000
00000000
00000000
00001000
00000100
00000000
00000001
00000000
00000010
00000000
00000000
00000000
,
00000001
00000010
00000100
00000010
00001000
00010000
00000100
00010000
,
00001000
01000000
00100000
01000000
00010000
10000000
01000000
00000000
,
11000000
00000000
00000000
00000000
10000000
00000000
00000000
00100000
00010000
00000000
00001000
00000000
00010000
00000000
00000000
00000000
,
00011000
00000000
00000000
00000000
00010000
00000000
00000000
00001000
00000010
00000000
00000001
00000000
00000010
00000000
00000100
00000000
,
00001000
00000000
00001000
00000000
00000100
00000000
00000000
00000010
00000001
00000000
00000100
00000000
00001000
00000000
00000000
00000000
,
00000100
00000010
00000100
00001000
01000000
00100000
00010000
00001000
,
00100000
00000000
01000000
00000000
00100000
00000000
00000000
00100000
00010000
00000000
10000000
00000000
00100000
00000000
10000000
00000000
,
00010000
00000000
01000000
00000000
00100000
00000000
00000000
00100000
01000000
00000000
00001000
00000000
00010000
00000000
00001000
00000000
,
00000100
00000000
00000010
00000000
00001000
00000000
00000000
00001000
00000100
00000000
00000010
00000000
00000001
00000000
00002000
00000000
,
00003000
00001000
00000001
00000100
00000010
00010000
00000100
00001000
,
00010000
00000000
00001000
00000000
00000100
00000000
00000000
00010000
00001000
00000000
00010000
00000000
01000000
00000000
00010000
00000000
,
00000000
00000000
00001000
00000000
00000000
00000000
00000000
00010000
00001000
00000000
00010000
00000000
00100000
00000000
10000000
00000000
,
01000000
00000000
00100000
00000000
00010000
00000000
00000000
00010000
01000000
00000000
00100000
00000000
10000000
00000000
02000000
00000000
,
03000000
01000000
00010000
00001000
00100000
00010000
00100000
01000000
,
00010000
00000000
00001000
00000000
00010000
00000000
00000000
00001000
00000100
00000000
00000010
00000000
00000110
00000000
00000000
00000000
,
00000001
00000000
00000010
00000000
00000100
00000000
00000000
00000100
00001000
00000000
00000001
00000000
00000100
00000000
00001000
00000000
,
00010000
00000000
00001000
00000000
00010000
00000000
00000000
00010000
00100000
00000000
01000000
00000000
00010000
00000000
00200000
00000000
,
00300000
00100000
01000000
00010000
00001000
00010000
00000010
00000100
,
00001000
00000000
00001000
00000000
00010000
00000000
00000000
00001000
00010000
00000000
00100000
00000000
01100000
00000000
00000000
00000000
,
10000000
00000000
01000000
00000000
00010000
00000000
00000000
01000000
00010000
00000000
00001000
00000000
00010000
00000000
00001000
00000000
,
00000100
00000000
00000001
00000000
00000010
00000000
00000000
00000010
00000100
00000000
00000010
00000000
00000001
00000000
00000200
00000000
,
00000300
00000100
00001000
00010000
01000000
00010000
00001000
00010000
,
00100000
00000000
00000000
00000000
01100000
00000000
00000000
00100000
10000000
00000000
01000000
00000000
00100000
00000000
00010000
00000000
,
01000000
01000000
00100000
00100000
00010000
00010000
00001000
00001000
,
00100000
00000000
00000000
00000000
00011000
00000000
00000000
00010000
00001000
00000000
00000100
00000000
00000010
00000000
00001000
00000000
,
00000100
00000100
00000010
00000010
00000001
00000001
00000100
00000010
,
00001000
00000000
00000000
00000000
00000011
00000000
00000000
00000001
00000100
00000000
00001000
00000000
00010000
00000000
00010000
00000000
,
00100000
10000000
01000000
00010000
00010000
01000000
10000000
00100000
,
01000000
00000000
10010000
00000000
00100000
00000000
01001000
01000000
,
00100000
10000000
01000000
00010000
00001000
00000010
00000001
00000100
,
00000020
00000000
00000000
00000000
,
00000030
00000000
00000000
00000000
;

//---------------dance-double - BadStd----------------
#NOTES:
     dance-double:
     BadStd:
     Edit:
     6:
     -1.000,-1.000,-1.000,-1.000,-1.000:
00000000
00000000
00000000
00000000
,
10000000
00000000
00000000
01000000
00000000
00000000
00100000
00000000
00001000
00000000
00010000
00000000
00000100
00000000
00001000
00000000
,
00000010
00000000
00000100
00000000
00000010
00001000
00000100
00000000
,
00010000
00000000
00001000
00000000
00010000
00001000
01000000
00000000
,
00100000
00000000
01000000
00000000
00100000
10000000
01000000
00000000
,
00010000
00000000
01000000
00000000
00100000
00010000
01000000
00100000
,
01000000
00000000
01100000
00000000
00100000
01000000
00010000
01000000
,
00001000
00000000
00010000
00000000
00011000
00000000
00001000
00010000
,
00000100
00001000
00000010
00010000
00000100
00001000
00000010
00000100
,
00000010
00000000
00000010
00001000
00000100
00000001
00000100
00000010
,
00000001
00000000
00000000
00000000
00001000
00000000
00000000
00000001
00000000
00000000
00000100
00000000
00001000
00000000
00000000
00000000
,
00010000
00000000
00001000
00000000
00010000
00000000
00000000
01000000
00000000
00000000
00100000
00000000
00010000
00000000
00000000
00000000
,
01000000
00000000
00100000
00000000
01000000
00000000
00000000
00010000
00000000
00000000
00100000
00000000
10000000
00000000
00000000
00000000
,
00100000
00010000
01000000
00000000
00100000
10000000
01000000
00000000
,
00100000
00000000
00000000
00000000
00001000
00000000
00000000
00100000
00000000
00000000
01000000
00000000
00010000
00000000
00000000
00000000
,
00011000
00000000
00000000
00000000
00010000
00000000
00000000
00000100
00000000
00000000
00000010
00000000
00000100
00000000
00001000
00000000
,
00000010
00000100
00001000
00100000
,
01000000
00010000
00000010
00000100
,
00002000
00000000
00000000
00000000
,
00010000
00203000
00000000
00000000
,
00000000
00000000
00000000
00000000
,
00310000
00000000
00000000
10000000
00000000
00000000
00010000
00000000
00000000
10000000
00000000
00000000
00010000
00000000
00000000
00000000
,
20000000
31000000
00020000
01030000
,
00200000
01300000
00002000
00013000
,
00200000
00010000
00000000
00010000
,
00310000
00000000
00001000
00000000
00000100
00001000
00000100
00000010
,
00001000
00000000
00000000
00000000
00000001
00000000
00000000
00000100
00000000
00000000
00001000
00000000
00010000
00000000
00000000
00000000
,
00011000
00000000
00000000
00000000
00010000
00000000
00000000
01000000
00000000
00000000
10000000
00000000
00010000
00000000
00000000
00000000
,
10000000
00010000
00100000
00000000
00001000
00000000
00100000
00010000
,
01000000
00000000
00100000
00000000
01000000
00100000
00010000
00000000
,
00001000
00000000
00000000
00000000
00010000
00000000
00000000
00010000
00000000
00000000
00000100
00000000
00000010
00000000
00000000
00000000
,
00000001
00000000
00000000
00000000
00000100
00000000
00000000
00000100
00000000
00000000
00001000
00000000
00010000
00000000
00000000
00000000
,
00001000
00010000
00100000
00000000
00100000
00000000
01000000
00100000
,
10000000
01000000
00100000
00010000
00100000
00001000
00010000
00000000
,
00011000
00000000
00000000
00000000
00001000
00000000
00000000
01000000
00000000
00000000
00010000
00000000
01000000
00000000
00000000
00000000
,
00100000
00000000
01000000
00000000
00100000
00000000
00000000
10000000
00000000
00000000
01000000
00000000
00100000
00000000
00000000
00000000
,
00100000
00000000
01000000
00000000
00010000
00000000
00000000
00001000
00000000
00000000
00010000
00000000
00100000
00000000
02000000
00000000
,
00000000
03100000
10000000
00010000
01000000
00100000
10000000
02000000
,
00000000
00000000
03000000
00000000
01000000
00000000
00000000
00100000
00000000
00000000
00010000
00000000
00100000
00000000
00002000
00000000
,
00000000
00023000
00000000
00031000
00010000
00000000
00001000
00000000
,
00000100
00000000
00000010
00000000
00000100
00000000
00000000
00000001
00000000
00000000
00000010
00000000
00000100
00000000
00000020
00000000
,
00000000
00000031
00001000
00000100
00000010
00000001
00001000
00000200
,
00000000
00000000
00000300
00000000
00000100
00000000
00000000
00000010
00000000
00000000
00000001
00000000
00000100
00000000
00002000
00000000
,
00000000
00003200
00000000
00000310
00000100
00000000
00001000
00010000
,
00001000
00000000
00000000
00000000
00100000
00000000
00000000
01000000
00000000
00000000
10000000
00000000
01000000
00000000
00200000
00000000
,
00000000
00310000
10000000
01000000
00100000
00010000
10000000
00010000
,
00000000
00000000
00020000
10000000
00030000
00000000
20000000
00010000
,
00000000
31000000
00000000
00100000
00000000
00001000
00000000
00000100
,
00000010
00000000
00001000
00000000
00000010
00000000
00000000
00000010
00000000
00000000
00001000
00000000
00000100
00000000
00000020
00000000
,
00000000
00000031
00000100
00000010
00001000
00000001
00000100
00000010
,
00001000
00000000
00000001
00000000
00000100
00000010
00000100
00002000
,
00000000
00003000
00010000
00000000
01000000
00000000
10000000
00200000
,
00000000
00000000
01300000
00000000
10000000
01000000
00100000
02000000
,
00000000
03010000
00100000
01000000
00100000
01000000
00000000
02000000
,
00000000
00000000
03010000
00000000
00001000
00010000
00001000
02000000
,
00000000
00000000
03100000
00000000
00010000
00000000
00001000
00000200
,
00000000
00000000
00000310
00000000
00000010
00001000
00000100
00000020
,
00000000
00000130
00001000
00000100
00010000
00001000
01000000
00001000
,
00020000
00000000
00000000
00000000
,
00030000
00000000
00000000
00000000
;

//---------------dance-double - Telperion----------------
#NOTES:
     dance-double:
     Telperion:
     Medium:
     6:
     0.398,0.411,0.019,0.102,0.056:
00000000
00000000
00000000
00000000
,
00010000
01000000
00010000
00000000
10000000
01000000
10000000
01000000
,
00100000
00000000
00010000
00000000
10000000
00010000
01000000
00100000
,
00010000
00000000
00010000
00000000
00001000
00100000
00010000
00100000
,
01000000
00000000
01000000
00000000
00010000
01000000
00010000
00001000
,
00010000
00000000
00001000
00000000
00000100
00001000
00000100
00000010
,
00001000
00000000
00000001
00000000
00001000
00000100
00000010
00000100
,
00000001
00000000
00000100
00000000
00001001
00000000
00000001
00000100
,
00000010
00001000
00000100
00010000
00001000
00100000
00010000
01000000
,
00100000
00000000
00100000
01000000
00010000
01000000
00001000
00010000
,
00001000
00000000
00100000
00000000
01000000
10000000
01000000
00000000
,
00010000
00000000
00001000
00000000
00100000
00010000
00100000
00000000
,
00001000
00000000
00000100
00000000
00001000
00000100
00001000
00000000
,
00000100
00000010
00000100
00000000
00000010
00001000
00000010
00000000
,
00001000
00000100
00001000
00000000
00000001
00000100
00000001
00000000
,
00000010
00000100
00010000
00000000
00001000
01000000
00001000
00000000
,
00010000
01000000
00100000
00000000
00100000
01000000
10000000
00000000
,
10000000
00100000
01000000
00000000
01000000
10000000
01000000
00100000
,
20000000
00000000
00000000
00000000
,
00010000
30200000
00000000
00000000
,
00000000
00000000
00000000
00000000
,
02300000
00000000
00000000
03020000
00000000
00000000
00230000
00000000
,
01300000
00010000
00010000
00001000
,
00001000
00000100
00000100
00000001
,
00000020
00000000
00000000
00000000
,
00000100
00000000
00000100
00000130
,
00000110
00000000
00000000
00000000
00000010
00000000
00000000
00000001
00000000
00000000
00000001
00000000
00000100
00000000
00000000
00000000
,
00000010
00000000
00000000
00000000
00001000
00000000
00000000
00000100
00000000
00000000
00000100
00000000
00000010
00000000
00000000
00000000
,
00000001
00000000
00000000
00000000
00000100
00000000
00000000
00001000
00000000
00000000
00010000
00000000
00001000
00000000
00000000
00000000
,
00010000
00000000
00000000
00000000
01000000
00000000
00000000
10000000
00000000
00000000
00010000
00000000
10000000
00000000
00000000
00000000
,
00100000
00000000
00000000
00000000
01000000
00000000
00000000
00010000
00000000
00000000
00010000
00000000
01000000
00000000
00000000
00000000
,
00100000
00000000
00000000
00000000
10000000
00000000
00000000
01000000
00000000
00000000
01000000
00000000
10000000
00000000
00000000
00000000
,
01000000
00000000
00100000
00000000
00010000
00000000
00000000
01000000
00000000
00000000
01000000
00000000
00010000
00000000
00000000
00000000
,
00100000
01000000
00010000
01000000
00010000
00001000
00000100
00000010
,
00001000
00000100
00001000
00000000
00000001
00000100
00000001
00000010
,
00000000
00000001
00000100
00000000
00000010
00001000
00000100
00000000
,
00000010
00000000
00000100
00000000
00010000
00000000
00000000
00001000
00000000
00000000
00010000
00000000
00001000
00000000
00010000
00000000
,
00100000
00000000
00010000
00000000
00001000
00000000
00000000
00010000
00000000
00000000
00001000
00000000
00010000
00000000
00001000
00000000
,
00000010
00000001
00000100
00000000
00000010
00001000
00000100
00010000
,
00000000
00001000
00010000
00000000
00010000
00001000
01000000
00000000
,
00100000
00000000
00010000
00000000
00001000
00000000
00000000
00010000
00000000
00000000
00001000
00000000
00010000
00000000
00001000
00000000
,
00000010
00000000
00001000
00000000
00010000
00000000
00000000
00001000
00000000
00000000
00010000
00000000
00100000
00000000
00000000
00000000
,
01000000
00010000
00010000
00000000
01000000
00010000
00100000
00000000
,
01000000
10000000
10000000
00000000
01000000
00100000
00001000
00000000
,
00010000
00000000
00100000
00000000
00100000
00000000
00000000
01000000
00000000
00000000
00100000
00000000
00010000
00000000
00000000
00000000
,
00001000
00010000
00000100
00001000
00000010
00001000
00000100
00010000
,
00001000
00000000
00010000
00000000
00001000
00010000
00001000
00000000
,
00000100
00001000
00000100
00000010
00000000
00001000
00000000
00000001
,
00000000
00000010
00000000
00000100
00000000
00001000
00000001
00000100
,
00000010
00001000
00000100
00010000
00001000
01000000
00010000
00100000
,
02000000
00000000
00000000
00000000
,
13000000
01000000
00010000
00001000
,
00000200
00000000
00000000
00000000
,
00000301
00000010
00001000
00010000
,
02000000
00000000
00000000
00000000
,
13000000
00100000
00010000
00001000
,
00000200
00000000
00000000
00000000
,
00000301
00000010
00000100
00001000
,
00000002
00000000
00000000
00000000
,
00000003
00000000
00000000
00000000
;
