#TITLE:Losing My Religion;
#SUBTITLE:;
#ARTIST:R.E.M.;
#TITLETRANSLIT:;
#SUBTITLETRANSLIT:;
#ARTISTTRANSLIT:;
#CREDIT:348;
#BANNER:Losing My Religion Banner.png;
#BACKGROUND:Losing My Religion Background.png;
#LYRICSPATH:Losing My Religion.lrc;
#CDTITLE:;
#MUSIC:Losing My Religion.mp3;
#OFFSET:-1.451;
#SAMPLESTART:45.708;
#SAMPLELENGTH:15.000;
#SELECTABLE:YES;
#DISPLAYBPM:125.000;
#BPMS:0.000=125.400,224.000=126.174,228.000=126.754,232.000=127.783,236.000=127.561,240.000=128.472,244.000=130.731,248.000=123.501,252.000=108.692,253.000=91.393,254.000=93.038,255.000=73.256,256.000=73.256;
#STOPS:;
#BGCHANGES:;

//---------------dance-single - ----------------
#NOTES:
     dance-single:
     :
     Beginner:
     1:
     0.095,0.122,0.000,0.000,0.000:
0000
0000
0000
0000
,
0000
0000
0000
0000
,
0000
0000
0000
0000
,
0000
0000
0001
0001
,
0001
0000
0000
0000
,
0001
0000
1000
1000
,
1000
0000
0000
0000
,
1000
0000
0000
0000
,
0010
0000
0000
0000
,
0100
0000
0000
0000
,
0010
0000
0100
0000
,
0010
0000
0000
0000
,
1000
0000
0000
0000
,
0000
0001
0001
0000
,
0000
1000
1000
0000
,
0001
0000
0000
0000
,
0100
0000
0000
0000
,
0010
0000
0000
0000
,
1000
0000
0001
0000
,
1000
0000
0001
0000
,
1000
0000
0000
0000
,
0000
0000
0010
0000
,
0010
0000
0000
0000
,
0100
0000
0100
0000
,
0100
0000
0000
0000
,
0010
0000
0010
0000
,
0010
0000
0100
0000
,
0010
0000
0100
0000
,
0010
0000
0000
0000
,
0100
0000
0000
0000
,
0001
0000
0000
0000
,
1000
0000
0000
0000
,
0001
0000
1000
0000
,
0001
0000
0000
0000
,
1000
0000
0010
0000
,
0100
0000
0001
0000
,
1000
0000
0000
0000
,
0000
0000
0001
0000
,
1000
0000
0000
0000
,
0001
0000
0000
0000
,
0100
0000
0000
0000
,
0010
0000
0010
0000
,
0100
0000
0000
0000
,
0001
0000
1000
0000
,
1000
0000
0001
0000
,
0100
0000
0010
0000
,
1000
0000
0000
0000
,
0001
0000
0000
0000
,
0100
0000
0001
0000
,
0001
0000
0000
0000
,
1000
0000
1000
0000
,
0010
0000
0000
0000
,
0100
0000
0100
0000
,
0010
0000
0010
0000
,
1000
0000
1000
0000
,
0001
0000
0001
0000
,
1000
0000
0000
0000
,
1000
0000
0000
0000
,
0100
0000
0000
0000
,
0100
0000
0000
0000
,
0010
0000
0000
0000
,
0010
0000
0000
0000
,
0001
0000
0000
0000
,
0001
0000
0000
0000
,
0001
0000
0000
0000
;

//---------------dance-single - ----------------
#NOTES:
     dance-single:
     :
     Easy:
     3:
     0.215,0.246,0.122,0.099,0.000:
0000
0000
0000
0000
,
0000
0000
0000
0000
,
0000
0000
0000
0000
,
0000
0000
1000
0001
,
1000
0001
0000
0001
,
0000
0001
0100
0010
,
0100
0010
0000
0010
,
0000
0010
1000
0100
,
2000
0000
3010
0000
,
0002
0000
0103
0000
,
1000
0100
1000
0000
,
0001
0010
0100
0010
,
0001
0000
1000
0000
,
0001
0100
0010
1000
,
0101
0000
1000
0000
,
1000
0010
0100
0001
,
1010
0000
0001
0000
,
0100
0010
0200
0300
,
0001
0010
0001
0100
,
0002
0003
2000
3000
,
0020
0000
0030
0000
,
0100
0100
0100
0100
,
0001
0000
1000
0000
,
0001
0100
1000
0010
,
0001
0000
1000
0000
,
0001
0010
1000
0100
,
0001
0000
1000
0000
,
0001
0010
1000
0010
,
0002
0000
1003
0000
,
1000
0100
0001
0100
,
2000
0000
3001
0000
,
1001
0000
1000
0100
,
1000
0100
0001
0010
,
2000
0000
3010
0000
,
1000
0010
0001
0100
,
2000
3000
0002
0003
,
0200
0000
0310
0000
,
0010
0010
0010
0010
,
1000
0000
0001
0000
,
1000
0100
0010
0001
,
1100
0000
1000
0000
,
0001
0010
0100
1000
,
0011
0000
0001
0000
,
0100
0010
0100
1001
,
0110
1000
0000
0001
,
0000
1000
0000
0001
,
0100
0010
0000
0100
,
0000
0010
0100
0010
,
1000
0100
1000
0011
,
1000
0000
0001
0000
,
1100
0000
0101
0000
,
1010
0000
0011
0000
,
0001
0010
0001
1100
,
0001
0000
1000
0100
,
1010
0000
0001
0010
,
0101
0000
1001
0000
,
0100
0000
0000
0100
0000
0000
0000
0000
,
0001
0000
0000
0001
0000
0000
0000
0000
,
1000
0000
0000
1000
0000
0000
0000
0000
,
0010
0000
0000
0010
0000
0000
0000
0000
,
1000
0000
0000
1000
0000
0000
0000
0000
,
0001
0000
0000
0001
0000
0000
0000
0000
,
0100
0000
0000
0100
0000
0000
0000
0000
,
0001
0000
1000
0000
,
0020
0000
0030
0000
;

//---------------dance-single - ----------------
#NOTES:
     dance-single:
     :
     Medium:
     5:
     0.313,0.370,0.267,0.122,0.000:
0000
0000
0000
0000
,
0000
0000
0000
0000
,
0000
0000
0000
0000
,
0000
0000
0000
0000
1000
0001
1000
0000
,
0001
1100
0010
0101
,
1000
0000
1001
0000
0010
0100
0010
0000
,
1000
0011
0100
1010
,
0100
0110
0001
0100
,
0001
0000
1000
0000
0001
0001
0000
0001
,
0000
0000
1000
0000
1000
1000
0000
1000
,
0000
0010
0100
0010
,
1000
0100
0001
0010
,
1000
0000
0001
0000
0100
0100
0000
0100
,
0000
0000
0010
0000
0010
0010
0000
0010
,
0000
0000
1000
0000
1000
0001
0000
0001
,
0000
0000
0100
0000
0100
0010
0000
0010
,
0000
0100
0010
0100
,
0001
0100
1000
0010
,
0001
1000
1000
0001
,
2100
0000
0000
0000
0010
0000
0000
3001
,
0000
0000
0100
0000
0101
0000
0000
0100
,
0000
1100
0000
0000
0001
1000
0000
0001
,
0000
0000
0010
0000
0011
0000
0000
0010
,
0000
1010
0000
0000
0001
0000
1000
0000
,
0001
0010
1000
0010
,
0001
0100
1000
0100
,
0002
0103
2000
3010
,
0002
0203
0320
2030
,
3001
1000
1000
0001
,
1000
0100
0001
0100
,
1000
0010
0001
0010
,
1000
0000
0001
0000
1000
0100
1000
0100
,
1000
0100
0001
0010
,
0001
0100
1000
0000
,
0010
0100
0100
0010
,
0012
0000
0000
0000
0100
0000
0000
1003
,
0000
0000
1000
0000
1001
0000
0000
0001
,
0000
1001
0000
0100
0010
0000
0110
0000
,
0001
0100
0110
1000
,
0001
0000
0100
0000
0001
0010
0001
0010
,
0001
0000
1000
0000
0010
0100
0010
0000
,
1000
0100
0010
1100
,
1000
0000
0001
0000
0100
0010
0100
0000
,
0001
0010
0100
0011
,
1001
0110
1000
0010
,
0200
0000
0000
0000
0302
0000
0000
2003
,
0000
0000
3010
0000
1000
0001
1000
0000
,
0001
0000
0100
0000
0001
1000
0001
0000
,
1100
0000
0001
0000
1010
0000
0001
2000
,
0000
0100
0010
3001
,
0001
1001
1000
1001
,
0010
0110
0100
0110
,
0101
0000
1000
0000
0011
0000
1000
0002
,
0000
0000
0010
0000
0100
0000
1003
0020
,
0000
0000
1000
0000
0100
0000
0100
0230
,
0000
0000
0001
0310
,
1100
0000
0000
1000
0000
0000
0100
0000
,
0011
0000
0000
0010
0000
0000
0001
0000
,
1010
0000
0000
0010
0000
0000
1000
0000
,
0101
0000
0000
0001
0000
0000
0100
0000
,
1001
0000
0000
1000
0000
0000
0001
0000
,
0110
0000
0000
0010
0000
0000
0100
0000
,
1001
0000
0000
0100
0000
0000
0010
0000
,
1000
0100
0010
0001
,
0200
0000
0300
0000
;

//---------------dance-single - ----------------
#NOTES:
     dance-single:
     :
     Hard:
     7:
     0.429,0.394,0.367,0.145,0.000:
0000
0000
0000
0000
,
0000
0000
0000
0000
,
0000
0000
0000
0000
,
0000
0000
0000
0000
1000
0100
0010
0001
,
1000
0000
0110
0000
0001
0010
0000
1100
,
0000
0011
0000
1000
0001
0010
0100
1000
,
0001
0000
0100
0010
0000
0110
0000
0000
,
0001
1010
1000
0101
,
1000
0000
0001
0000
0100
0010
1000
0010
,
0000
0100
0001
0000
0010
0001
0100
0002
,
0000
0000
1003
0020
0000
0000
1030
0001
,
0000
1010
0000
0101
0000
0011
0000
1100
,
0000
1001
0000
0000
1000
0100
0001
0100
,
0000
1000
0001
0000
0010
1000
0010
0001
,
0000
0100
0010
0000
1000
0100
0010
0100
,
1000
0000
0110
0000
0001
0010
0100
0010
,
0001
0000
1100
0000
0010
0100
0010
0000
,
1000
0000
0011
0000
0100
0010
0100
0000
,
0002
0203
0320
2030
,
3001
0000
0110
0000
1000
0000
0001
0100
,
0000
0000
0010
0100
0010
0000
0000
1010
,
0000
1100
0000
0001
0010
0100
0010
0001
,
1000
0000
0001
1000
0001
0000
1000
0100
,
1000
0100
0001
1000
0010
0001
1000
0001
,
1000
0000
0001
0010
1000
0100
0000
0001
,
1000
0000
0001
0100
1000
0010
0000
0001
,
1000
0000
1001
0000
0001
0010
0001
0000
,
1000
0000
0110
0000
0001
0010
1000
0010
,
0001
0000
0011
0000
1000
0100
0001
0100
,
0000
1000
0010
0001
0010
0000
1001
0000
,
1000
0010
0001
0000
1000
0010
0001
0000
,
1000
0100
0001
1000
0100
0001
1000
0000
,
0110
0011
1100
1001
,
0010
1000
0010
0001
0010
0000
0110
0000
,
2000
3020
0230
0302
,
0103
0000
1001
0000
0010
0000
0100
0010
,
0000
0000
1000
0001
1000
0000
0001
0010
,
0100
0001
0010
0100
0001
0000
0110
0000
,
1000
0000
0010
0100
0010
0000
1000
0000
,
0001
0000
1001
0000
0100
0001
0100
1000
,
0100
0000
1000
0000
0010
1000
0100
1000
,
0000
0110
0000
0001
0010
0001
0100
0000
,
1001
0000
0010
1000
0010
0100
0000
1001
,
0000
0100
0001
0100
0010
0000
0110
0000
,
1010
1100
0011
0101
,
1001
0000
0110
0000
1000
0100
0001
0010
,
0000
1000
0001
0000
0100
0010
0100
0000
,
0001
1000
0100
0001
0010
0000
1001
0000
,
0100
0001
0010
0000
0100
1000
0010
0001
,
0000
0010
1000
0000
0011
0000
1010
0000
,
0010
1000
0100
0000
0010
0001
0100
1000
,
0000
0100
0001
0000
1100
0000
0101
0000
,
0110
0000
1001
0000
0100
0001
0100
1000
,
0000
0001
1000
0000
0001
0010
1000
0010
,
0000
0001
1000
0000
0001
0100
0010
1000
,
0000
0010
0100
0000
1001
0000
0110
0000
,
2000
0000
0100
0100
0000
0100
3100
0000
,
0200
0000
0010
0010
0000
0010
0310
0000
,
0020
0000
0001
0001
0000
0001
0031
0000
,
0002
0000
1000
1000
0000
1000
1003
0000
,
2000
0000
0001
0001
0000
0001
3001
0000
,
0020
0000
0100
0100
0000
0100
0130
0000
,
0200
0000
0001
0302
0000
1000
1003
0000
,
1000
0100
1000
0000
0001
0010
0001
0000
,
0200
0000
0300
0000
;

//---------------dance-single - ----------------
#NOTES:
     dance-single:
     :
     Challenge:
     9:
     0.552,0.493,0.344,0.130,0.000:
0000
0000
0000
0000
,
0000
0000
0000
0000
,
0000
0000
0000
0000
,
0000
0000
0000
0000
0001
0100
1000
0010
,
0001
0000
1000
0100
0010
0001
0100
1000
,
0010
0001
0010
1000
0100
0001
0010
0100
,
1001
0000
0100
0001
0010
0100
1000
0010
,
0001
0010
1000
0010
1000
0011
0101
0000
,
1000
0100
0010
0001
1000
0100
0001
0200
,
0000
1300
0010
0001
0100
1000
0001
2000
,
0000
3010
0001
0010
1000
0100
0010
0100
,
1000
0100
0001
0010
1000
0001
0110
0000
,
1001
0000
0011
1000
0100
1000
0010
2000
,
0000
3001
0010
0100
0001
0010
0100
0002
,
0000
1003
0100
0010
1000
0100
0010
1000
,
0001
1000
0001
0100
0010
0100
1010
0000
,
0110
0000
1000
0100
0001
0100
1000
0010
,
0001
0010
1000
0001
1010
0001
0101
0000
,
1000
0100
0011
0000
0001
0010
1100
0000
,
0002
0010
0013
0000
2000
0100
3100
0000
,
0110
0000
0001
1000
1001
0000
0010
0100
,
0010
1000
0010
0001
0010
1000
0100
0001
,
0010
1000
0010
0001
0100
1000
0001
1000
,
0011
0000
1100
0000
0001
0010
0100
1000
,
0001
0010
1000
0010
0001
0100
1000
0010
,
0000
0001
1000
0010
0001
0010
1000
0001
,
1100
1000
1010
0000
0101
0001
0011
0000
,
1000
0100
0001
0010
1000
0100
0010
0001
,
1010
0000
0001
0010
0001
0100
0001
1000
,
0000
0010
1000
0100
0010
0001
0100
1000
,
0010
1000
0101
0000
0100
0001
1010
0000
,
0001
0010
1000
0010
0001
0000
0110
0000
,
1000
0100
0001
1000
0010
0001
1000
0100
,
0001
1000
0010
0001
1000
0001
1010
0000
,
0100
0001
1010
0000
1000
0010
0101
0000
,
0200
0001
0301
0000
0020
1000
1030
0000
,
1001
0000
0010
0100
0110
0000
0001
0010
,
0100
1000
0001
0010
1000
0100
0001
0000
,
1000
0001
0110
0000
0001
1000
0110
0000
,
1001
0000
1001
0000
0100
0001
1000
0010
,
1100
0001
1000
0001
0100
1000
0100
0001
,
1000
0100
0001
0100
1000
0001
1000
0100
,
0011
1000
0010
0001
0100
0001
0010
1000
,
0001
0010
1000
0001
0100
1000
0001
1010
,
1010
0001
0100
0001
0010
0100
1000
0010
,
1000
0100
0001
0010
1000
0100
1000
0010
,
0101
1000
0100
0001
0100
1000
0001
0100
,
1000
0010
0001
1000
0010
0100
0001
0110
,
0110
1000
0100
0001
1000
0100
0001
1000
,
0100
1000
0100
0010
0001
0010
0001
1000
,
0110
0001
0010
1000
0001
0010
1000
0001
,
0100
0001
0100
0010
1000
0010
1000
1001
,
1001
0100
0010
0001
0010
0100
0010
0001
,
0100
0010
0100
1000
0100
0010
0100
0010
,
1001
0100
0001
1000
0001
0100
0001
0100
,
1000
0010
0001
0100
1000
0010
0001
1000
,
0001
0010
0100
1000
0002
0100
0100
0103
,
1000
0100
0010
0001
2000
0010
0010
3010
,
0010
0001
0010
1000
0020
1000
1000
1030
,
0100
0001
0100
1000
0200
0001
0001
0301
,
0001
0100
1000
0001
0010
1000
0002
1000
,
1003
0100
0001
0100
1000
0010
0001
0010
,
2000
0001
0001
3001
0002
1000
1000
1003
,
1000
0010
0100
0001
0010
0001
0100
0010
,
2002
0000
3003
0000
;

//---------------dance-double - ----------------
#NOTES:
     dance-double:
     :
     Beginner:
     1:
     0.090,0.122,0.000,0.000,0.000:
00000000
00000000
00000000
00000000
,
00000000
00000000
00000000
00000000
,
00000000
00000000
00000000
00000000
,
00000000
00000000
00010000
00000000
,
00001000
00000000
00000000
00000000
,
00100000
00000000
01000000
00000000
,
10000000
00000000
00000000
00000000
,
00010000
00000000
01000000
00000000
,
00001000
00000000
00000000
00000000
,
00001000
00000000
00000000
00000000
,
00010000
00000000
00010000
00000000
,
00010000
00000000
00000000
00000000
,
00000100
00000000
00000000
00000000
,
00000010
00000000
00000010
00000000
,
00000010
00000000
00000000
00000000
,
00000001
00000000
00000001
00000000
,
00000001
00000000
00000000
00000000
,
00000000
00001000
00000010
00000000
,
00010000
00000000
00001000
00000000
,
00010000
00000000
00001000
00000000
,
00010000
00000000
00000000
00000000
,
00000000
00000000
00000010
00000000
,
00010000
00000000
00000000
00000000
,
00000000
00000000
00001000
00000000
,
00100000
00000000
00000000
00000000
,
00000000
00010000
00000000
10000000
,
00000000
01000000
00000000
00000000
,
00100000
00000000
00010000
00000000
,
00001000
00000000
00000000
00000000
,
00000000
00000000
00000000
00000000
,
00000100
00000000
00000010
00000000
,
00000001
00000000
00000000
00000000
,
00001000
00000000
00000010
00000000
,
00010000
00000000
00000000
00000000
,
00001000
00000000
00010000
00000000
,
00001000
00000000
00010000
00000000
,
00001000
00000000
00000000
00000000
,
00010000
00000000
00001000
00000000
,
01000000
00000000
00000000
00000000
,
00001000
00000000
00010000
00000000
,
00000010
00000000
00000000
00000000
,
00001000
00000000
00000100
00000000
,
00010000
00000000
00000000
00000000
,
00000000
00000000
00000000
00000000
,
00001000
00000000
01000000
00000000
,
00100000
00000000
01000000
00000000
,
00001000
00000000
00000000
00000000
,
00000000
00000000
00000000
00000000
,
01000000
00000000
00100000
00000000
,
01000000
00000000
00000000
00000000
,
00001000
00000000
00010000
00000000
,
00001000
00000000
00000000
00000000
,
00000010
00000000
00000100
00000000
,
00000010
00000000
00000000
00000000
,
00000001
00000000
00000000
00000000
,
00001000
00000000
00000100
00000000
,
00010000
00000000
00000000
00000000
,
00001000
00000000
00000000
00000000
,
00100000
00000000
00000000
00000000
,
01000000
00000000
00000000
00000000
,
00010000
00000000
00000000
00000000
,
00001000
00000000
00000000
00000000
,
00000010
00000000
00000000
00000000
,
00000100
00000000
00000000
00000000
,
00001000
00000000
00000000
00000000
;

//---------------dance-double - ----------------
#NOTES:
     dance-double:
     :
     Easy:
     3:
     0.227,0.246,0.115,0.183,0.000:
00000000
00000000
00000000
00000000
,
00000000
00000000
00000000
00000000
,
00000000
00000000
00000000
00000000
,
00000000
00000000
00010000
00000010
,
00010000
00000000
00000100
00000000
,
00010000
00000000
00001000
01000000
,
00001000
00000000
00100000
00000000
,
00001000
00000000
00011000
00000000
,
01000000
00010000
10000000
00020000
,
00000000
00130000
00001000
00010000
,
00000100
00001000
00000001
00002000
,
00000000
00003010
00010000
00001000
,
01000000
00010000
00001000
00000010
,
00000000
00001000
00000001
00001001
,
00000000
00010000
10000000
10010000
,
00000000
00100000
01000000
01100000
,
00000000
10000000
01000000
00100000
,
00010000
00001000
00000100
00000110
,
00000000
00000001
00001000
00000001
,
00002000
00000000
00003200
00000000
,
00020300
00000000
00000000
00000000
,
00031000
01000000
00002000
00000000
,
02003000
00000000
00000000
00000000
,
03010000
10000000
00100000
01000000
,
00100000
10000000
00010000
11000000
,
00000000
00010000
00100000
00110000
,
00001000
00000010
00000100
00000011
,
00000000
00001000
00000100
00001100
,
00000000
00010000
00001000
00100000
,
00001000
00010000
00000010
00010010
,
00000000
00001000
00010000
00000100
,
00010000
00001000
01000000
01001000
,
00000000
01000000
00001000
00200000
,
00000000
00310000
01000000
00200000
,
00000000
10300000
00010000
10000000
,
00020000
00000000
02030000
00000000
,
03002000
00000000
00000000
00000000
,
00013000
00000010
00010000
00000100
,
00020000
00000000
00030020
00000000
,
00001030
00000100
00000001
00000100
,
00001000
00000020
00000000
00010030
,
00001000
00200000
00000000
00310000
,
10000000
00020000
00000000
10030000
,
01000000
00000000
00110000
11000000
,
00010000
01000000
00001000
00100000
,
00020000
00000000
00032000
00000000
,
00003020
00000000
00000000
00000031
,
00001000
00000100
00010000
00000010
,
00011000
01000000
00100000
10000000
,
00020000
00000000
00030000
00000000
,
00100000
00000000
00010000
00000000
,
01000000
00000000
00001000
00000000
,
00011000
00000010
00000100
00000001
,
00002000
00000000
00003010
00000000
,
00010000
00000000
00001000
00000000
,
00100000
00000000
02000000
00000000
,
13000000
00000000
00000000
10000000
00000000
00000000
00000000
00000000
,
00100000
00000000
00000000
00100000
00000000
00000000
00000000
00000000
,
01000000
00000000
00000000
01000000
00000000
00000000
00000000
00000000
,
00010000
00000000
00000000
00010000
00000000
00000000
00000000
00000000
,
00001000
00000000
00000000
00001000
00000000
00000000
00000000
00000000
,
00000010
00000000
00000000
00000010
00000000
00000000
00000000
00000000
,
00000100
00000000
00000000
00000100
00000000
00000000
00000000
00000000
,
00000001
00000000
00000001
00000000
,
00000002
00000000
00000003
00000000
;

//---------------dance-double - ----------------
#NOTES:
     dance-double:
     :
     Medium:
     5:
     0.323,0.370,0.160,0.222,0.000:
00000000
00000000
00000000
00000000
,
00000000
00000000
00000000
00000000
,
00000000
00000000
00000000
00000000
,
00000000
00000000
00000000
00000000
01000000
00001000
01000000
00000000
,
00001000
00100000
01000000
00010000
,
00001000
00000000
00000010
00000000
00000100
00010000
00000100
00000000
,
00010000
00000000
00001000
00000000
00100000
00010000
00100000
00010000
,
00000000
00110000
10010000
11000000
,
00100000
00000000
00001000
00000000
01000000
00010000
00000000
00010000
,
00000000
00000000
01000000
00000000
00001000
00010000
00000000
00010000
,
00000000
00000000
00000100
00000000
00000010
00000001
00000010
00000000
,
00000001
00000000
00001000
00000000
00000010
00010000
00000010
00000000
,
00010000
00000000
00000010
00000000
00010000
00001000
00000000
00001000
,
00000000
00000000
00010000
00000000
00000100
00001000
00000000
00001000
,
00000000
00000000
00000010
00000000
00010000
00000100
00010000
00000000
,
00001000
00000000
00010000
00000000
00001000
00100000
00001000
00000000
,
01000000
00001000
00010000
00011000
,
00000010
00001000
00000010
00000000
00010000
00000000
00010100
00000000
,
00020000
00030010
00002000
01003000
,
00020100
00000000
00000000
00000000
00001000
00000000
00000000
01030000
,
00000000
00000000
02000000
00000000
13000000
00000000
00000000
20000000
,
00000000
30100000
00000000
00000000
00100000
01000000
00100000
00000000
,
02000000
03010000
00020000
00130000
,
00200000
00000000
00001000
00301000
,
00011000
00100000
00001000
00100000
,
00001000
00010000
00000010
00010000
,
00001000
01001000
00010000
00010100
,
00000200
00020300
00032000
02003000
,
03001000
00000000
00001000
00000000
00001000
00010000
00000000
00000000
,
00000100
00000000
00000100
00000000
00000100
00001000
00000000
00000000
,
00000100
00000010
00000001
00001000
,
00000010
00000001
00000010
00001000
,
00000100
00000000
00010000
00000000
00001000
00100000
00001000
00000000
,
01000000
00000000
00001000
00000000
00010000
00000010
00010000
00000000
,
00000020
00010030
00002000
01003000
,
00102000
00000000
00000000
00000000
00010000
00000000
00000000
00003100
,
00000000
00000000
00000001
00000000
00000101
00000000
00000000
00001000
,
00000000
00001000
00000000
00000100
00010000
00000000
00010100
00000000
,
00000100
00010000
00001000
00100000
,
01000000
00000000
01100000
00000000
10000000
01000000
10000000
01000000
,
10000000
00100000
01000000
00010000
,
00100000
00000000
00110000
00000000
00001000
00010000
00001000
00010000
,
00001000
00000010
00000100
00001000
,
00000001
00000000
00001001
00000000
00000010
00000100
00000010
00000000
,
00002000
00003100
00020000
00031000
,
00200000
00000000
00000000
00000000
00320000
00000000
00000000
02030000
,
00000000
00000000
03010000
00000000
00100000
00001000
00100000
00000000
,
00001000
00010000
00001000
00011000
,
00011000
00000000
00010000
00000000
00000100
00000000
00001000
00000001
,
00000000
00000100
00000010
00001100
,
00000001
00001000
00000001
00001000
,
00000100
00010000
00000100
00010000
,
00011000
00000000
00001000
00000000
01000000
00000000
00010000
10000000
,
00000000
00000000
00010000
00000000
01000000
00000000
00001000
00010000
,
00000000
00000000
00000010
00000000
00001000
00000000
00000001
00000020
,
00000000
00000030
00000000
00000000
00000011
00000000
00001100
00000000
,
00000002
00000000
00000000
00000010
00000000
00000000
00000013
00000000
,
00000020
00000000
00000000
00000100
00000000
00000000
00000130
00000000
,
00000200
00000000
00000000
00001000
00000000
00000000
00001300
00000000
,
00002000
00000000
00000000
00010000
00000000
00000000
00013000
00000000
,
00020000
00000000
00000000
00100000
00000000
00000000
00130000
00000000
,
00200000
00000000
00000000
01000000
00000000
00000000
01300000
00000000
,
02000000
00000000
00000000
10000000
00000000
00000000
13000000
00000000
,
10000000
00100000
01000000
00000000
00001000
00010000
00001000
00000000
,
00020000
00000000
00030000
00000000
;

//---------------dance-double - ----------------
#NOTES:
     dance-double:
     :
     Hard:
     7:
     0.443,0.419,0.489,0.199,0.000:
00000000
00000000
00000000
00000000
,
00000000
00000000
00000000
00000000
,
00000000
00000000
00000000
00000000
,
00000000
00000000
00000000
00000000
01000000
00010000
00001000
00000100
,
00001000
00000000
00000100
00010000
00000100
00010000
00000000
00001100
,
00000000
00001010
00000000
00001000
00000010
00001000
00010000
00100000
,
00010000
00000000
00100000
00001000
00100000
00001000
00000000
00011000
,
00000000
00110000
00011000
00001010
,
00000011
00000000
00001000
00000100
00010000
00000010
00000000
00010010
,
00000000
00000000
00001000
01000000
00010000
00100000
00000000
00110000
,
00000000
10000000
01000000
00000000
10000000
00010000
01000000
00000000
,
00011000
00000000
00000100
00000000
00001000
00000001
00000100
00000000
,
00000010
00000000
00001001
00000000
00001000
00000010
00010000
00000100
,
00000000
00000000
00011000
00000000
00100000
00001000
01000000
00010000
,
00000000
10000000
11000000
00010000
,
01010000
00001000
00011000
00000010
,
00002010
00000100
00010000
00003100
,
00021000
00100000
00001000
00030010
,
00000020
00002030
00003200
00020300
,
00032000
00000000
00203000
00000000
00320000
00000000
01030000
00100000
,
00000000
00000000
10000000
00010000
00100000
00000000
00001000
00010000
,
00000000
00001000
00000000
00010000
00000100
00000010
00000001
00000000
,
00000110
00000000
00000001
00001000
00000010
00000000
00010000
00001000
,
00000000
00000000
00011000
00000000
00001000
00010000
00001000
00000000
,
00101000
00000000
00010100
00000000
00000010
00000100
00000010
00000000
,
00001100
00000000
00110000
00000000
01000000
00100000
01000000
00000000
,
00010000
10000000
00100000
00000000
10000000
00010000
01000000
00000000
,
01100000
00000000
00011000
00000000
00100000
00010000
00001000
00010000
,
00100000
00000000
00001000
00010000
00000100
00010000
00000000
00001100
,
00000000
00000000
00001000
00000010
00010000
00001000
00000000
01010000
,
00000000
00011000
01000100
00011000
,
00000010
00001000
00010000
00001000
00000010
00000000
00000110
00000000
,
00001001
00000000
00001100
00000000
00000010
00010000
00000010
00000000
,
00001000
01000000
00100000
01000000
00001000
00000000
00110000
00000000
,
02000000
03020000
00230000
00302000
,
00023000
00000000
00030200
00000000
00002300
00000000
00003010
00000100
,
00000000
00000000
00000001
00001000
00000010
00000000
00010000
00001000
,
00000000
00100000
00010000
00001000
00000100
00000000
00011000
00000000
,
00100000
00101000
00000100
00010100
,
00001000
00000000
00011000
00000000
01000000
00010000
10000000
00010000
,
01000000
00000000
00100000
10000000
00010000
01000000
00001000
00100000
,
00000000
00011000
00000000
00010000
00000010
00001000
00000001
00001000
,
00000010
00000000
00000100
00000001
00001000
00000010
00010000
00000100
,
00000000
00011000
00000000
00100000
00001000
00010000
00000100
00000000
,
00110000
00011000
00001010
00011000
,
01010000
00000000
00001100
00000000
00000100
00001000
00010000
00100000
,
00000000
00101000
00000000
01001000
00000000
00011000
00000000
00010100
,
00000000
00010010
00000000
00001000
00010000
00001000
00010000
00000000
,
00011000
00000000
00001010
00000000
00000001
00000010
00000100
00001000
,
00000000
00010000
00100000
00000000
11000000
00000000
10010000
00000000
,
01000000
00001000
00010000
00000000
00001000
00010000
00000010
00000000
,
00001000
00000100
00010000
00001000
00100000
00010000
01000000
00000000
,
00011000
00000000
01010000
00000000
10000000
00100000
01000000
00010000
,
00000000
00001000
00000010
00000000
00001000
00000010
00010000
00001000
,
00000000
01000000
00010000
00000000
10000000
00010000
10000000
00000000
,
10000000
01000000
00100000
00010000
00001000
00000100
00000010
00000000
,
00001002
00000000
00000010
00000010
00000000
00000100
00000103
00000000
,
00012000
00000000
00100000
00100000
00000000
01000000
01003000
00000000
,
20010000
00000000
01000000
01000000
00000000
00100000
30100000
00000000
,
00021000
00000000
00000100
00000100
00000000
00000010
00030010
00000000
,
00000120
00000000
00001000
00001000
00000000
00010000
00010030
00000000
,
00012000
00000000
00010000
00023000
00000000
00001000
00031000
00000000
,
02100000
00000000
00010000
00010000
00000000
00001000
03001000
00000000
,
01000000
00001000
00020000
00000000
00031000
00010000
00000010
00000000
,
00020000
00000000
00030000
00000000
;

//---------------dance-double - ----------------
#NOTES:
     dance-double:
     :
     Challenge:
     9:
     0.546,0.493,0.351,0.145,0.000: // measure 1
00000000
00000000
00000000
00000000
,  // measure 2
00000000
00000000
00000000
00000000
,  // measure 3
00000000
00000000
00000000
00000000
,  // measure 4
00000000
00000000
00000000
00000000
01000000
00010000
00001000
00000010
,  // measure 5
00000100
00000000
00000001
00000010
00001000
00010000
00001000
00000100
,  // measure 6
00000001
00000010
00001000
00000010
00000001
00001000
00000100
00010000
,  // measure 7
00011000
00000000
01000000
10000000
00010000
00100000
00001000
00010000
,  // measure 8
00000100
00001000
00000001
00000010
00000001
00000011
00000101
00000000
,  // measure 9
00001010
00000000
00000100
00010000
00001000
00100000
00010000
10000000
,  // measure 10
01000000
00010000
01000000
10000000
00010000
01000000
00001000
00000000
,  // measure 11
01000000
00100000
10010000
00000000
00100000
01000000
10010000
00000000
,  // measure 12
01000000
00001000
00100000
00001000
00010000
00001000
00010000
00000100
,  // measure 13
00011000
00000000
02000000
00010000
03100000
10000000
01000000
00100000
,  // measure 14
00010000
00001000
00010000
00100000
00010000
00001000
00001100
00000000
,  // measure 15
00000011
00000000
00002000
00000010
00003100
00010000
00001000
00000100
,  // measure 16
00000010
00000100
00001000
00010000
00001000
01000000
01010000
00000000
,  // measure 17
00011000
00000000
00001010
00000000
00000001
00000100
00000010
00001000
,  // measure 18
00000100
00010000
00001000
00100000
00010000
01000000
01100000
00000000
,  // measure 19
20000000
00010000
30010000
00000000
00020000
00100000
00130000
00000000
,  // measure 20
00200000
00001000
00301000
00000000
00002000
00010000
00013000
00000000
,  // measure 21
00011000
00000000
00100000
00001000
00101000
00000000
00010000
00001000
,  // measure 22
00100000
00001000
00010000
00000100
00010000
00001000
00010000
00000100
,  // measure 23
00010100
00000000
00000010
00001000
00000200
00000000
00010300
00001000
,  // measure 24
00100000
00000000
00100010
00000000
00010000
00001000
00010000
00001000
,  // measure 25
01000000
00010000
10000000
00100000
01000000
00010000
00100000
00001000
,  // measure 26
00000000
00010000
00000100
00010000
00000010
00001000
00000010
00000100
,  // measure 27
00000101
00001010
00001100
00011000
,  // measure 28
00100000
00010000
01000000
00001000
00010000
00000010
00010010
00000000
,  // measure 29
00001000
00000001
00000100
00000010
00000100
00000001
00001000
00000100
,  // measure 30
00000000
00010000
00001000
00100000
00001000
01000000
01010000
00000000
,  // measure 31
10000000
00010000
00110000
00000000
00001000
00010000
00010100
00000000
,  // measure 32
00000010
00001000
00000001
00001000
00000100
00000000
00010100
00000000
,  // measure 33
00010000
00001000
00100000
00010000
00100000
00001000
00010000
00000010
,  // measure 34
00001000
00000100
00001000
00000001
00000010
00000001
00001001
00000000
,  // measure 35
00000002
00001000
00001003
00000000
00002000
00000100
00003100
00000000
,  // measure 36
00000200
00010000
00010300
00000000
00020000
00001000
00031000
00000000
,  // measure 37
00011000
00000000
00000100
00010000
00010100
00000000
00001000
00100000
,  // measure 38
00010000
00100000
00001000
00010000
00000100
00010000
00101000
00000000
,  // measure 39
00110000
01010000
00011000
00011000
,  // measure 40
00001100
00000000
00001010
00000000
00000001
00000100
00000010
00001000
,  // measure 41
00000001
00000100
00001000
00010000
01000000
10000000
00100000
00010000
,  // measure 42
00001000
00000010
00000001
00001000
00000010
00010000
00000100
00010000
,  // measure 43
00011000
00001000
00100000
00010000
01000000
00010000
10000000
00010000
,  // measure 44
01000000
00001000
00100000
00001000
01000000
00010000
10000000
00110000
,  // measure 45
00110000
10000000
01000000
00010000
10000000
00100000
00010000
00001000
,  // measure 46
00000010
00000001
00001000
00000100
00000001
00001000
00000100
00010000
,  // measure 47
00011000
00001000
00010000
00000010
00001000
00000010
00010000
00001000
,  // measure 48
01000000
00100000
01000000
00001000
00010000
00001000
01000000
00011000
,  // measure 49
00011000
01000000
00010000
10000000
00100000
10000000
00010000
00100000
,  // measure 50
00001000
00010000
00000100
00001000
00000001
00000100
00000001
00001000
,  // measure 51
00000110
00001000
00000001
00000010
00001000
00000010
00000001
00000100
,  // measure 52
00001000
00010000
00100000
10000000
01000000
00100000
00010000
00011000
,  // measure 53
00011000
00000010
00001000
00000001
00000100
00000001
00001000
00000010
,  // measure 54
00010000
00000100
00010000
00001000
00100000
00010000
10000000
00010000
,  // measure 55
10010000
10000000
01000000
10000000
00010000
00100000
00010000
01000000
,  // measure 56
00001000
00010000
00000100
00010000
00000010
00001000
00000010
00000100
,  // measure 57
00000001
00000010
00000100
00001000
00000002
00000100
00000100
00000100
,  // measure 58
00000103
00000010
00001000
00000100
00020000
00001000
00001000
00001000
,  // measure 59
00031000
01000000
00010000
00100000
02000000
10000000
10000000
10000000
,  // measure 60
13000000
00100000
01000000
00010000
20000000
00100000
00100000
00100000
,  // measure 61
30100000
01000000
00001000
00010000
00002000
00010000
00010000
00010000
,  // measure 62
00013000
00000100
00001000
00000010
00000200
00000001
00000001
00000001
,  // measure 63
00000301
00001000
00000010
00010000
00000020
00001000
00001000
00001000
,  // measure 64
00001030
00000100
00010000
00001000
00100000
00010000
01000000
00010000
,  // measure 65
00200000
00000000
00300000
00000000
;
