#TITLE:Lolitabot (Initial P Remix);
#SUBTITLE:Week 8 - Doubles;
#ARTIST:Lolitabot;
#TITLETRANSLIT:;
#SUBTITLETRANSLIT:;
#ARTISTTRANSLIT:;
#CREDIT:DJ OMiY;
#BANNER:Lolitabot (Initial P Remix).png;
#BACKGROUND:Lolitabot (Initial P Remix)-bg.png;
#LYRICSPATH:;
#CDTITLE:./CDTITLES/Z-I-v Summer Contest 2010.PNG;
#MUSIC:Lolitabot (Initial P Remix).mp3;
#OFFSET:-5.420;
#SAMPLESTART:10.780;
#SAMPLELENGTH:11.940;
#SELECTABLE:YES;
#BPMS:0.000=178.000;
#STOPS:;
#BGCHANGES:;

//---------------dance-double - ----------------
#NOTES:
     dance-double:
     :
     Easy:
     4:
     0.250,0.309,0.000,0.000,0.000: // measure 1
00000000
00000000
00000000
00000000
,  // measure 2
00000000
00000000
00000000
00000000
,  // measure 3
00000000
00000000
00000000
00000000
,  // measure 4
00000000
00000000
00000000
00000000
,  // measure 5
00100000
10000000
00100000
10000000
,  // measure 6
01000000
00010000
00001000
00000000
,  // measure 7
00010000
00001000
00010000
00001000
,  // measure 8
00000100
00000001
00000001
00000000
,  // measure 9
00000100
00000001
00000100
00000001
,  // measure 10
00000010
00001000
00010000
00000000
,  // measure 11
00001000
00010000
00001000
00010000
,  // measure 12
00100000
10000000
10000000
00000000
,  // measure 13
01000000
00000000
00010000
00000000
,  // measure 14
00001000
00000000
00010000
00000000
,  // measure 15
00001000
00001000
00000100
00000000
,  // measure 16
00001000
00001000
00010000
00000000
,  // measure 17
00010000
00000000
00001000
00000000
,  // measure 18
00010000
00000000
00001000
00000000
,  // measure 19
00010000
00010000
01000000
00000000
,  // measure 20
00010000
00010000
00001000
00000000
,  // measure 21
00000000
00000100
00000001
00001000
,  // measure 22
00000000
00000001
00000100
00001000
,  // measure 23
00000000
00010000
00001000
00010000
,  // measure 24
00000000
00010000
01000000
10000000
,  // measure 25
00000000
01000000
10000000
00010000
,  // measure 26
00000000
10000000
01000000
00010000
,  // measure 27
00000000
00001000
00010000
00001000
,  // measure 28
00000000
00001000
00000100
00000001
,  // measure 29
00000010
00000000
00000001
00000000
,  // measure 30
00001000
00000000
00000100
00000000
,  // measure 31
00010000
00000000
00001000
00000000
,  // measure 32
00100000
00000000
01000000
00000000
,  // measure 33
10000000
00000000
00010000
00000000
,  // measure 34
01000000
00000000
00001000
00000000
,  // measure 35
00010000
00000000
00000010
00000000
,  // measure 36
00001000
00000000
00000100
00000000
,  // measure 37
00000010
00000001
00000100
00001000
,  // measure 38
00010000
00001000
00010000
00000000
,  // measure 39
00100000
10000000
01000000
00010000
,  // measure 40
00001000
00010000
00001000
00000000
,  // measure 41
00000010
00000001
00000100
00001000
,  // measure 42
00010000
00001000
00010000
00000000
,  // measure 43
00100000
10000000
01000000
00010000
,  // measure 44
00001000
00010000
00001000
00000100
,  // measure 45
00001000
00000000
00000100
00000000
,  // measure 46
00000001
00000000
00000010
00000000
,  // measure 47
00001000
00001000
00010000
00000000
,  // measure 48
00010000
00010000
01000000
00000000
,  // measure 49
10000000
00000000
00100000
00000000
,  // measure 50
00010000
00000000
00001000
00000000
,  // measure 51
00000100
00000100
00000001
00000000
,  // measure 52
00000001
00000001
00000010
00000000
,  // measure 53
00000000
00000010
00000001
00000100
,  // measure 54
00000000
00000010
00001000
00000100
,  // measure 55
00000000
00010000
00001000
00010000
,  // measure 56
00000000
01000000
01000000
01000000
,  // measure 57
00000000
00100000
00010000
01000000
,  // measure 58
00000000
00100000
10000000
01000000
,  // measure 59
00000000
00010000
00001000
00010000
,  // measure 60
00000000
00000100
00000100
00000100
,  // measure 61
00000000
00001000
00000000
00000100
,  // measure 62
00000000
00000001
00000000
00000100
,  // measure 63
00000000
00010000
00000000
00001000
,  // measure 64
00000000
01000000
00000000
00010000
,  // measure 65
00000000
01000000
00000000
10000000
,  // measure 66
00000000
01000000
00000000
00010000
,  // measure 67
00000000
00100000
00000000
00001000
,  // measure 68
00000000
00010000
00000000
00000100
,  // measure 69
00000001
00000000
00000010
00000000
,  // measure 70
00001000
00000000
00010000
00000000
,  // measure 71
00100000
00000000
10000000
00000000
,  // measure 72
00010000
00000000
01000000
00000000
,  // measure 73
10000000
00000000
00100000
00000000
,  // measure 74
00010000
00000000
00001000
00000000
,  // measure 75
00000010
00000000
00000001
00000000
,  // measure 76
00000100
00000000
00001000
00000000
,  // measure 77
00000010
00000000
00000000
00000000
;

//---------------dance-double - ----------------
#NOTES:
     dance-double:
     :
     Medium:
     6:
     0.383,0.377,0.135,0.108,0.000: // measure 1
00000000
00000000
00000000
00000000
,  // measure 2
00000000
00000000
00000000
00000000
,  // measure 3
00000000
00000000
00000000
00000000
,  // measure 4
00000000
00000000
00000000
00000000
,  // measure 5
00000001
00000100
00001000
00010000
,  // measure 6
00001000
00000000
00100000
00010000
00100000
00000000
00000000
00000000
,  // measure 7
01000000
00010000
00001000
00000100
,  // measure 8
00000001
00000000
00000010
00000001
00000010
00000000
00000000
00000000
,  // measure 9
00001000
00010000
00100000
01000000
,  // measure 10
10000000
00000000
01000000
10000000
01000000
00000000
00000000
00000000
,  // measure 11
00100000
00010000
00001000
00000010
,  // measure 12
00000100
00000000
00000001
00000100
00000001
00000000
00000001
00000100
,  // measure 13
00001000
00000010
00010000
00001000
,  // measure 14
00100000
01000000
00010000
00000100
,  // measure 15
00002000
00000010
00003010
00000000
,  // measure 16
00020000
00100000
00130000
00000000
,  // measure 17
01000000
00010000
00100000
01000000
,  // measure 18
11000000
00010000
00001000
00000100
,  // measure 19
00000110
00001000
00000101
00000010
,  // measure 20
00002002
00000000
00000000
00003003
,  // measure 21
00000000
00000001
00001000
00000100
,  // measure 22
00000001
00001000
00000010
00010000
,  // measure 23
00001000
01000000
00010000
00001000
,  // measure 24
00100000
00000000
00010000
00000000
01000000
00000000
10000000
01000000
,  // measure 25
00000000
00000000
10000000
00000000
01000000
00000000
00010000
10000000
,  // measure 26
00000000
01000000
00010000
00001000
,  // measure 27
00010000
00000100
00001000
00000001
,  // measure 28
00000100
00001000
00010000
00000000
,  // measure 29
00100000
00100000
10000000
10000000
,  // measure 30
00010000
00010000
00001000
00001000
,  // measure 31
00000100
00000100
00000020
00000031
,  // measure 32
00000100
00000100
00000020
00001030
,  // measure 33
00000001
00000001
00001000
00001000
,  // measure 34
00010000
00010000
01000000
01000000
,  // measure 35
00100000
00100000
20000000
30010000
,  // measure 36
00100000
00100000
00020000
10030000
,  // measure 37
01000000
01000000
01000000
01000000
,  // measure 38
01000000
01000000
10010000
00000000
,  // measure 39
00001000
00001000
00001000
00001000
,  // measure 40
00001000
00001000
00010010
00000000
,  // measure 41
00000100
00000100
00000100
00000100
,  // measure 42
00000100
00000100
00001001
00000000
,  // measure 43
00010000
00010000
00010000
00010000
,  // measure 44
00010000
00010000
00101000
00101000
,  // measure 45
01000000
10000000
01000000
00010000
,  // measure 46
00001000
00000100
00000010
00001000
,  // measure 47
00000001
00000010
00000100
00001000
,  // measure 48
00010000
00000100
00002002
00003003
,  // measure 49
00000100
00001000
00010000
01000000
,  // measure 50
10010000
00100000
00010000
00001000
,  // measure 51
00011000
00000010
00001010
00000100
,  // measure 52
00002002
00000000
00000000
00003003
,  // measure 53
00000000
00001000
00000100
00000001
,  // measure 54
00000100
00001000
00010000
00001000
,  // measure 55
00010000
00100000
01000000
00010000
,  // measure 56
01000000
00000000
00100000
00000000
00010000
00000000
00001000
00010000
,  // measure 57
00000000
00000000
00010000
00000000
00001000
00000000
00000010
00000001
,  // measure 58
00000000
00000100
00001000
00010000
,  // measure 59
01000000
00100000
00010000
01000000
,  // measure 60
00100000
10000000
01000000
00100000
,  // measure 61
00000000
00001000
00010000
00001000
,  // measure 62
00000000
00000010
00000001
00000010
,  // measure 63
00000000
00000001
00000100
00000100
,  // measure 64
00000000
00001000
00010000
00010000
,  // measure 65
00000000
00100000
10000000
00100000
,  // measure 66
00000000
10000000
00010000
01000000
,  // measure 67
00000000
00100000
00010000
00010000
,  // measure 68
00000000
00001000
00001000
00000000
,  // measure 69
00100000
00010000
00100000
01000000
,  // measure 70
00010000
00001000
00010000
00001000
,  // measure 71
00010000
00000000
00000100
00001000
00000100
00000000
00000010
00000000
,  // measure 72
00000001
00000000
00000100
00000001
00000100
00000000
00000010
00000000
,  // measure 73
00001000
00000100
00001000
00000100
,  // measure 74
00010000
00001000
00010000
00100000
,  // measure 75
01000000
00000000
00010000
01000000
00010000
00000000
00100000
00000000
,  // measure 76
01000000
00000000
00010000
01000000
10000000
00000000
00000000
00000000
,  // measure 77
10010000
00000000
00000000
00000000
;

//---------------dance-double - ----------------
#NOTES:
     dance-double:
     :
     Hard:
     8:
     0.601,0.583,0.316,0.135,0.081: // measure 1
00000000
00000000
00000000
00000000
,  // measure 2
00000000
00000000
00000000
00000000
,  // measure 3
00000000
00000000
00000000
00000000
,  // measure 4
00000000
00000000
00000000
00000000
,  // measure 5
00000001
00000100
00001000
00000100
00000010
00001000
00000100
00000001
,  // measure 6
00000100
00001000
00000010
00010000
00001000
00000000
00000000
00000000
,  // measure 7
01000000
00010000
10000000
01000000
10000000
00100000
00010000
00001000
,  // measure 8
00000100
00001000
00000100
00000001
00001000
00000000
00000000
00000000
,  // measure 9
00000001
00000010
00001000
00000010
00000100
00001000
00000010
00000001
,  // measure 10
00000010
00001000
00000100
00010000
00001000
00000000
00000000
00000000
,  // measure 11
00100000
00010000
10000000
00100000
10000000
01000000
00010000
00001000
,  // measure 12
00000010
00001000
00000010
00000001
00001000
00000010
00000100
00000010
,  // measure 13
00001000
00000001
00000100
00001000
,  // measure 14
00100000
00000000
00000000
00000000
00010000
00000000
00000000
00000000
00100000
00001000
00000000
00010000
00001000
00000000
02000000
00000000
,  // measure 15
00000000
03100000
10000000
01000000
10000000
01000000
00100000
00010000
,  // measure 16
01000000
00001000
00010000
00000200
00000000
00000000
00000300
00000000
,  // measure 17
00001001
00000100
00001000
00010000
,  // measure 18
10010000
01000000
00010000
00001000
,  // measure 19
00001001
00000001
00000100
00000000
00001001
00000001
00000100
00000000
,  // measure 20
00001002
00000000
00002000
00003003
,  // measure 21
00000200
00000001
00000000
00000010
00000000
00001000
00000300
00010000
,  // measure 22
00002000
01000000
00000000
00100000
00000000
00010000
00003000
01000000
,  // measure 23
00200000
00010000
00000000
10000000
00000000
01000000
00300000
00010000
,  // measure 24
00002000
00000010
00000000
00010000
00000000
00000100
00003000
00000010
,  // measure 25
00000002
00000100
00000000
00001000
00000000
00000010
00000003
00000100
,  // measure 26
00020000
00001000
00000000
01000000
00000000
00001000
00030000
00100000
,  // measure 27
00020000
10000000
00000000
01000000
00000000
00100000
00030000
01000000
,  // measure 28
00100000
00000000
00100000
00000000
00100000
00000000
00100000
00000000
00100000
00000000
00000000
00001000
00010000
00000000
00001000
00010000
,  // measure 29
00000010
00000100
00000001
00001000
00000010
00000100
00000001
00000100
,  // measure 30
00001000
00011000
00100000
01010000
,  // measure 31
00010000
00000000
01000000
00000000
10000000
00000000
01000000
00000000
00100000
00000000
00000000
00010000
00000000
00000000
00000000
00000000
,  // measure 32
10000000
00000000
00100000
00000000
00010000
00000000
00100000
00000000
01000000
00000000
00000000
10000000
00000000
00000000
00000000
00000000
,  // measure 33
01000000
00100000
10000000
00010000
01000000
00100000
10000000
00100000
,  // measure 34
00010000
00011000
00000010
00001100
,  // measure 35
00001000
00000000
00000100
00000000
00000001
00000000
00000100
00000000
00000010
00000000
00000000
00001000
00000000
00000000
00000000
00000000
,  // measure 36
00000001
00000000
00000010
00000000
00001000
00000000
00000010
00000000
00000100
00000000
00000000
00000001
00001000
00000000
00000100
00000010
,  // measure 37
00000001
00000100
00000001
00000100
00001000
00000100
00001000
00000100
,  // measure 38
00001000
00010000
00001000
00010000
00110000
00000000
00000000
00000000
,  // measure 39
00100000
10000000
00100000
10000000
01000000
10000000
01000000
10000000
,  // measure 40
01000000
00010000
01000000
00010000
00011000
00000000
00000000
00000000
,  // measure 41
00001000
00000010
00001000
00000010
00001000
00000100
00001000
00000100
,  // measure 42
00000001
00000100
00000001
00000100
00001001
00000000
00000000
00001000
,  // measure 43
00000100
00000010
00000001
00000100
00000010
00001000
00000001
00000100
,  // measure 44
00001000
00010000
00001000
00010000
00100000
01000000
00100000
01000000
,  // measure 45
00010000
10000000
00100000
00010000
,  // measure 46
00000100
00000000
00000000
00000000
00001000
00000000
00000000
00000000
00000100
00010000
00000000
00001000
00010000
00000000
00000020
00000000
,  // measure 47
00000000
00000130
00000001
00000010
00000001
00000010
00000100
00001000
,  // measure 48
00000010
00010000
00001000
00200000
00000000
00000000
00300000
00000000
,  // measure 49
10010000
00100000
00010000
00001000
,  // measure 50
00001001
00000010
00001000
00010000
,  // measure 51
10010000
10000000
00100000
01000000
10010000
10000000
00100000
01000000
,  // measure 52
20010000
00000000
00020000
30030000
,  // measure 53
00000000
00100000
10000000
01000000
00010000
01000000
10000000
00100000
,  // measure 54
00000000
00100000
00010000
00001000
00010000
00100000
00010000
00000010
,  // measure 55
00000000
00000010
00001000
00000100
00000001
00000100
00001000
00000010
,  // measure 56
00000000
00000010
00000100
00000001
00001000
00000100
00010000
00001000
,  // measure 57
00000000
00100000
00010000
10000000
01000000
00100000
00001000
00010000
,  // measure 58
00000000
01000000
10000000
00100000
00010000
00001000
00010000
00001000
,  // measure 59
00000000
00000010
00000001
00000100
00000001
00000100
00001000
00010000
,  // measure 60
01000000
00000000
01000000
00000000
10000000
00000000
10000000
00000000
00010000
00000000
00000000
01000000
00000000
00000000
01000000
00100000
,  // measure 61
10000000
11000000
01000000
01010000
,  // measure 62
00000000
00011000
00001000
00001100
,  // measure 63
00000000
00000101
00000001
00000011
,  // measure 64
00000000
00001010
00001000
00011000
,  // measure 65
00000000
00110000
01000000
10010000
,  // measure 66
00000000
00011000
00000100
00011000
,  // measure 67
00000000
00000110
00000001
00001100
,  // measure 68
00000000
00010000
00010000
00000000
,  // measure 69
01000000
00100000
10000000
00010000
01000000
00100000
10000000
00100000
,  // measure 70
00010000
00011000
00000100
00001010
,  // measure 71
00001000
00000000
00000010
00000000
00000001
00000000
00000010
00000000
00000100
00000000
00000000
00010000
00000000
00000000
00000000
00000000
,  // measure 72
00001000
00000000
00000100
00000000
00001000
00000000
00000100
00000000
00000010
00000000
00000000
00010000
00000000
00000000
00000000
00000000
,  // measure 73
00000010
00000100
00000001
00000100
00001000
00000100
00001000
00010000
,  // measure 74
00001000
00011000
01000000
00110000
,  // measure 75
00010000
00000000
00100000
00000000
10000000
00000000
00100000
00000000
01000000
00000000
00000000
00010000
00000000
00000000
00000000
00000000
,  // measure 76
10000000
00000000
01000000
00000000
00010000
00000000
01000000
00000000
00100000
00000000
00000000
10000000
00000000
00000000
00100000
01000000
,  // measure 77
00010000
00000000
00000000
00000000
;
