#TITLE:In Scottish Highlands;
#SUBTITLE:;
#ARTIST:Thomas Howard Lichtenstein;
#TITLETRANSLIT:;
#SUBTITLETRANSLIT:;
#ARTISTTRANSLIT:;
#GENRE:;
#CREDIT:;
#BANNER:In_Scottish_Highlands_banner.png;
#BACKGROUND:In_Scottish_Highlands_bg.png;
#LYRICSPATH:;
#CDTITLE:;
#MUSIC:In Scottish Highlands.ogg;
#OFFSET:2.885;
#SAMPLESTART:13.180;
#SAMPLELENGTH:12.000;
#SELECTABLE:YES;
#BPMS:0.000=145.000;
#STOPS:;
#BGCHANGES:;
#KEYSOUNDS:;

//---------------dance-double - PanStyle----------------
#NOTES:
     dance-double:
     PanStyle:
     Challenge:
     10:
     0.875,1.000,0.197,0.912,0.503,533.000,21.000,97.000,2.000,0.000,0.000,0.875,1.000,0.197,0.912,0.503,533.000,21.000,97.000,2.000,0.000,0.000:
00000000
00000000
00000000
00000000
,
0M0M0000
00000000
00000000
00000000
,
00010000
01000000
00200000
00300000
00000000
01000000
00010000
10000000
01000000
10000000
00100000
00000000
00100000
00000000
01100000
00000000
,
01000000
00010000
00200000
00300000
00000000
00010000
00100000
00001000
00010000
00000100
00010000
00000000
00010000
00000000
00010000
00000000
,
00000100
00001000
00000020
00000030
00000000
00001000
00000100
00000010
00000100
00001000
00000001
00000000
00000001
00000000
00001001
00000000
,
00000000
00000000
00001000
00000100
00000010
00000001
00000010
00000100
00001000
00000000
00002001
00000000
00000001
00000000
00003001
00000000
,
00000001
00000000
00001000
00000000
00000001
00000100
00000010
00000000
00000100
00000000
00000001
00000000
00001000
00000100
00000010
00000000
,
00000100
00000000
00010000
00000000
00001000
00100000
00001000
00000000
00100000
00000000
00010000
00000000
10000000
00100000
01000000
00000000
,
00100000
01000000
00020000
00030000
00000000
00000000
02000000
03000000
00000000
00000000
00020000
00030000
00000000
00000000
00100000
00000000
,
00100000
00000000
00200000
00300000
00000000
00000000
00002000
00003000
00000000
00000000
00020000
00030000
00001000
00000000
00010000
00000000
,
00000100
00000000
00010000
00000000
00000100
00010000
00001000
00000000
00000010
00000000
00000001
00000000
00001000
00000010
00000100
00000000
,
00000001
00000000
00000010
00000000
00000100
00001000
00000001
00000000
00010000
00000000
00000010
00000000
00001000
00000100
00010000
00000000
,
00001000
00100000
00010000
00000000
00100000
00000000
00101000
00000000
00000000
00000000
00001000
00000000
01000000
00000000
01010000
00000000
,
00000000
00010000
01000000
00100000
10000000
00010000
00000000
10010000
,
00010000
10000000
00010000
00000000
01000000
00000000
00100000
00000000
01000000
00000000
00001000
00000000
00010000
00000000
00001000
00000000
,
00100000
00010000
00100000
00000000
00001000
00000000
00010000
00000000
00000100
00000000
00000010
00000000
00000100
00000000
00010000
00000000
,
00000010
00001000
00000010
00000000
00001000
00000000
00000100
00000000
00000001
00000000
00000100
00000000
00001000
00000000
00000010
00000000
,
00000100
00000000
00000001
00000000
00000200
00000300
00000000
00000000
00000020
00000000
00000030
00000000
00002000
00000000
00000000
00003000
00000200
00000000
00000000
00000000
00000320
00000000
00000000
00000000
00000000
00000000
00000030
00000000
00000000
00000000
00000000
00000000
,
00000100
00000010
00000001
00000000
00001000
00000000
00000010
00000000
00000100
00000000
00010000
00000000
00000100
00000000
00000010
00000000
,
00001000
00000100
00001000
00000000
00000100
00000000
00010000
00000000
00001000
00000000
00100000
00000000
00001000
00000000
00010000
00000000
,
00000100
00001000
00000100
00000000
00010000
00000000
00001000
00000000
01000000
00000000
00100000
00000000
00010000
00000000
00100000
00000000
,
10000000
00000000
00010000
00010000
00010000
00000000
00010000
01000000
,
00010000
00000000
01000000
00000000
00100000
01000000
00010000
00000000
10000000
00000000
01000000
00000000
00100000
01000000
10000000
00000000
,
00010000
00000000
01000000
00000000
00001000
00100000
00010000
00000000
00100000
00000000
00000010
00000000
00010000
00000010
00001000
00000000
,
00000001
00001000
00000020
00000030
00000000
00000000
00000020
00000030
00000000
00000000
00020000
00030000
00000000
00000000
00001000
00000000
,
00001000
00000000
00002000
00003000
00000000
00000000
00200000
00300000
00000000
00000000
00000020
00000030
00010000
00000000
00000010
00000000
,
00001000
00000000
00000100
00000000
00010000
00000100
00001000
00000000
00000100
00000000
00010000
00000000
00001000
01000000
00010000
00000000
,
01000000
00000000
00100000
00000000
10000000
01000000
00100000
00000000
01000000
00000000
00100000
00000000
00010000
01000000
00100000
00000000
,
01000000
00100000
10000000
00000000
00100000
00000000
01000000
00000000
00000000
00000000
01000000
00000000
00010000
00000000
00100000
00000000
,
00000000
00000000
00000000
00000000
00100000
00000000
00000000
00000000
00001000
00000000
00000000
00000000
00010000
00000000
00000000
00000000
00000010
00000000
00000000
00000000
00001000
00000000
00000000
00000000
00000002
00000003
00000000
00000000
00000200
00000000
00000300
00000000
,
00000020
00000000
00000000
00000030
00000200
00000000
00000000
00000000
00000300
00000000
00000200
00000000
00000320
00000000
00000000
00000000
00002030
00000000
00000000
00000000
00003200
00000000
00000000
00000000
00000320
00000000
00000000
00000000
00000000
00000000
00000000
00000000
,
00000230
00020300
00032000
00203000
00300000
00000000
00002000
00023000
,
00030020
00000000
00000000
00000000
00000030
00000000
00002020
00003030
00000000
00000000
00000020
00002030
00003200
00000320
00000230
00020300
,
00032000
02003000
03002000
00203000
00320000
02030000
03200000
02300000
03020000
00230000
00302000
00003000
00000000
00000000
00101000
00000000
,
00000000
00200000
00000000
00302000
02003000
00000000
03200000
00000000
,
02300000
03200000
00300000
00200000
20300000
30000000
00020000
00030000
,
20000000
30000000
00000000
00000000
02000000
03000000
00200000
00300000
00000200
00000300
00020000
00030000
00002000
00003000
02000000
03000000
,
00020000
00030000
00200000
00320000
00230000
00320000
00230000
00300000
00002000
00003000
00012000
00000000
00000000
00000000
00013000
00001000
,
00010000
00000100
00010000
00000000
00000010
00000000
00001000
00000000
00000010
00000000
00000100
00000000
00000010
00000000
00000001
00000000
,
00000010
00000100
00000001
00000000
00000010
00000000
00000001
00000000
00000010
00000000
00000100
00000000
00000010
00000000
00001000
00000000
,
00000010
00000100
00001000
00000000
00000100
00000000
00010000
00000000
00000100
00000000
01000000
00000000
00001000
00000000
10000000
00000000
,
00010000
00000000
01000000
00000000
00200000
00300000
00000000
00000000
02000000
00000000
03000000
00000000
00020000
00000000
00000000
00030000
02000000
00000000
00000000
00000000
03002000
00000000
00000000
00000000
00000000
00000000
00003000
00000000
00000000
00000000
00000000
00000000
,
01000000
00001000
00010000
00000000
00000100
00000000
00010000
00000000
00000001
00000000
00001000
00000000
00000010
00000000
00000100
00000000
,
00000010
00010000
00001000
00000000
00010000
00000000
00000100
00000000
00001000
00000000
00000010
00000000
00000100
00000000
00000001
00000000
,
00001000
00000100
00000010
00000000
00000100
00000000
00010000
00000000
00000010
00000000
00100000
00000000
00001000
00000000
10000000
00000000
,
00010000
00000000
10000000
00100000
01000000
00000000
00010000
00010000
,
00010000
00000000
10000000
00000000
01000000
00100000
00010000
00000000
00100000
00000000
00001000
00000000
00010000
00000010
00001000
00000000
,
00000100
00000000
00000010
00000000
00000100
00001000
00000010
00000000
00000100
00000000
00000001
00000000
00001000
00000100
00000010
00000000
,
00000100
00001000
00000020
00000030
00000000
00000000
00002000
00003000
00000000
00000000
00000200
00000300
00000000
00000000
01000000
00000000
,
01000000
00000000
02000000
03000000
00000000
00000000
00002000
00003000
00000000
00000000
00200000
00300000
00010000
00000000
00100000
00000000
,
00001000
00000000
00010000
00000000
00000100
00010000
00001000
00000000
01000000
00000000
00010000
00000000
01000000
00001000
00010000
00000000
,
00001000
00000000
00100000
00000000
01000000
00100000
00010000
00000000
10000000
00000000
00100000
00000000
01000000
00010000
10000000
00000000
,
01000000
00100000
00010000
00000000
10000000
00000000
10010000
00000000
00000000
00000000
00010000
00000000
00100000
00000000
00101000
00000000
,
00000000
00001000
00010000
00000010
00010000
00001000
00000000
00100010
,
00100000
00001000
00200000
00300000
00000000
00001000
00010000
00001000
01000000
00001000
01000000
00000000
01000000
00000000
01010000
00000000
,
00010000
01000000
00200000
00300000
00000000
01000000
00010000
01000000
00001000
01000000
00010000
00000000
00010000
00000000
00110000
00000000
,
00100000
00001000
00020000
00030000
00000000
00001000
00010000
00000100
00001000
00000001
00001000
00000000
00001000
00000000
00001001
00000000
,
00000000
00000000
00000001
00000010
00000100
00010000
00000100
00001000
00000100
00010000
00001000
00000000
00001000
00000000
00101000
00000000
,
00100000
00010000
00200000
00300000
00000000
00010000
01000000
00010000
10000000
00010000
00100000
00000000
00100000
00000000
00110000
00000000
,
00010000
00100000
00020000
00030000
00000000
00100000
00001000
00100000
00000010
00010000
00001000
00000000
00001000
00000000
00011000
00000000
,
00010000
00001000
00020000
00030000
00000000
00001000
00010000
00000010
00001000
00000100
00000010
00000000
00000010
00000000
00000110
00000000
,
00000000
00000000
00000100
00000010
00000001
00001000
00000010
00000100
00000010
00001000
00000100
00000000
00010000
00000000
00011000
00000000
,
00000000
00000000
00001000
00010000
00001000
00100000
00001000
10000000
00001000
01000000
00001000
00000000
00000000
00000000
01000100
00000000
;

//---------------dance-double - PanStyle----------------
#NOTES:
     dance-double:
     PanStyle:
     Hard:
     8:
     0.677,0.887,0.075,0.658,0.193,426.000,8.000,70.000,2.000,0.000,0.000,0.677,0.887,0.075,0.658,0.193,426.000,8.000,70.000,2.000,0.000,0.000:
00000000
00000000
00000000
00000000
,
00000M0M
00000000
00000000
00000000
,
00000001
00000100
00000001
00000000
00000000
00000100
00000010
00000000
00000000
00000010
00001000
00000000
00000010
00000000
00010000
00000000
,
00001000
00010000
00001000
00000000
00000000
00010000
00001000
00000000
00000000
00001000
01000000
00000000
00010000
00000000
01000000
00000000
,
00100000
01000000
00100000
00000000
00000000
01000000
00010000
00000000
00000000
00010000
10000000
00000000
01000000
00000000
00100000
00000000
,
00000000
00000000
00010000
00000000
10000000
00010000
10000000
00000000
00010000
00100000
00020000
00000000
00000000
00000000
00000000
00000000
,
00000000
10030000
01000000
00100000
01000000
10000000
00010000
01000000
,
00001000
00010000
00000100
00000010
00000100
00001000
00000100
00010000
,
00001000
00000000
02000000
03000000
00000000
00000000
00002000
00003000
00000000
00000000
00200000
00300000
00000000
00000000
00010000
00000000
,
00010000
00000000
00020000
00030000
00000000
00000000
20000000
30000000
00000000
00000000
00200000
00300000
01000000
00000000
00010000
00000000
,
10000000
01000000
00100000
00010000
00100000
00001000
00100000
00000010
,
00010000
00000010
00001000
00000010
00000100
00000001
00001000
00000100
,
00000010
00000100
00000100
00000100
00000000
00001000
00001000
00001000
,
00000000
00000001
00001000
00000010
00010000
00001000
00000000
00011000
,
00010000
00001000
00100000
00010000
00100000
00001000
00010000
00000000
,
00000000
00001000
00010000
00000010
00001000
00000001
00001000
00000000
,
00000000
00000001
00000000
00000100
00000000
00000010
00001000
00000100
,
00000010
00000100
00001000
00000001
00010000
00000100
00000000
00000000
,
00010000
00001000
01000000
00010000
01000000
00100000
01000000
00000000
,
00000000
00010000
01000000
00100000
01000000
00001000
00010000
00000000
,
00000000
00001000
00100000
00001000
00010000
00001000
01000000
00010000
,
10000000
00000000
10010000
10010000
10010000
00000000
00000000
00000000
,
00000000
00010000
01000000
00100000
10000000
00010000
01000000
00001000
,
00100000
00000100
00010000
00000010
00001000
00000001
00000100
00000001
,
00001000
00000000
00000200
00000300
00000000
00000000
00020000
00030000
00000000
00000000
00002000
00003000
00000000
00000000
00100000
00000000
,
00100000
00000000
00200000
00300000
00000000
00000000
00002000
00003000
00000000
00000000
00020000
00030000
00001000
00000000
01000000
00000000
,
00010000
10000000
00001000
01000000
00001000
00010000
00001000
00100000
,
01000000
00100000
00010000
10000000
00100000
01000000
00010000
10000000
,
01000000
00100000
00100000
00100000
00000000
01000000
01000000
01000000
,
00000000
10000000
00010000
01000000
00001000
00010000
00002000
02003000
,
03002000
00000000
00023000
00000000
00030000
00002000
00023000
00030000
00002000
00000000
00203000
00000000
00320000
00000000
00000000
00000000
,
02030000
00000000
00000000
00000000
00000000
00000000
00000000
00000000
00000000
00000000
00000000
00000000
00000000
00000000
00000000
00000000
00000000
00000000
00000000
00000000
00000000
00000000
00000000
00000000
03200000
00000000
00000000
00000000
00000000
00000000
00000000
00000000
00000000
00000000
00000000
00000000
00000000
00000000
00000000
00000000
00000000
00000000
00000000
00000000
00000000
00000000
00000000
00300000
00200000
00000000
00000000
00000000
00000000
00000000
00000000
00000000
00000000
00000000
00000000
00000000
00000000
00000000
00000000
00000000
00000000
00000000
00000000
00000000
00000000
00000000
00000000
00300000
00200000
00000000
00000000
00000000
00000000
00000000
00000000
00000000
00000000
00000000
00000000
00000000
00000000
00000000
00000000
00000000
00000000
00000000
00000000
00000000
00000000
00000000
00000000
00000000
00000000
00000000
00000000
00000000
00000000
00000000
00000000
00000000
00000000
00000000
00000000
00000000
00300000
00000000
00000000
00000000
00000000
00000000
00000000
00000000
00000000
00000000
00000000
00000000
00000000
00000000
00000000
00000000
00000000
00000000
00000000
00000000
00000000
00000000
00000000
00000000
00000000
00000000
00000000
00000000
00000000
00000000
00000000
00000000
00000000
00000000
00000000
00000000
20000000
00000000
00000000
00000000
00000000
00000000
00000000
00000000
00000000
00000000
00000000
00000000
00000000
00000000
00000000
00000000
00000000
00000000
00000000
00000000
00000000
00000000
00000000
00000000
32000000
00000000
00000000
00000000
00000000
00000000
00000000
00000000
00000000
00000000
00000000
00000000
00000000
00000000
00000000
00000000
00000000
00000000
00000000
00000000
00000000
00000000
00000000
00000000
,
03200000
00000000
00000000
00000000
00000000
00000000
00302000
00000000
00000000
00000000
00023000
00032000
00023000
00000000
00032000
00000000
,
00203000
00000000
00302000
00000000
00023000
00000000
00030200
00000000
00000320
00000000
00000032
00000000
00000000
00000003
00000000
00000000
,
00000000
00000020
00000000
00000032
00002003
00003000
00000020
00000030
,
00020000
00032000
00003000
00200000
00302000
00003000
00020000
00030000
,
00000200
00000300
00020000
00032000
00203000
02300000
03200000
00302000
,
02003000
00000000
03200000
02300000
03200000
02300000
03200000
00000000
02300000
00000000
03020000
00000000
00030000
00000000
00000000
00000000
,
00010000
10000000
00010000
01000000
00100000
01000000
00010000
00000000
,
00000000
01000000
00010000
00100000
01000000
00100000
00001000
00000000
,
00000000
00100000
00000000
00001000
00000000
00010000
00000010
00001000
,
00000100
00000001
00000100
00001000
00000010
00010000
00000000
00000000
,
00001000
00100000
00001000
00010000
00001000
01000000
00001000
00000000
,
00000000
00010000
00001000
00010000
00000100
00010000
00000001
00000000
,
00000000
00001000
00000001
00001000
00000010
00001000
00000100
00010000
,
00001000
00000000
00011000
00011000
00011000
00000000
00000000
00000000
,
00000000
00010000
00001000
01000000
00010000
00100000
01000000
00100000
,
00010000
10000000
00100000
01000000
10000000
01000000
00010000
00100000
,
00001000
00000000
00020000
00030000
00000000
00000000
00000200
00000300
00000000
00000000
00000020
00000030
00000000
00000000
00001000
00000000
,
00001000
00000000
00002000
00003000
00000000
00000000
00020000
00030000
00000000
00000000
00000200
00000300
00001000
00000000
00000010
00000000
,
00000001
00000010
00001000
00000100
00010000
00001000
00100000
00001000
,
00100000
00010000
00100000
01000000
00100000
10000000
00100000
01000000
,
00100000
00010000
00010000
00010000
00000000
10000000
10000000
10000000
,
00000000
00010000
01000000
00100000
01000000
00010000
00000000
00000000
,
01000000
00010000
01000000
00000000
00000000
00010000
00100000
00000000
00000000
00100000
01000000
00000000
10000000
00000000
01000000
00000000
,
00100000
00010000
00100000
00000000
00000000
00010000
00100000
00000000
00000000
00100000
00001000
00000000
00010000
00000000
00000100
00000000
,
00001000
00000100
00001000
00000000
00000000
00000100
00000010
00000000
00000000
00000010
00000001
00000000
00001000
00000000
00000010
00000000
,
00000000
00000000
00000100
00000000
00000001
00000100
00000001
00000000
00000100
00000010
00000100
00000000
00000010
00000000
00001000
00000000
,
00000100
00000010
00000001
00000000
00000000
00001000
00000010
00000000
00000000
00000100
00000001
00000000
00010000
00000000
00000100
00000000
,
00010000
00001000
00100000
00000000
00000000
00001000
01000000
00000000
00000000
00010000
10000000
00000000
01000000
00000000
00100000
00000000
,
00010000
10000000
00100000
00000000
00000000
01000000
00010000
00000000
00000000
10000000
00100000
00000000
01000000
00000000
00010000
00000000
,
00000000
00000000
01000000
00000000
00001000
01000000
00001000
00000000
00001000
00010000
00001000
00000000
00010000
00000000
00000100
00000000
,
00000000
00000000
00010000
00001000
00010000
00001000
00010000
00001000
00010000
00001000
00010000
00000000
00000000
00000000
00011000
00000000
;

//---------------dance-double - PanStyle----------------
#NOTES:
     dance-double:
     PanStyle:
     Medium:
     6:
     0.527,0.709,0.000,0.602,0.000,328.000,0.000,64.000,2.000,0.000,0.000,0.527,0.709,0.000,0.602,0.000,328.000,0.000,64.000,2.000,0.000,0.000:
00000000
00000000
00000000
00000000
,
000MM000
00000000
00000000
00000000
,
00001000
00010000
00001000
00100000
00001000
01000000
00000000
01000000
,
00001000
00010000
00000100
00010000
00000010
00001000
00000000
00001000
,
00000010
00000100
00000010
00001000
00000001
00000100
00000000
00000100
,
00000010
00001000
00000010
00010000
00001000
00100000
00010000
10000000
,
00010000
20000000
00000000
30000000
10000000
00000000
00100000
01000000
,
00010000
02000000
00000000
03000000
00001000
00000000
00000000
00000000
,
00010000
00001000
00000000
00100000
00000000
00001000
00000000
00010000
,
00001000
00010000
00000000
00000100
00000000
00000010
00000001
00001000
,
00000001
00002000
00000000
00003000
00000001
00000000
00000100
00000010
,
00010000
00002000
00000000
00003000
00010000
00000000
00000000
00000000
,
00000000
00001000
00010000
00001000
00000000
00100000
00010000
00100000
,
00000000
00010000
10000000
01000000
00100000
00010000
00000000
00000000
,
00010000
02000000
03000000
00200000
00300000
01000000
00001000
00000000
,
00000000
00200000
00300000
00002000
00003000
00010000
00001000
00000000
,
00000000
00020000
00030000
00000200
00000300
00001000
00000100
00001000
,
00000001
00000100
00000010
00000100
00000001
00001000
00000000
00000000
,
00000001
00001000
00000000
00000010
00000000
00010000
00001000
00000000
,
00000000
00010000
00000000
00000100
00000000
00001000
00000100
00000000
,
00000000
00010000
00000000
00000020
00000030
00010000
00001000
00100000
,
00001000
00000000
00010000
00010000
00010000
00000000
00001000
01000000
,
00010000
02000000
00000000
03000000
00100000
00000000
00100000
01000000
,
00010000
20000000
00000000
30000000
01000000
00000000
00000000
00000000
,
00100000
00010000
00000000
00100000
00000000
00001000
00000000
00010000
,
00000100
00010000
00000000
00001000
00000000
01000000
00010000
01000000
,
00001000
00020000
00000000
00030000
00000010
00000000
00001000
00000010
,
00010000
00002000
00000000
00003000
00100000
00000000
00000000
00000000
,
00000000
00010000
00001000
00010000
00000000
00010000
00000100
00010000
,
00000000
00000100
00000010
00000001
00001000
00000001
00000200
00000320
,
00020030
00030020
00000030
00020000
00032000
00203000
00302000
00000000
,
00023000
00032000
02003000
03020000
00030000
00000000
20000000
30020000
,
02030000
00000000
03000000
00200000
00300000
20000000
00000000
00010000
,
00000000
00100000
00000000
01000000
00000000
30020000
00030000
00000000
,
00000000
02000000
00000000
03002000
00023000
00030000
00002000
00000000
,
00023000
00030200
00000000
00002300
00003200
00000300
00000020
00000000
,
00000230
00000300
00002000
00003002
00002003
00003020
00020030
00032000
,
00203000
00302000
00000000
00000000
00103000
00200000
00300000
00000000
,
00001000
00020000
00030000
00000200
00000300
00001000
00000100
00000000
,
00000000
00020000
00030000
00000200
00000300
00010000
00000010
00000000
,
00000000
00000200
00000300
00000200
00000300
00000100
00000010
00001000
,
00000010
00010000
00000100
00010000
00001000
00010000
00000000
00000000
,
00001000
00010000
00000000
00001000
00000000
01000000
00100000
00000000
,
00000000
01000000
00000000
00010000
00000000
10000000
01000000
00000000
,
00000000
00100000
00000000
00020000
00030000
10000000
00001000
00010000
,
00001000
00000000
00010000
00010000
00010000
00000000
00001000
00010000
,
00000100
00002000
00000000
00003000
00000100
00000000
00000010
00000001
,
00001000
00000020
00000000
00000030
00000100
00000000
00000000
00000000
,
00000001
00001000
00000000
00000010
00000000
00010000
00000000
00001000
,
00100000
00001000
00000000
01000000
00000000
00100000
01000000
00001000
,
01000000
00002000
00000000
00003000
00010000
00000000
00001000
00010000
,
00000100
00002000
00000000
00003000
00000001
00000000
00000000
00000000
,
00000000
00001000
00000001
00001000
00000000
00000010
00010000
00000010
,
00000000
00010000
00000010
00010000
00001000
01000000
00000000
00000000
,
00010000
01000000
00100000
01000000
00010000
10000000
00000000
10000000
,
01000000
00100000
00010000
00100000
00001000
00010000
00000000
00010000
,
00001000
01000000
00010000
00100000
00001000
00010000
00000000
00010000
,
00000010
00001000
00000001
00000100
00000001
00001000
00000100
00000010
,
00000001
00001000
00000010
00000100
00000010
00010000
00000000
00010000
,
00000100
00001000
00000010
00001000
00000100
00010000
00000000
00010000
,
00001000
01000000
00010000
01000000
00100000
01000000
00000000
01000000
,
00010000
10000000
01000000
00100000
01000000
10000000
00010000
01000000
,
00000000
00010000
10000000
00001000
00100000
00000200
00000000
01000300
;

//---------------dance-double - PanStyle----------------
#NOTES:
     dance-double:
     PanStyle:
     Easy:
     3:
     0.289,0.236,0.009,0.009,0.000,213.000,1.000,1.000,0.000,0.000,0.000,0.289,0.236,0.009,0.009,0.000,213.000,1.000,1.000,0.000,0.000,0.000: // measure 1
00000000
00000000
00000000
00000000
,  // measure 2
00000000
00000000
00000000
00000000
,  // measure 3
00010000
00000000
00000000
01000000
00000000
00010000
00000000
01000000
,  // measure 4
00000000
00001000
00000000
00100000
00000000
00001000
00000000
00010000
,  // measure 5
00000000
00000100
00000000
00001000
00000000
00000010
00000000
00001000
,  // measure 6
00000000
00000100
00000000
00000010
00000000
00000001
00000000
00000000
,  // measure 7
00000000
00001000
00000000
00000000
00000001
00000000
00000000
00000100
,  // measure 8
00000000
00000100
00000000
00000000
00000010
00000000
00000000
00000000
,  // measure 9
00000000
00001000
00000000
00000100
00000000
00010000
00000000
00001000
,  // measure 10
00000000
01000000
00000000
00001000
00000000
00010000
00000000
00001000
,  // measure 11
00000000
00010000
00000000
00000000
00000100
00000000
00000000
00001000
,  // measure 12
00000000
00001000
00000000
00000000
00000001
00000000
00000000
00000000
,  // measure 13
00000000
00001000
00000000
00001000
00000000
00000010
00000000
00000010
,  // measure 14
00000000
00010000
00000000
00000100
00000000
00010000
00000000
00000000
,  // measure 15
00000000
00001000
00000000
00100000
00000000
00010000
00000000
01000000
,  // measure 16
00000000
00010000
00000000
10000000
00000000
01000000
00000000
00100000
,  // measure 17
00000000
00010000
00000000
10000000
00000000
00100000
00000000
01000000
,  // measure 18
00000000
00001000
00000000
00010000
00000000
00001000
00000000
00000000
,  // measure 19
00000000
00010000
00000000
00001000
00000000
00010000
00000000
00000100
,  // measure 20
00000000
00001000
00000000
00000010
00000000
00000100
00000000
00000001
,  // measure 21
00000000
00001000
00000000
00000001
00000000
00000010
00000000
00000100
,  // measure 22
00000000
00000000
00001000
00001000
00001000
00000000
00000000
00000000
,  // measure 23
00000000
00001000
00000000
00000000
00000001
00000000
00000000
00000100
,  // measure 24
00000000
00000010
00000000
00000000
00010000
00000000
00000000
00000000
,  // measure 25
00000000
00001000
00000000
00010000
00000000
00001000
00000000
00100000
,  // measure 26
00000000
00001000
00000000
00010000
00000000
00000100
00000000
00000000
,  // measure 27
00000000
00001000
00000000
00000000
00000100
00000000
00000000
00000010
,  // measure 28
00000000
00000100
00000000
00000000
00001000
00000000
00000000
00000000
,  // measure 29
00000000
00000100
00000000
00000100
00000000
00010000
00000000
00010000
,  // measure 30
00000000
00001000
00000000
00100000
00000000
00001000
00000000
00010000
,  // measure 31
00000000
00001000
00000000
00000010
00000000
00000001
00000000
00000010
,  // measure 32
00000000
00000001
00000000
00001000
00000000
00000010
00000000
00000100
,  // measure 33
00000000
00000010
00000000
00010000
00000000
00001000
00000000
01000000
,  // measure 34
00000000
00100000
00000000
01000000
00000000
00001000
00000000
00100000
,  // measure 35
00000000
00001000
00000000
00010000
00000000
00001000
00000000
00100000
,  // measure 36
00000000
01000000
00000000
10000000
00000000
00010000
00000000
01000000
,  // measure 37
00000000
00100000
00000000
01000000
00000000
00010000
00000000
10000000
,  // measure 38
00000000
00020000
00000000
00000000
00000000
10030000
00000000
00000000
,  // measure 39
00000000
00010000
00000000
01000000
00000000
00001000
00000000
00000000
,  // measure 40
00000000
00100000
00000000
00001000
00000000
00010000
00000000
00000000
,  // measure 41
00000000
00000100
00000000
00001000
00000000
00000001
00000000
00001000
,  // measure 42
00000000
00000010
00000000
00000100
00000000
00000001
00000000
00000000
,  // measure 43
00000000
00001000
00000000
00000001
00000000
00000100
00000000
00000000
,  // measure 44
00000000
00000010
00000000
00010000
00000000
00000010
00000000
00000000
,  // measure 45
00000000
00010000
00000000
00001000
00000000
00100000
00000000
00010000
,  // measure 46
00000000
00000000
01000000
01000000
01000000
00000000
00000000
00100000
,  // measure 47
00000000
10000000
00000000
00000000
00010000
00000000
00000000
01000000
,  // measure 48
00000000
00100000
00000000
00000000
01000000
00000000
00000000
00000000
,  // measure 49
00000000
00010000
00000000
01000000
00000000
00001000
00000000
00010000
,  // measure 50
00000000
00000100
00000000
00001000
00000000
00000001
00000000
00001000
,  // measure 51
00000000
00000001
00000000
00000000
00000100
00000000
00000000
00000010
,  // measure 52
00000000
00001000
00000000
00000000
00000100
00000000
00000000
00000000
,  // measure 53
00000000
00001000
00000000
00001000
00000000
00000100
00000000
00000100
,  // measure 54
00000000
00010000
00000000
00001000
00000000
00010000
00000000
00000000
,  // measure 55
00000000
00001000
00000000
00010000
00000000
00001000
00000000
00001000
,  // measure 56
00000000
00100000
00000000
00010000
00000000
01000000
00000000
01000000
,  // measure 57
00000000
00100000
00000000
01000000
00000000
00010000
00000000
00010000
,  // measure 58
00000000
00100000
00000000
01000000
00000000
00100000
00000000
00001000
,  // measure 59
00000000
00010000
00000000
00000100
00000000
00001000
00000000
00001000
,  // measure 60
00000000
00000001
00000000
00000100
00000000
00000010
00000000
00000010
,  // measure 61
00000000
00000100
00000000
00000001
00000000
00001000
00000000
00001000
,  // measure 62
00000000
00000100
00000000
00000010
00000000
00000100
00000000
00010000
,  // measure 63
00000000
00001000
00000000
00100000
00000000
00001000
00000000
00101000
;
