#TITLE:Heartbeat;
#SUBTITLE:;
#ARTIST:Nathalie;
#TITLETRANSLIT:;
#SUBTITLETRANSLIT:;
#ARTISTTRANSLIT:;
#GENRE:;
#CREDIT:;
#MENUCOLOR:;
#BANNER:Doubles - Heartbeat.png;
#BACKGROUND:Doubles - Heartbeat-BG.png;
#LYRICSPATH:Doubles - Heartbeat.lrc;
#CDTITLE:;
#MUSIC:Doubles - Heartbeat.mp3;
#OFFSET:-3.220;
#SAMPLESTART:58.177;
#SAMPLELENGTH:12.000;
#SELECTABLE:YES;
#LISTSORT:;
#BPMS:0.000=155.000;
#STOPS:;
#TICKCOUNT:0.000=2;
#BGCHANGES: 15.75=Wave2.avi=1.705=1=0=1,
19.75=Wave1.avi=1.705=0=1=1,
23.75=Wave3.avi=1.705=0=1=1,
31.75=Blizzard1.avi=1.705=0=1=1,
35.75=Blizzard2.avi=1.705=0=1=1,
39.75=Wave3.avi=1.705=0=1=1,
43.75=Wave2.avi=1.705=0=1=1,
44.75=Wave2.avi=1.705=0=1=1,
45.75=Wave2.avi=1.705=0=1=1,
46.75=Wave2.avi=1.705=0=1=1,
47.75=Wave2.avi=1.705=0=1=1,
51.75=Wave1.avi=1.705=0=1=1,
55.75=Wave3.avi=1.705=0=1=1,
63.75=Blizzard1.avi=1.705=0=1=1,
67.75=Blizzard2.avi=1.705=0=1=1,
71.75=Wave3.avi=1.705=0=1=1,
75.75=Wave2.avi=1.705=0=1=1,
77.25=Wave2.avi=1.705=0=1=1,
78.75=Wave2.avi=1.705=0=1=1,
79.75=Snow4.avi=1.705=0=1=1,
91.75=Heart2.avi=1.705=0=1=1,
95.75=Snow3.avi=1.705=0=1=1,
107.75=Heart2.avi=1.705=0=1=1,
111.75=Thunder1a.avi=1.705=0=1=1,
119.75=Thunder1.avi=1.705=0=1=1,
127.75=Thunder1a.avi=1.705=0=1=1,
131.75=Thunder1.avi=1.705=0=1=1,
139.75=Wave2.avi=1.705=0=1=1,
141.25=Wave2.avi=1.705=0=1=1,
142.75=Wave2.avi=1.705=0=1=1,
143.75=Blizzard1.avi=1.705=0=1=1,
155.75=Heart2.avi=1.705=0=1=1,
159.75=Blizzard2.avi=1.705=0=1=1,
171.75=Wave3.avi=1.705=0=1=1,
172.75=Wave2.avi=1.705=0=1=1,
173.75=Wave2.avi=1.705=0=1=1,
174.75=Wave2.avi=1.705=0=1=1,
175.75=Blizzard1.avi=1.705=0=1=1,
187.75=Heart2.avi=1.705=0=1=1,
191.75=Blizzard2.avi=1.705=0=1=1,
203.75=Wave3.avi=1.705=0=1=1,
204.75=Wave2.avi=1.705=0=1=1,
205.75=Wave2.avi=1.705=0=1=1,
206.75=Wave2.avi=1.705=0=1=1,
207.75=Wave2.avi=1.705=0=1=1,
211.75=Wave1.avi=1.705=0=1=1,
215.75=Wave3.avi=1.705=0=1=1,
223.75=Blizzard1.avi=1.705=0=1=1,
227.75=Blizzard2.avi=1.705=0=1=1,
231.75=Wave3.avi=1.705=0=1=1,
235.75=Wave2.avi=1.705=0=1=1,
237.25=Wave2.avi=1.705=0=1=1,
238.75=Wave2.avi=1.705=0=1=1,
239.75=Doubles - Heartbeat-BG.png=1=0=0=0;
#KEYSOUNDS:;
#ATTACKS:;

//---------------dance-double - BASIC----------------
#NOTES:
     dance-double:
     BASIC:
     Easy:
     4:
     0.326,0.398,0.242,0.000,0.000: // measure 1
00000000
00000000
00000000
00000000
,  // measure 2
00000000
00000000
00000000
00000000
,  // measure 3
00000000
00000000
00000000
00000000
,  // measure 4
00000000
00000000
00000000
00000000
,  // measure 5
00001001
00000000
00000000
00000000
,  // measure 6
00011000
00000000
00000000
00000000
,  // measure 7
10010000
00000000
00000000
00000000
,  // measure 8
01000000
00000000
00000100
00000000
,  // measure 9
00001001
00000000
00000000
00000000
,  // measure 10
00011000
00000000
00000000
00000000
,  // measure 11
10010000
00000000
00000000
00000000
,  // measure 12
00100000
01000000
00100000
00100000
,  // measure 13
10010000
10000000
01000000
00010000
,  // measure 14
00011000
00001000
00000010
00000001
,  // measure 15
00001001
00000010
00000100
00001000
,  // measure 16
00000110
00001000
00011000
00010000
,  // measure 17
01100000
10000000
01000000
00010000
,  // measure 18
00011000
00001000
00000010
00000001
,  // measure 19
00000110
00000010
00000100
00000100
,  // measure 20
00000001
00000100
00001000
00010000
,  // measure 21
00001000
00010000
00001000
00000100
,  // measure 22
00000001
00001000
00000001
00000100
,  // measure 23
00001000
00010000
00100000
01000000
,  // measure 24
00100000
10000000
01000000
10000000
,  // measure 25
00010000
00000000
00010000
01000000
,  // measure 26
10000000
00000000
10000000
01000000
,  // measure 27
00010000
00000000
00100000
01000000
,  // measure 28
00100000
10000000
00010000
01000000
,  // measure 29
00011000
01000000
00010000
10000000
,  // measure 30
00010000
01000000
00010000
00001000
,  // measure 31
00011000
00001000
00000010
00001000
,  // measure 32
00000001
00001000
00000100
00001000
,  // measure 33
00000010
00001000
00000001
00000100
,  // measure 34
00001000
00010000
00100000
10000000
,  // measure 35
01000000
01000000
00010000
00001000
,  // measure 36
00000010
00000000
00000000
00000010
00000000
00000000
00000010
00000000
,  // measure 37
00001001
00000001
00000100
00000001
,  // measure 38
00001000
00000100
00001000
00000001
,  // measure 39
00001000
00000100
00010000
00000100
,  // measure 40
00001000
00000010
00010000
00000010
,  // measure 41
00001000
00000010
00001000
00010000
,  // measure 42
00100000
00010000
00001000
00000100
,  // measure 43
00010000
00001000
01000000
00001000
,  // measure 44
00010000
00001000
00010000
00000100
,  // measure 45
00001001
00001000
00000010
00000001
,  // measure 46
00001001
00000001
00000010
00001000
,  // measure 47
00010000
00001000
00100000
00001000
,  // measure 48
00010000
00001000
01000000
00010000
,  // measure 49
10000000
00100000
01000000
00010000
,  // measure 50
00100000
00001000
00010000
00000100
,  // measure 51
00001000
00000001
00000100
00000010
,  // measure 52
00001000
00000000
00010000
00010000
,  // measure 53
00011000
00000010
00001000
00000100
,  // measure 54
00011000
00100000
00010000
01000000
,  // measure 55
10000000
01000000
00010000
01000000
,  // measure 56
00001000
00010000
00000100
00001000
,  // measure 57
00001001
00000001
00001000
00000010
,  // measure 58
00001001
00001000
00000100
00010000
,  // measure 59
00011000
00100000
01000000
10000000
,  // measure 60
00010000
01000000
00100000
10000000
,  // measure 61
01000000
00000000
00000000
00010000
00000000
00001000
00000000
00000000
;

//---------------dance-double - DIFFICULT----------------
#NOTES:
     dance-double:
     DIFFICULT:
     Medium:
     5:
     0.401,0.429,0.222,0.000,0.000: // measure 1
00000000
00000000
00000000
00000000
,  // measure 2
00000000
00000000
00000000
00000000
,  // measure 3
00000000
00000000
00000000
00000000
,  // measure 4
00000000
00000000
00000000
00000000
,  // measure 5
10010000
00000000
00000000
00000000
01000000
00000000
00000000
00011000
,  // measure 6
00000000
00000000
00000000
00000000
00000100
00000000
00000000
00001001
,  // measure 7
00000000
00000000
00000000
00000000
00000010
00000000
00000000
00011000
,  // measure 8
00000000
00100000
00001000
00010000
,  // measure 9
10010000
00000000
00000000
00000000
01000000
00000000
00000000
00011000
,  // measure 10
00000000
00000000
00000000
00000000
00000100
00000000
00000000
00001001
,  // measure 11
00000000
00000000
00000010
00000000
,  // measure 12
00000001
00001000
00000001
00000000
00010000
00001000
00010000
00000000
,  // measure 13
10010000
00000000
10000000
00000000
00010000
00000000
01000000
00001000
,  // measure 14
00010000
00000000
00000100
00000000
00001000
00000000
00000001
00000100
,  // measure 15
00000010
00000000
00001000
00000000
00000001
00000000
00000100
00000010
,  // measure 16
00000000
00001000
00000100
00010000
00000000
00001000
00100000
00010000
,  // measure 17
01000000
00000000
00100000
00000000
10000000
00000000
00010000
01000000
,  // measure 18
00100000
00000000
00010000
00000000
00001000
00000000
00000100
00000010
,  // measure 19
00001000
00000000
00000001
00000000
00000010
00000100
00000010
00000000
,  // measure 20
00000001
00000100
00000001
00001000
00000000
00001000
00000100
00010000
,  // measure 21
00001000
00000000
00010000
00000000
00100000
10000000
01000000
00100000
,  // measure 22
00010000
00000000
10000000
00000000
00010000
01000000
00001000
00010000
,  // measure 23
00000100
00000000
00001000
00000000
00000010
00000100
00000010
00000000
,  // measure 24
00001000
00000000
00000000
00000001
00000000
00000100
00000000
00000010
,  // measure 25
00000000
00000000
00001000
00000000
00000010
00000100
00001000
00010000
,  // measure 26
00000100
00000000
00000000
00000000
00010000
00001000
01000000
00100000
,  // measure 27
10000000
00000000
00000000
00000000
00100000
01000000
10000000
01000000
,  // measure 28
00000000
00010000
00000000
00001000
00000000
00000100
00000000
00000000
,  // measure 29
00001001
00000100
00001001
00000100
,  // measure 30
00000110
00000001
00000010
00001000
,  // measure 31
00010000
00000000
00001000
00000000
00100000
00000000
00010000
10000000
,  // measure 32
00000000
01000000
00000000
00100000
00000000
00010000
00000000
00000000
,  // measure 33
00011000
01000000
10010000
01000000
,  // measure 34
00011000
00000010
00001001
00000010
,  // measure 35
00000001
00000000
00001000
00000000
00000001
00000100
00000000
00000100
,  // measure 36
00001000
00000000
00000000
00010000
00000000
00000000
10000000
00000000
,  // measure 37
10010000
00000000
00100000
00000000
01000000
00000000
00010000
00001000
,  // measure 38
00000000
00000000
00000010
00000000
00000100
00000000
00001000
00000001
,  // measure 39
00001000
00000001
00000010
00000100
,  // measure 40
00001000
00000000
00010000
00000000
00100000
01000000
10000000
01000000
,  // measure 41
00100000
00000000
00010000
00000000
01000000
00000000
00001000
00100000
,  // measure 42
00000000
00000000
00001000
00000000
00010000
00000000
00000100
00001000
,  // measure 43
00000001
00000010
00000001
00000100
,  // measure 44
00001000
00000000
00010000
00000000
00001000
00010000
00100000
00010000
,  // measure 45
00001000
00000000
00010000
00000000
00001000
00000000
00000100
00000010
,  // measure 46
00000000
00000000
00001000
00000000
00010000
00000000
01000000
00100000
,  // measure 47
10000000
00100000
01000000
00010000
,  // measure 48
10000000
00000000
01000000
00000000
00010000
00001000
00000100
00000001
,  // measure 49
00000100
00000000
00001000
00000000
00010000
00000000
00001000
00100000
,  // measure 50
00000000
00010000
00001000
00000010
,  // measure 51
00000001
00000100
00000010
00001000
,  // measure 52
00010000
00010000
00001000
00001000
,  // measure 53
00011000
00000000
00001000
00000100
00000001
00000000
00001000
00000000
,  // measure 54
00001001
00000000
00000001
00000100
00001000
00000000
00010000
00000000
,  // measure 55
00011000
00000000
00001000
00010000
00100000
00000000
10000000
00100000
,  // measure 56
00000000
01000000
00010000
10000000
00000000
01000000
00100000
00000000
,  // measure 57
10010000
00000000
00010000
00100000
01000000
00000000
00010000
00000000
,  // measure 58
00011000
00000000
00001000
00000010
00000100
00000000
00001000
00000000
,  // measure 59
00001001
00000000
00000001
00000100
00000010
00000000
00001000
00000000
,  // measure 60
00000001
00000100
00000001
00000000
00001000
00000100
00001000
00000000
,  // measure 61
00010000
00001000
01000000
00010000
00000000
00001000
00000000
00000000
;

//---------------dance-double - EXPERT----------------
#NOTES:
     dance-double:
     EXPERT:
     Hard:
     8:
     0.564,0.582,0.121,0.000,0.222: // measure 1
00000000
00000000
00000000
00000000
,  // measure 2
00000000
00000000
00000000
00000000
,  // measure 3
00000000
00000000
00000000
00000000
,  // measure 4
00000000
00000000
00000000
00000000
,  // measure 5
10010000
00000000
00000000
00000000
00010000
10000000
00010000
10000000
00010000
00000000
00000000
00000000
01000000
00000000
00001000
00000000
,  // measure 6
00000000
00000000
00000000
00000000
00010000
00001000
00010000
00001000
00010000
00000000
00000000
00000000
00001000
00000000
00000100
00000000
,  // measure 7
00000000
00000000
00000000
00000000
00000010
00000100
00000010
00000100
00000010
00000000
00000000
00000000
00001000
00000000
00000001
00000000
,  // measure 8
00000000
00001000
00000100
00001000
00000000
00010000
00001000
00000000
,  // measure 9
01000000
00000000
00000000
00000000
00100000
10000000
00100000
10000000
00100000
00000000
00000000
00000000
10000000
00000000
01000000
00000000
,  // measure 10
00000000
00000000
00000000
00000000
00010000
01000000
00010000
01000000
00010000
00000000
00000000
00000000
00010000
00000000
00001000
00000000
,  // measure 11
00000000
00000000
00000100
00000010
00001000
00000001
00000100
00000000
,  // measure 12
00000101
00000000
00000000
00000000
00001010
00000000
00000000
00000000
00000011
00000000
00000000
00000000
00000010
00000100
00000001
00000100
,  // measure 13
00000010
00000000
00000000
00000000
00000001
00000100
00000001
00000100
00000001
00000000
00000000
00000000
00001000
00000000
00000010
00000000
,  // measure 14
00000100
00000000
00000000
00000000
00001000
00010000
00001000
00010000
00001000
00000000
00000000
00000000
01000000
00000000
00100000
00000000
,  // measure 15
10000000
00000000
00000000
00000000
01000000
00100000
01000000
00100000
01000000
00000000
00000000
00000000
10000000
00000000
01000000
00000000
,  // measure 16
00000000
00010000
00001000
00000100
00000000
00000001
00000010
00000000
,  // measure 17
00000100
00000000
00000000
00000000
00001000
00000100
00001000
00000100
00010000
00000000
00000000
00000000
00000100
00000000
00001000
00000000
,  // measure 18
00000000
00000000
00000000
00000000
00001000
00000010
00001000
00000010
00010000
00000000
00000000
00000000
01000000
00000000
10000000
00000000
,  // measure 19
00000000
00010000
00100000
00000000
10000000
01000000
00000000
00100000
,  // measure 20
00010000
10000000
01000000
00000000
00100000
00000000
01000000
10000000
00000000
00000000
00010000
00000000
00100000
00000000
01000000
00000000
,  // measure 21
10010000
00000000
10000000
01000000
00100000
00010000
01000000
00001000
,  // measure 22
00010000
00000000
00001000
00000100
00000010
00001000
00000100
00001000
,  // measure 23
00000010
00000000
00001000
00000001
00000100
00000010
00000100
00000001
,  // measure 24
00000010
00000000
00001000
00010000
00000000
00001000
00000000
00000010
,  // measure 25
00000000
00000000
00001000
00010000
00001000
01000000
00001000
00010000
,  // measure 26
00000000
00000000
00010000
00100000
01000000
10000000
00100000
01000000
,  // measure 27
00000000
00000000
10000000
01000000
00010000
01000000
00001000
01000000
,  // measure 28
00000000
00001000
00000000
00010000
00000000
00000100
00001000
00000000
,  // measure 29
00000001
00000100
00001000
00000000
00010000
00100000
10000000
00000000
,  // measure 30
10000000
01000000
10000000
00010000
10000000
00100000
00010000
00000000
,  // measure 31
10000000
01000000
00010000
00000000
01000000
00010000
00100000
00000000
,  // measure 32
00100000
01000000
00010000
01000000
00001000
00010000
00000100
00000000
,  // measure 33
00001000
00000100
00000010
00000000
00000001
00000100
00000010
00000000
,  // measure 34
00001000
00000010
00000100
00000000
00001000
00010000
00100000
00000000
,  // measure 35
10000000
00000000
00010000
10000000
01000000
00100000
00010000
01000000
,  // measure 36
01010000
00000000
00000000
00011000
00000000
00000000
00001100
00000000
,  // measure 37
00000110
00000000
00001000
00000001
00000010
00000100
00001000
00000001
,  // measure 38
00000100
00000000
00000010
00000100
00001000
00000001
00000100
00001000
,  // measure 39
00010000
00000000
00100000
10000000
00000000
00010000
00000000
01000000
,  // measure 40
00000000
00100000
00000000
10000000
01000000
10000000
00010000
10000000
,  // measure 41
00100000
00000000
00010000
00100000
01000000
10000000
00010000
01000000
,  // measure 42
00000000
01000000
00010000
01000000
00001000
00000100
00000001
00001000
,  // measure 43
00000001
00000100
00000010
00001000
00000001
00000100
00000010
00001000
,  // measure 44
00000101
00000000
00000000
00000000
00001100
00000000
00000000
00000000
00000101
00000000
00000000
00000000
00000100
00000010
00001000
00000010
,  // measure 45
00010000
00000000
00001000
00100000
01000000
10000000
00010000
01000000
,  // measure 46
00100000
00000000
10000000
00100000
01000000
10000000
01000000
00001000
,  // measure 47
00010000
00000000
00001000
00000100
00000000
00000010
00000000
00001000
,  // measure 48
00000000
00000001
00000000
00000100
00000010
00000100
00000001
00000100
,  // measure 49
00001000
00000000
00010000
00001000
00100000
00001000
00010000
01000000
,  // measure 50
00100000
00000000
00100000
01000000
10000000
01000000
00010000
10000000
,  // measure 51
01000000
00000000
00100000
00000000
00010000
00000000
00000000
00000000
10000000
00000000
01000000
00000000
00100000
00000000
00000000
00100000
,  // measure 52
00010000
00000000
00000000
00010000
01000000
00000000
00000000
01000000
00001000
00000000
00000000
00001000
00010000
00000000
00000000
00010000
,  // measure 53
00001000
00000000
00000000
00000000
00000010
00001000
00000010
00000100
00000010
00000000
00000000
00000000
00001000
00000000
00000001
00000000
,  // measure 54
00000100
00000000
00000000
00000000
00001000
00010000
00001000
01000000
00001000
00000000
00000000
00000000
00010000
00000000
00001000
00000000
,  // measure 55
00100000
00000000
00000000
00000000
00010000
00100000
00010000
00100000
01000000
00000000
00000000
00000000
10000000
00000000
00100000
00000000
,  // measure 56
00000000
10000000
01000000
00010000
00000000
00001000
00000100
00000000
,  // measure 57
00000010
00000000
00000000
00000000
00001000
00000001
00000100
00000010
00001000
00000000
00000000
00000000
00000010
00000000
00000100
00000000
,  // measure 58
00000000
00000000
00000000
00000000
00010000
00100000
01000000
10000000
00010000
00000000
00000000
00000000
10000000
00000000
01000000
00000000
,  // measure 59
00010000
00000000
00001000
00000000
00000100
00000010
00000000
00001000
,  // measure 60
00000001
00000100
00000001
00000000
00000000
00001000
00000010
00000100
00000000
00000000
00000010
00000000
00001000
00000000
00000001
00000000
,  // measure 61
00000100
00000010
00001000
00000100
00000000
00010000
00000000
00000000
;
