#TITLE:Electrify;
#SUBTITLE:;
#ARTIST:mutemath;
#TITLETRANSLIT:;
#SUBTITLETRANSLIT:;
#ARTISTTRANSLIT:;
#GENRE:;
#CREDIT:Telperion;
#BANNER:;
#BACKGROUND:;
#LYRICSPATH:;
#CDTITLE:;
#MUSIC:Electrify.mp3;
#OFFSET:-0.360;
#SAMPLESTART:10.646;
#SAMPLELENGTH:18.514;
#SELECTABLE:YES;
#DISPLAYBPM:175.000;
#BPMS:0.000=175.000;
#STOPS:;
#BGCHANGES:;
#KEYSOUNDS:;

//---------------dance-double - Telperion----------------
#NOTES:
     dance-double:
     Telperion:
     Challenge:
     10:
     0.654,0.720,0.196,0.084,0.093:
00000000
00000000
00000000
00000000
,
00000000
00000000
00000000
00000000
,
00000000
00000000
00000000
00000000
,
00000000
00000000
00000000
00000000
,
00000000
00000000
00000000
00000000
,
00000000
00000000
00000000
00000000
,
00022000
00000000
00000000
00000000
,
00000000
00000000
00000000
00000000
00033000
00010000
00001000
00010000
,
00100000
10000000
01000000
00010000
00001000
01000000
00100000
01000000
,
00010000
00100000
01000000
10000000
00000000
00100000
00000000
00100000
,
01000000
00010000
00100000
01000000
00100000
01000000
10000000
00100000
,
01000000
00100000
01000000
00001000
00010000
00100000
00010000
00001000
,
00100000
01000000
10000000
00100000
00000000
00100000
01000000
00100000
,
00010000
00001000
00000100
00000010
00000000
00000010
00001000
00000100
,
00000010
00000001
00001000
00000001
00000000
00000001
00000100
00001000
,
00010000
00001000
00010000
01000000
00000000
10000000
10000000
00010000
,
00010000
01000000
00100000
01000000
10000000
00000000
01000000
00100000
,
10000000
01000000
00200000
01000000
00000000
00010000
00000000
01300000
,
00100000
00010000
10000000
01000000
00000000
01000000
10000000
00100000
,
01000000
00010000
00100000
00001000
00010000
00000100
00001000
00000010
,
00001000
00000001
00001000
00000001
00001000
00000001
00001000
00000100
,
00000010
00000001
00000010
00000100
00010000
00001000
00100000
01000000
,
10000000
00100000
00010000
00001000
00000100
00000001
00000010
00001000
,
00010000
01000000
00100000
00001000
00000010
00000100
00010000
00100000
,
01000000
00000000
01100000
00000000
00100000
10000000
01000000
00010000
,
00001000
00000000
00011000
00000000
00010000
00001000
00000100
00000010
,
00001000
00000000
00000000
00000100
00000000
00000000
00000010
00000000
00000001
00000000
00000000
00000000
00000001
00000000
00000100
00000000
,
00000010
00001000
00000000
00001000
00000100
00010000
00000000
00010000
,
00001000
00100000
00010000
00000000
00010000
10000000
01000000
00100000
,
00010000
01000000
10000000
00000000
01000000
00100000
10000000
00000000
,
00010000
01000000
10000000
01000000
00010000
01000000
00100000
00010000
,
00001000
00010000
00100000
00010000
00001000
00000100
00000010
00001000
,
00000010
00000000
00000110
00000000
00000100
00000001
00000010
00001000
,
00010000
00000000
00011000
00000000
00010000
01000000
00100000
00010000
,
01000000
00000000
00000000
00100000
00000000
00000000
00010000
00000000
00001000
00000000
00000000
00000000
00101000
00000000
00000000
00000000
,
00100000
01000000
00000000
10000000
00010000
01000000
00000000
00100000
,
01000000
00010000
00110000
00000000
00010000
10000000
01000000
00100000
,
00001000
00010000
00110000
00000000
00010000
00001000
00000100
00000010
,
00001000
00000100
00000001
00000000
00001000
00000010
00000100
00001000
,
00010000
00100000
01000000
00010000
00001000
00000100
00000010
00020000
,
00000000
00001000
00030200
00001000
,
00020300
00000000
00001000
00000000
00031000
00010000
00001000
00000000
,
00001000
00000000
00000000
00000000
00010000
00000000
00001000
00010000
00001000
00000000
00000000
00000000
01000000
00000000
00100000
01000000
,
00100000
00000000
00000000
00000000
10000000
00000000
01000000
10000000
01000000
00000000
00100000
00000000
00010000
00000000
01000000
00000000
,
10000000
00000000
01000000
00000000
00100000
00000000
00010000
00000000
00001000
00000000
00000000
00000000
00010000
00000000
00001000
00010000
,
00001000
00010000
01000000
20000000
00000000
01000000
00000000
31000000
,
10000000
00000000
00100000
00000000
01000000
00000000
00100000
00000000
00010000
00000000
00000000
00000000
00001000
00000000
00010000
00001000
,
00010000
00001000
00000100
00001001
00000000
00000000
00000011
00000000
,
00001100
00000000
00000001
00000100
00001100
00000000
00001000
00010000
,
00011000
00000000
00000000
00000000
00010000
00000000
01000000
00000000
11000000
00000000
00000000
00000000
10000000
00000000
01000000
10000000
,
00010000
00000000
01000000
00100000
10000000
00000000
01000000
00100000
,
00010000
00000000
01000000
00100000
00020000
00001000
00000000
00130000
,
10000000
01000000
00010000
00001000
00000100
00000010
00000100
00000001
,
00000010
00001000
00010000
00100000
01000000
00100000
10000000
01000000
,
00010000
00000000
00000100
00000000
00000010
00000000
00000001
00000000
00000100
00000000
00001000
00000000
01000000
00000000
00100000
01000000
,
00100000
00000000
01000000
00000000
00010000
00100000
00010000
00000000
00100000
00001000
00100000
00000000
00001000
00010000
00001000
00010000
,
00001000
00100000
01000000
10000000
00010000
01000000
10000000
01000000
,
00100000
00010000
00001000
00100000
01000000
10000000
01000000
00010000
,
00001000
00000000
00000000
00010000
00000000
00000000
00001000
00000000
00010000
00000000
00000000
00000000
00011000
00000000
00000000
00000000
,
00001000
00000100
00001010
00000000
00000100
00000010
00000101
00000000
,
00000001
00000010
00001000
00000010
00000100
00001000
00010000
00100000
,
01000000
00010000
01000000
00100000
00010000
10000000
01000000
00000000
,
10000000
00100000
00010000
00100000
01000000
00100000
00010000
00100000
,
01000000
00000000
00010000
00000000
00001000
00000000
00000010
00000000
00000100
00000000
00000001
00000000
00000010
00000000
00000000
00000010
,
00000001
00000000
00000100
00000000
00000010
00000000
00000100
00000010
00000100
00000000
00001000
00000000
00000100
00000000
00000000
00000000
,
00001000
00000000
00010000
00000000
01000000
00000000
00100000
01000000
00100000
00000000
00010000
00000000
01000000
00000000
00100000
00000000
,
10000000
00000000
00000000
01000000
00000000
00000000
00010000
00000000
00001000
00000000
00000000
00000000
00011000
00000000
00000000
00000000
,
00001000
00000100
00001010
00000000
00000100
00000010
00000101
00000000
,
00000001
00000010
00000100
00000010
00001000
00100000
00010000
00100000
,
01000000
00010000
01000000
10000000
00010000
01000000
00100000
00000000
,
00100000
10000000
01000000
00001000
00000100
00000010
00000001
00000100
,
00010000
00000000
01000000
00000000
00100000
00000000
00001000
00000000
00000010
00000100
00000010
00000000
00001000
00000000
00000100
00000010
,
00000200
00000000
00000000
00000000
,
00000000
00000000
00000000
00000000
00000300
00000110
00000000
00000000
;

//---------------dance-double - Expert----------------
#NOTES:
     dance-double:
     Expert:
     Hard:
     8:
     0.575,0.549,0.168,0.047,0.000:
00000000
00000000
00000000
00000000
,
00000000
00000000
00000000
00000000
,
00000000
00000000
00000000
00000000
,
00000000
00000000
00000000
00000000
,
00000000
00000000
00000000
00000000
,
00000000
00000000
00000000
00000000
,
00020000
00000000
00000000
00000000
,
00000000
00000000
00000000
00000000
00000000
00031000
00010000
00001000
,
00000100
00000000
00000001
00000100
00000010
00000000
00001000
00000100
,
00000010
00000000
00000010
00000100
00000000
00010010
00000000
00010000
,
00000100
00000000
00000010
00000001
00000100
00000000
00000100
00001000
,
00010000
00001000
00010000
00100000
00000000
01100000
00000000
10000000
,
01000000
00000000
10000000
00010000
00000000
00010000
00100000
01000000
,
10000000
01000000
00020000
00001000
00000000
00001000
00000000
00031000
,
00010000
00100000
01000000
00010000
00000000
00010000
10000000
00100000
,
01000000
00001000
00010000
00000010
00000000
00000010
00001000
00000100
,
00000010
00000001
00000010
00000100
00001000
00000000
00000010
00000100
,
00001000
00000000
00001000
00000100
00000000
00001010
00000000
00001000
,
00000100
00001000
00000100
00001000
00000001
00000000
00000100
00000001
,
00000100
00000010
00001000
00000001
00000000
00000100
00000010
00001000
,
00000001
00000010
00000001
00000100
00000010
00001000
00000100
00010000
,
00001000
00100000
00010000
01000000
00100000
10000000
01000000
10000000
,
00010000
01000000
00100000
00010000
00001000
00000100
00000010
00001000
,
00000001
00000010
00000100
00010000
00001000
00100000
01000000
10000000
,
00010000
00000000
10010000
00000000
10000000
01000000
00010000
00000000
,
00001000
00000000
00011000
00000000
00001000
00100000
00010000
00000000
,
01000000
00100000
00010000
00100000
01000000
00001000
01000000
00000000
,
00010000
00100000
01000000
00010000
00001000
00010000
00000100
00000000
,
00001000
00000000
00001001
00000000
00001000
00000100
00000001
00000000
,
00000100
00000000
00001001
00000000
00000001
00000100
00001000
00000000
,
00010000
00001000
00010000
00000000
01000000
10000000
01000000
00000000
,
00100000
00010000
01000000
00100000
01000000
00010000
00100000
01000000
,
10000000
00000000
10010000
00000000
10000000
01000000
00010000
00000000
,
00001000
00000000
00011000
00000000
00010000
00100000
01000000
00000000
,
00010000
01000000
00100000
10000000
01000000
00100000
01000000
00000000
,
00010000
00001000
00000100
00001000
00000100
00000010
00001000
00000000
,
00000100
00000010
00000001
00000100
00000000
00000100
00000010
00001000
,
00000100
00001000
00000000
00001000
00000001
00000100
00001000
00000000
,
00001000
00000100
00000001
00000010
00000100
00001000
00000100
00000000
,
00010000
00001000
00010000
00100000
01000000
00010000
00100000
01000000
,
20000000
00000000
30020000
00000000
,
00230000
00000000
00001000
00301000
,
00001000
00100000
01000000
10000000
00100000
00000000
00100000
01000000
,
00010000
00100000
00010000
10000000
00000000
00010000
00000000
10000000
,
00010000
00000000
10000000
00000000
01000000
01000000
00000000
10000000
,
01000000
00000000
00010000
00000000
01000000
01000000
00000000
00010000
,
00001000
00000000
00010000
00000000
00001000
00001000
00000000
00010000
,
00000100
00000000
00001000
00000110
00000000
00000000
00000100
00000000
,
00000001
00000010
00000001
00000000
00001000
00000010
00001000
00000000
,
00000100
00001000
00000100
00000000
00010000
00001000
00010000
00000000
,
00100000
01000000
00100000
00000000
10000000
01000000
10000000
00000000
,
00010000
01000000
00010000
00000000
00100000
01000000
00100000
00100000
,
00010000
10000000
01000000
10000000
00100000
01000000
00010000
00100000
,
00001000
00010000
00000100
00001000
00000010
00000100
00000001
00000010
,
00000001
00000100
00001000
00000100
00000010
00001000
00000100
00000010
,
00001000
00010000
00100000
00010000
00001000
00100000
01000000
00010000
,
01000000
00000000
10010000
00000000
10000000
01000000
00010000
00000000
,
00001000
00000000
00011000
00000000
00001000
00100000
01000000
00000000
,
00010000
00001000
01000000
00100000
01000000
00001000
00010000
00000000
,
00001000
00010000
00000100
00000010
00000100
00001000
00000001
00000000
,
00000100
00000000
00001001
00000000
00000100
00000010
00000001
00000000
,
00000100
00000000
00001100
00000000
00001000
00010000
00000100
00000000
,
00001000
00000100
00010000
00001000
00100000
00001000
00010000
00000000
,
00010000
01000000
00100000
00010000
01000000
00100000
01000000
00010000
,
00100000
00000000
10010000
00000000
10000000
01000000
00010000
00000000
,
00001000
00000000
00011000
00000000
00010000
00100000
01000000
00000000
,
00100000
10000000
01000000
00100000
01000000
00010000
00001000
00000000
,
00010000
00001000
00000100
00000010
00000100
00000001
00001000
00000000
,
00000100
00000010
00000001
00000100
00000000
00000100
00001000
00000100
,
00000010
00001000
00000000
00001000
00000100
00010000
00000100
00000000
,
00001000
00000100
00000010
00000001
00000100
00000001
00000010
00000100
,
00001000
00010000
00100000
01000000
00010000
00001000
01000000
00100000
,
01100000
00000000
00000000
00000000
,
00000000
00000000
00000000
00000000
00000000
01100000
00000000
00000000
;

//---------------dance-double - Telperion----------------
#NOTES:
     dance-double:
     Telperion:
     Medium:
     6:
     0.385,0.446,0.177,0.037,0.042:
00000000
00000000
00000000
00000000
,
00000000
00000000
00000000
00000000
,
00000000
00000000
00000000
00000000
,
00000000
00000000
00000000
00000000
,
00000000
00000000
00000000
00000000
,
00000000
00000000
00000000
00000000
,
20000000
00000000
00000000
00000000
,
00000000
00000000
00000000
00000000
30000000
00010000
10000000
00000000
,
01000000
01100000
00000000
10010000
,
00000000
00000000
00010000
01000000
00000000
01000000
00000000
01000000
,
00100000
01100000
00000000
00101000
,
00000000
00000000
00010000
00001000
00000000
00001000
00000000
00001000
,
00000010
00000000
00000110
00000000
00000000
00000010
00000100
00001000
,
00000000
00000000
00001001
00000000
00000000
00000001
00000100
00000010
,
00000000
00000000
00000110
00000000
00000000
00000010
00001000
00000100
,
00000000
00000000
00001100
00000000
00000000
00000100
00010000
00001000
,
00010000
00011000
00001000
00010000
,
01000000
00000000
01100000
00000000
00000000
00010000
01000000
00100000
,
10000000
01000000
00100000
00001000
,
00010000
00000000
00110000
00000000
00000000
00100000
01000000
00010000
,
10000000
00000000
01000000
00000000
00100000
00000000
00001000
00010000
,
00100000
00010000
00001000
00000100
,
00000001
00000010
00001000
00010000
,
01000000
10000000
00100000
00010000
,
00011000
00000000
00001000
00010000
00001000
00000000
00100000
00010000
,
00100000
00000000
01000000
10000000
00010000
00000000
01000000
00010000
,
10000000
00000000
00000000
00010000
00000000
00000000
10000000
00000000
00000000
00000000
00000000
00000000
00000000
00000000
00000000
00000000
,
10000000
01000000
00010000
00001000
,
00000100
00000000
00000010
00000100
00000010
00000000
00001000
00000010
,
00001000
00000000
00000001
00000010
00000001
00000000
00001000
00000001
,
00000100
00000000
00000000
00000001
00000000
00000000
00001000
00000000
00000000
00000000
00000000
00000000
00000000
00000000
00000000
00000000
,
00000100
00000000
00000000
00010000
00000000
00000000
00001000
00000000
00000000
00000000
00000000
00000000
00000000
00000000
00000000
00000000
,
00011000
00000000
00010000
00001000
00010000
00000000
00000100
00001000
,
00000100
00000000
00001000
00000001
00000100
00000000
00000001
00001000
,
00000100
00000000
00000000
00001000
00000000
00000000
00000001
00000000
00000000
00000000
00000000
00000000
00000000
00000000
00000000
00000000
,
00000001
00000100
00001000
00010000
,
00100000
00000000
01000000
00100000
01000000
00000000
00010000
01000000
,
00010000
00000000
10000000
01000000
10000000
00010000
00000000
00000000
,
10000000
00000000
00000000
00010000
00000000
00000000
10000000
00000000
00000000
00000000
00000000
00000000
00000000
00000000
10000000
00000000
,
01000000
00000000
01000000
00010000
00000000
00010000
00001000
00000000
,
00012000
00000000
00010000
00000000
,
00010000
00000000
00013000
00011000
,
00011000
00100000
01000000
00000000
,
00010000
00100000
10000000
01000000
,
00100000
00001000
00001000
00000000
,
00010000
00000000
00000000
00000200
00000000
00000000
00000000
00000310
,
00000100
00000000
00010000
00000000
00001000
00010000
00000000
00000000
,
00001000
00000000
00010000
00011000
00000000
00000000
00001000
00000000
,
00000100
00000001
00000010
00000000
,
00001000
00000100
00000010
00000000
,
00001000
00000100
00010000
00000000
,
01000000
00100000
10000000
01000000
,
00020000
00000000
00000000
00000000
00000000
00030000
10000000
00010000
,
00000000
00100000
00010000
01000000
,
00100000
00000000
00001000
00000100
,
00010000
00000000
00000010
00000100
,
00001000
00000000
00000100
00000000
00000010
00000100
00000010
00000000
,
00001000
00000000
00000100
00000000
00000010
00000001
00000010
00000000
,
00000100
00000000
00000000
00001000
00000000
00000000
00000001
00000000
00000000
00000000
00000000
00000000
00000000
00000000
00000000
00000000
,
00000001
00000010
00001000
00010000
,
01000000
00000000
10000000
00000000
00010000
10000000
00010000
00000000
,
01000000
00000000
00100000
00000000
00010000
00100000
00010000
00000000
,
00001000
00000000
00000000
00010000
00000000
00000000
00001000
00000000
00000000
00000000
00000000
00000000
00000000
00000000
00000000
00000000
,
00100000
00000000
00000000
00001000
00000000
00000000
00010000
00000000
00000000
00000000
00000000
00000000
00000000
00000000
00000000
00000000
,
00000100
00000000
00000010
00000000
00000001
00000010
00000001
00000000
,
00001000
00000000
00000010
00000000
00000100
00000010
00000100
00000000
,
00001000
00000000
00000000
00010000
00000000
00000000
00000100
00000000
00000000
00000000
00000000
00000000
00000000
00000000
00000000
00000000
,
00010000
00001000
01000000
00010000
,
10000000
00000000
01000000
00000000
10000000
00010000
01000000
00000000
,
00100000
00000000
01000000
00000000
00010000
10000000
01000000
00000000
,
00100000
00010000
10000000
01000000
,
00010000
00001000
00000100
00000010
,
00000110
00000000
00000000
00000000
,
00000000
00000000
00000000
00000000
00000000
00000110
00000000
00000000
;

//---------------dance-double - Telperion----------------
#NOTES:
     dance-double:
     Telperion:
     Easy:
     4:
     0.291,0.274,0.130,0.037,0.000:
00000000
00000000
00000000
00000000
,
00000000
00000000
00000000
00000000
,
00000000
00000000
00000000
00000000
,
00000000
00000000
00000000
00000000
,
00000000
00000000
00000000
00000000
,
00000000
00000000
00000000
00000000
,
00002000
00000000
00000000
00000000
,
00000000
00000000
00000000
00000000
,
00013000
00001000
00010000
00000000
,
00001000
00100000
00010000
00000000
,
00100000
01000000
10000000
00000000
,
01000000
10000000
00010000
00100000
,
00001000
00000000
00011000
00000000
,
00000100
00000000
00001100
00001000
,
00000001
00000000
00000100
00000000
,
00000001
00000010
00000100
00001000
,
00000001
00000100
00000010
00000000
,
00001000
00000010
00010000
00000000
,
00000100
00010000
00001000
00000000
,
00100000
00001000
00010000
01000000
,
00100000
01000000
00100000
01000000
,
10000000
01000000
10000000
01000000
,
00100000
00001000
00100000
00001000
,
00010000
00000100
00001000
00000100
,
00001000
00000000
00000001
00000100
,
00001000
00000000
00001000
00000100
,
00000001
00001000
00000100
00000000
,
00010000
00001000
01000000
00000000
,
00010000
00100000
01000000
00000000
,
01000000
10000000
00010000
00000000
,
01000000
00100000
10000000
00010000
,
00100000
00001000
00010000
00000010
,
00001000
00000000
00000001
00000010
,
00001000
00000000
00001000
00000010
,
00000001
00000010
00000100
00000000
,
00001000
00000100
00010000
00001000
,
00100000
00010000
01000000
00000000
,
00100000
10000000
01000000
00000000
,
00100000
00001000
00010000
00000100
,
00001000
00000010
00000100
00000001
,
00000020
00000000
00000000
00000000
,
00000032
00000000
00001003
00000000
,
00001001
00000000
00000011
00000000
,
00001010
00000000
00001100
00000000
,
00011000
00000000
00000000
00000000
,
00011000
00000000
00000000
00000000
,
00011000
00000000
00000000
00000000
,
00011000
00011000
00000000
00000000
,
00001000
00010000
00001000
00000000
,
00100000
00010000
00100000
00000000
,
00010000
01000000
00010000
00000000
,
00010000
10000000
01000000
00100000
,
00001000
00010000
00001000
00010000
,
00001000
00000000
00001000
00010000
,
00000100
00001000
00000100
00001000
,
00000001
00000100
00000010
00010000
,
00001000
00000000
00001000
00010000
,
01000000
00000000
01000000
10000000
,
00010000
01000000
00010000
00000000
,
10000000
01000000
10000000
00100000
,
01000000
00000000
01000000
00100000
,
01000000
00010000
00100000
00000000
,
00001000
00010000
00011000
00000000
,
00010000
00001000
00011000
00000000
,
00001000
00010000
00000100
00000010
,
00000100
00001000
00000001
00000000
,
00000100
00000010
00001000
00000000
,
00000100
00001000
00000010
00010000
,
00001000
00000000
00001000
00010000
,
00011000
00000000
00010000
00001000
,
00010000
00100000
01000000
00100000
,
10000000
01000000
00100000
01000000
,
00020000
00000000
00000000
00000000
,
00000000
00000000
00000000
00000000
00000000
00030000
00000000
00000000
;

//---------------dance-double - Telperion----------------
#NOTES:
     dance-double:
     Telperion:
     Beginner:
     2:
     0.120,0.145,0.019,0.037,0.000:
00000000
00000000
00000000
00000000
,
00000000
00000000
00000000
00000000
,
00000000
00000000
00000000
00000000
,
00000000
00000000
00000000
00000000
,
00000000
00000000
00000000
00000000
,
00000000
00000000
00000000
00000000
,
20000000
00000000
00000000
00000000
,
00000000
00000000
00000000
00000000
,
30010000
00000000
00000000
00000000
,
10000000
00000000
00000000
00000000
,
01000000
00000000
00000000
00000000
,
00100000
00000000
00000000
00000000
,
00001000
00000000
00000000
00000000
,
00010000
00000000
00000000
00000000
,
00001000
00000000
00000000
00000000
,
00010000
00000000
00000000
00000000
,
00000100
00000000
00000000
00000000
,
00000010
00000000
00000000
00000000
,
00000001
00000000
00000000
00000000
,
00000100
00000000
00000000
00000000
,
00002000
00000000
00000000
00000000
,
00003000
00000000
00000000
00000000
,
00000100
00000000
00000000
00000000
,
00000010
00000000
00000000
00000000
,
00001000
00000000
00000001
00000000
,
00001000
00000000
00000000
00000000
,
00000001
00000000
00000010
00000000
,
00000100
00000000
00001000
00000000
,
00000001
00000000
00000000
00000000
,
00000100
00000000
00000000
00000000
,
00001000
00000000
00000000
00000000
,
00010000
00000000
00000000
00000000
,
01000000
00000000
00000000
00000000
,
10000000
00000000
01000000
00000000
,
00100000
00000000
00000000
00000000
,
00010000
00000000
01000000
00000000
,
00100000
00000000
00000000
00000000
,
10000000
00000000
00000000
00000000
,
01000000
00000000
00000000
00000000
,
00010000
00000000
00000000
00000000
,
00011000
00000000
00000000
00000000
,
00000000
00000000
00000000
00000000
,
00001000
00000000
00010000
00000000
,
00001000
00000000
00010000
00000000
,
00001000
00000000
00000000
00000000
,
00100000
00000000
00000000
00000000
,
00001000
00000000
00000000
00000000
,
00010000
00000000
00000010
00000000
,
00001000
00000000
00000100
00000000
,
00001000
00000000
00000100
00000000
,
00000010
00000000
00000001
00000000
,
00000100
00000000
00000001
00000000
,
00000010
00000000
00000000
00000000
,
00001000
00000000
00000000
00000000
,
00010000
00000000
00000000
00000000
,
00100000
00000000
00000000
00000000
,
01000000
00000000
00010000
00000000
,
01000000
00000000
00000000
00000000
,
00100000
00000000
10000000
00000000
,
01000000
00000000
00100000
00000000
,
00010000
00000000
00000000
00000000
,
00100000
00000000
00000000
00000000
,
00001000
00000000
00000000
00000000
,
00010000
00000000
00000000
00000000
,
00000010
00000000
00000000
00000000
,
00001000
00000000
00000001
00000000
,
00000100
00000000
00000000
00000000
,
00000010
00000000
00000100
00000000
,
00000001
00000000
00000010
00000000
,
00000100
00000000
00000000
00000000
,
00010000
00000000
00001000
00000000
,
00100000
00000000
01000000
00000000
,
02200000
00000000
00000000
00000000
,
00000000
00000000
00000000
00000000
00000000
03300000
00000000
00000000
,
00000000
00000000
00000000
00000000
,
00000000
00000000
00000000
00000000
,
00000000
00000000
00000000
00000000
,
00000000
00000000
00000000
00000000
,
0000000M
00000000
00000000
00000000
;
