#TITLE:Believe;
#SUBTITLE:;
#ARTIST:Ian Van Dahl;
#TITLETRANSLIT:;
#SUBTITLETRANSLIT:;
#ARTISTTRANSLIT:;
#CREDIT:;
#BANNER:;
#BACKGROUND:;
#LYRICSPATH:;
#CDTITLE:;
#MUSIC:Believe.mp3;
#OFFSET:0.100;
#SAMPLESTART:60.000;
#SAMPLELENGTH:11.200;
#SELECTABLE:YES;
#BPMS:0.000=140.010;
#STOPS:;
#BGCHANGES:;

//---------------dance-single - ----------------
#NOTES:
     dance-single:
     :
     Hard:
     9:
     0.562,0.612,0.077,0.408,0.314:
0000
0000
0000
0000
,
0000
0000
0002
0203
,
0320
2030
3020
0230
,
0302
0023
0230
0000
,
0300
0000
0000
0000
1000
0000
0100
0000
0010
0000
0001
0010
0000
0010
0100
0000
,
1000
0000
0100
0010
0000
0010
0100
0000
1000
0000
0001
0000
1000
0000
0100
0010
,
0100
0000
0010
0000
0001
0000
0010
0001
1000
0000
0001
0000
1000
0000
0001
0010
,
0100
0000
1000
0000
0100
0000
0010
0001
0010
0000
0100
0000
0010
0000
0001
1000
,
0001
0000
1000
0000
0001
0000
0100
0010
1000
0000
0010
0000
0100
0000
0001
0100
,
0010
0000
0100
0000
0001
0000
0010
0100
1000
0000
0010
0000
0100
0000
0010
1000
,
0100
0000
0010
0000
0001
0000
0010
0100
1000
0000
0100
0000
0010
0000
0100
1000
,
0100
0000
0010
0000
0001
0000
0010
0100
0010
0000
0001
0000
0010
0000
0100
1000
,
0001
0000
1000
0000
0001
0000
0010
0100
0010
0001
1000
0001
1000
0010
1000
0200
,
2000
0000
0000
0010
3301
0000
0000
0000
,
2002
0000
0010
0010
0000
0010
3003
0000
,
0000
0000
0000
2000
0200
0000
0010
0000
,
0001
0010
0000
3311
0000
0000
0000
0000
,
MMMM
0000
0000
0000
0000
0000
0002
0200
,
0000
1000
0000
0020
0000
0000
1000
1333
,
0000
0000
0000
0002
1000
0000
0010
0000
,
0100
0000
0100
0000
0000
0000
0013
0000
0100
0000
1000
0001
0000
0001
1000
0000
,
0100
0000
0010
0001
0000
0001
0010
0000
0100
0000
0000
0000
0010
0000
0100
0000
,
0010
0001
0100
0010
1000
0010
0100
0001
,
0010
0001
0010
0100
1000
0100
1000
0100
,
0010
0100
0010
0001
0010
0001
0100
0001
,
1000
0001
0100
0001
0010
0100
1000
0100
,
1000
0010
1000
0001
1000
0010
1000
0010
,
0100
0010
1000
0100
0010
0001
0100
0010
,
0100
0001
0010
0200
0020
0000
0000
0000
,
0330
0000
0000
0000
0000
0000
0000
0000
1000
0000
0000
1000
0000
0000
1000
0000
,
0100
0000
0000
0100
0000
0000
0100
0000
0010
0000
0000
0010
0000
0000
0010
0000
,
0001
0000
0000
0001
0000
0000
0001
0000
0010
0000
0000
0010
0000
0000
0010
0000
,
0100
0000
0000
0100
0000
0000
0100
0000
1000
0000
0000
1000
0000
0000
1000
0000
,
0100
0000
0000
0010
0000
0000
0001
0000
0010
0000
0000
0100
0000
0000
1000
0000
,
0010
0000
0000
0100
0000
0000
0001
0000
0100
0000
0000
0010
0000
0000
1000
0000
,
0100
0000
0000
0010
0000
0000
0200
0000
0020
0000
0000
0000
1000
0000
1000
0000
,
0000
1330
0000
0000
1100
0000
0110
0000
,
0011
0000
0000
0000
1001
0000
0000
0000
0020
0000
0000
0100
0000
0000
0100
0000
,
0230
0000
0000
1000
0000
0000
1000
0000
2300
0000
0000
0001
0000
0000
0001
0000
,
3002
0000
0000
0010
0000
0000
0010
0000
0013
0000
0000
0100
0000
0000
0010
0000
,
0001
0000
0000
0100
0000
0000
0010
0000
0100
0000
0000
0001
0000
0000
0010
0000
,
0100
0000
0000
1000
0000
0000
0010
0000
0100
0000
0000
0010
0000
0000
1000
0000
,
0010
0000
0000
0100
0000
0000
0001
0000
0100
0000
0000
0010
0000
0000
1000
0000
,
0100
0000
0000
1000
0000
0000
0100
0000
0010
0000
0000
0100
0000
0000
0010
0000
,
0001
0000
0000
0010
0000
0000
0001
0000
0010
0000
0000
0100
0000
0000
1000
0000
,
0001
0000
0000
1000
0000
0000
0002
0000
2000
0000
0000
0000
0010
0000
0000
0000
,
0010
0010
0000
3013
0000
0000
0000
0000
,
0000
0000
0000
2000
0200
0000
0010
0000
,
0001
0010
0000
3311
0000
0000
0000
0000
,
0000
0000
0000
0200
0020
0000
0331
0000
,
0010
0000
0000
0100
0000
0000
1000
0000
0100
0000
0000
0010
0000
0000
0001
0000
,
0010
0000
0010
0002
2000
0000
0100
0010
,
0000
0000
3103
0000
0000
0000
0002
0000
0200
0000
0000
0010
0000
0000
1303
0000
;
