#TITLE:AARON'S PARTY COME GET IT;
#SUBTITLE:ZIV Summer Contest-Week 1-Geneyuss2009;
#ARTIST:AARON CARTER;
#TITLETRANSLIT:;
#SUBTITLETRANSLIT:;
#ARTISTTRANSLIT:;
#CREDIT:;
#BANNER:Aaron's Party (Come Get It).png;
#BACKGROUND:Aaron's Party (Come Get It)-bg.png;
#LYRICSPATH:Aaron's Party (Come Get It).lrc;
#CDTITLE:./CDTITLES/DANCING STAGE EUROMIX 2.PNG;
#MUSIC:Aaron's Party (Come Get It).mp3;
#OFFSET:-0.359;
#SAMPLESTART:53.680;
#SAMPLELENGTH:12.000;
#SELECTABLE:YES;
#DISPLAYBPM:117.000;
#BPMS:0.000=58.499,8.000=116.999,56.000=58.500,60.000=116.999;
#STOPS:;
#BGCHANGES:;

//---------------dance-single - Copied from----------------
#NOTES:
     dance-single:
     Copied from:
     Hard:
     9:
     0.541,0.519,0.371,0.087,0.316:
0000
0000
0000
0000
,
1000
0000
0100
0010
0100
0000
0010
0010
1000
0000
0001
0100
0001
0000
0000
1000
,
0001
0000
0010
0000
1000
0000
0100
0000
0010
0000
0000
1010
0000
0000
0000
0000
,
0001
0000
0000
0101
0000
0000
0010
0000
0010
0000
0000
1010
0000
0000
0000
0000
,
0010
0000
1000
0000
0010
0000
0100
0000
0010
0001
0000
1000
0000
0000
0001
0000
,
0010
0000
0100
0000
1000
0000
0010
0000
0100
0000
0001
1000
0002
0000
0000
0000
,
1003
0000
0100
0000
0010
0000
0100
0000
1000
0000
0100
0010
0000
0000
0000
0000
,
0010
0000
0100
0000
1000
0000
0100
1000
0100
0000
1000
0000
0010
0000
0001
0000
,
1000
0000
0100
0000
0010
0000
0000
0000
1000
0000
0100
0000
0100
0000
1000
0001
,
1000
0000
2000
0000
0000
0000
0000
0000
0010
0000
0010
0000
3010
0000
0000
0001
,
1000
0100
0100
0020
1030
0100
0100
0000
,
1000
0100
1000
0100
1000
0000
0001
0010
0001
0010
0000
0001
0000
0000
0000
0001
,
1000
0000
0100
1000
0100
0000
0001
0000
0010
0000
0100
0000
1000
0000
0000
0001
,
0010
0100
1000
0100
0000
0001
0010
0000
,
1001
0000
0000
0000
0110
0000
0000
0000
1000
0000
0100
0000
0010
0000
0000
0000
0000
0000
0001
0000
0001
0000
0000
0000
0001
0010
0001
0010
0000
0000
0000
1000
,
0100
0000
0010
0000
0100
0000
0010
0000
1000
0000
0001
1000
0000
0000
0000
0001
,
0010
0000
0100
0000
0010
0000
0000
1000
0000
0100
0010
0000
0001
0000
0000
0000
,
1000
0000
0100
0000
0100
0000
0200
0000
0010
0000
0010
0010
0300
0000
0000
0000
,
0001
0000
0100
0000
0001
0000
0010
0000
0001
0000
0001
0100
0000
0000
0000
0000
,
1000
0000
0001
0000
2000
0000
0000
0100
0100
0100
0000
0100
0000
3000
0000
0000
,
0010
1000
0010
0100
0010
0001
0010
0000
,
0001
0000
1000
0000
0001
0000
0100
0010
0000
0001
0000
0100
0000
0000
0001
0100
,
0001
0010
1000
0020
0100
1000
0100
1000
,
0130
1000
0100
0010
1000
0010
0010
0000
,
1000
0100
1000
0000
0010
0000
0001
0000
0010
0000
1010
0000
1010
0000
0000
0000
,
0001
0100
0000
0010
0001
0000
1000
0001
0000
0000
1001
0000
0001
0000
1010
0000
,
0000
0010
1002
1000
1000
1000
1003
0000
,
0100
0000
0010
0000
0001
0000
1000
0010
0000
0010
0000
0000
0000
0000
1000
0000
,
1000
0000
0001
0000
0001
0000
0010
0000
0020
0000
1000
0000
1000
0030
0000
0000
,
0010
0001
0010
0000
0011
0000
1000
0001
0000
0000
0110
0000
0010
0000
1001
0000
,
0001
1100
1000
0101
0100
1010
1000
0011
,
1000
0000
0100
0000
0010
0000
0001
0000
0001
0000
0000
0110
0000
0000
1000
0000
,
0100
0000
0010
0000
1000
0000
0010
0000
0001
0000
0000
1001
0000
0000
0001
0000
,
0010
0100
1000
0100
0100
0000
0011
0000
,
1100
1010
0101
1001
,
0001
0000
0010
0000
0100
0000
1000
0000
1000
0000
0000
1000
0000
0000
1000
0000
,
0100
0000
0010
0000
0001
0000
0010
0000
1000
0000
0100
1000
0100
0000
0010
0001
,
0000
0000
0010
0000
1000
0000
0100
0000
0001
0000
0000
0001
0110
0000
0000
0000
,
1001
0000
0000
0000
1100
0000
0000
0000
0110
0000
0001
0000
0010
0001
0000
0000
,
1000
0000
0010
0000
0001
0000
0100
0000
1001
0000
0000
0110
0000
0000
1001
0000
,
0100
0000
0010
0000
1000
0000
0010
0000
1100
0000
0000
0101
0000
0000
0110
0000
,
1000
0100
0010
1000
0000
0000
0000
0000
;

//---------------dance-single - ----------------
#NOTES:
     dance-single:
     :
     Easy:
     5:
     0.285,0.367,0.284,0.011,0.000: // measure 1
0000
0000
0000
0000
,  // measure 2
0000
0000
0000
0000
,  // measure 3
1000
0000
0001
0000
,  // measure 4
0010
0000
0100
0000
,  // measure 5
1000
0000
1000
0000
,  // measure 6
0010
0110
0010
0110
,  // measure 7
1000
0100
1000
0100
,  // measure 8
0010
0001
0010
0001
,  // measure 9
0000
0001
0000
1000
,  // measure 10
0002
0000
1000
1003
,  // measure 11
0010
0000
0010
0000
,  // measure 12
1000
0100
0010
0001
,  // measure 13
0001
0000
0001
0000
,  // measure 14
0001
0000
1001
0000
,  // measure 15
0101
1010
0011
1100
,  // measure 16
1001
1000
1001
0001
,  // measure 17
0010
1000
0010
0010
,  // measure 18
0001
0010
0001
0000
0001
0010
0001
0000
,  // measure 19
0001
1000
0001
0100
0001
1000
0001
0010
,  // measure 20
0001
0001
1001
0000
1000
0000
0110
0000
,  // measure 21
0001
0001
0001
0000
1000
0000
0100
0000
,  // measure 22
0010
1000
0010
0000
0100
0001
0100
0000
,  // measure 23
1000
0000
1000
0000
0010
0001
0010
0001
,  // measure 24
0001
0000
1001
0000
,  // measure 25
1000
0000
1001
0000
,  // measure 26
0010
0000
0110
0000
,  // measure 27
0100
0000
0110
0000
,  // measure 28
1000
0001
0010
0110
,  // measure 29
1000
0100
1000
0110
,  // measure 30
0001
0001
1000
1000
,  // measure 31
0100
0000
0100
0000
0010
0010
0010
0010
,  // measure 32
1000
1000
1000
1000
0000
0000
0000
0000
,  // measure 33
0010
0110
0010
0110
,  // measure 34
0001
0001
0001
0001
0000
0000
0010
0000
,  // measure 35
0100
1000
0100
0010
,  // measure 36
0001
1000
0001
1000
0000
0000
0010
0000
,  // measure 37
0010
0100
0010
1010
,  // measure 38
0001
0010
0001
0010
0010
0000
1000
0000
,  // measure 39
0100
0010
0110
1001
,  // measure 40
1001
1000
0110
0010
,  // measure 41
0110
0001
1000
1000
,  // measure 42
0010
0010
0100
0100
,  // measure 43
1001
0000
0000
0000
;

//---------------dance-single - Copied from----------------
#NOTES:
     dance-single:
     Copied from:
     Medium:
     7:
     0.357,0.339,0.360,0.011,0.038:
0000
0000
0000
0000
,
0000
0000
0000
0000
,
1000
0000
0000
0000
0100
0000
0000
0000
0010
0000
0000
0010
0000
0000
0000
0000
,
1000
0000
0000
1000
0000
0000
0000
0000
0010
0000
0100
0000
0010
0000
0000
0000
,
0001
1000
0001
0100
0010
0000
0010
0000
,
0010
0000
1000
0000
0100
1000
0010
0100
,
1000
1010
0010
0110
,
0001
0001
0001
0000
0010
0000
1000
0000
,
0010
0000
0110
0100
0100
0000
0110
0000
,
0001
2000
0000
0000
0010
0010
0010
3000
,
0100
1000
1010
0010
,
0010
0000
0000
0000
1000
0000
0000
0000
0110
0000
0000
0010
0000
0000
0000
0000
,
0001
0000
0001
0000
0001
1000
0001
0000
,
0010
0110
1000
1000
,
1000
1000
1000
0010
0010
0010
0001
0001
,
0001
0010
0100
1000
,
0010
0000
0000
0000
0110
0000
0000
0010
0000
0000
0010
0000
0110
0000
0000
0000
,
1000
0100
0010
0011
,
0001
0000
0000
0000
0001
0000
0000
0000
0100
0000
0000
0100
0000
0000
0000
0000
,
0010
0000
0100
0000
1000
0000
0000
0000
0010
0000
0000
0110
0000
0000
0000
0000
,
0001
1000
0100
1010
,
0001
0100
0001
0101
,
0010
0000
0010
0000
1000
0001
1000
0001
,
0010
0110
0100
0110
,
0001
1001
1000
1001
,
0010
0001
0100
0001
0000
1000
0000
0100
,
0000
0110
0000
0001
0000
0001
1000
0000
,
0010
1000
1000
1100
,
1000
0001
0110
0110
,
0001
0010
0100
0001
0010
0000
1000
0000
,
1000
1000
0100
0110
,
0001
0010
0001
0010
0000
0000
1001
0000
,
0010
1000
0010
1000
0000
0000
0110
0000
,
1000
0100
1000
0100
0010
0000
0110
0000
,
1001
1100
0011
0101
,
0010
0100
0010
0100
0010
0000
0010
0000
,
1000
0001
1000
0001
1000
0000
0110
0000
,
0001
0010
0100
1000
1000
0000
0100
0000
,
0100
0010
1010
1010
,
0001
0000
0001
0000
0001
0000
0001
0000
0001
0000
0000
0100
0000
0000
1000
0000
,
1000
1000
1000
1000
0000
0000
0110
0000
,
0001
0001
0010
0010
0000
0000
0000
0000
;
