#TITLE:Why Not (DDR EDIT);
#SUBTITLE:;
#ARTIST:Darwin;
#TITLETRANSLIT:;
#SUBTITLETRANSLIT:;
#ARTISTTRANSLIT:;
#CREDIT:;
#BANNER:Why not.png;
#BACKGROUND:bg.png;
#LYRICSPATH:;
#CDTITLE:ziv2010cd.png;
#MUSIC:Why not.mp3;
#OFFSET:0.000;
#SAMPLESTART:22.620;
#SAMPLELENGTH:15.000;
#SELECTABLE:YES;
#BPMS:0.000=175.000;
#STOPS:;
#BGCHANGES:;

//---------------dance-single - Pandemonium X----------------
#NOTES:
     dance-single:
     Pandemonium X:
     Medium:
     6:
     0.471,0.550,0.539,0.222,0.000:
0000
0000
0000
0000
,
1000
0000
0000
0000
0000
0001
0000
0000
,
0100
0000
0000
0000
0000
0100
0000
0000
,
0010
0000
0000
0000
0000
0010
0000
0000
,
1000
0000
0000
0000
0000
0001
0000
0000
,
0100
0000
0000
0000
0000
0100
0000
0000
,
0010
0000
0000
0000
0000
0010
0000
0000
,
0100
0000
0000
0000
0000
0001
0000
0000
,
1000
0000
1001
0110
,
1001
0001
0001
0001
,
1000
1000
1000
1000
,
0001
0100
0010
0100
,
0010
1000
0010
0100
,
0010
0000
1000
0000
0001
0100
0010
0000
,
0100
0000
0010
0000
0010
1000
0001
0000
,
2000
0000
0000
0000
0000
0100
0000
0000
,
0020
0000
3030
0000
,
0101
0000
0010
0000
0100
0000
0010
0100
,
0000
0000
0010
0000
1000
0000
0001
1000
,
0000
1000
0001
0100
,
0101
0000
1100
0000
2002
0000
0000
3003
,
0000
0000
0001
0000
0100
0000
0001
0100
,
0000
0000
0010
0000
1000
0000
0010
1000
,
0000
1001
0110
1100
,
0011
0000
0110
0000
1001
0000
0001
0001
,
0000
1001
1001
0000
,
0000
0110
0101
0000
,
0001
0100
0001
0000
1000
0100
1000
0000
,
1100
0000
0011
0000
0110
0000
0000
0010
,
0000
0101
1100
0000
,
0000
0011
1001
0000
,
0001
0000
1000
0000
0001
0000
0200
0020
,
0000
0000
0000
0330
,
1010
0000
0101
0000
0001
0100
0001
0000
,
1100
0000
1100
0000
1000
0100
1000
0000
,
0011
0000
0011
0000
0001
0010
0001
0000
,
0101
0000
0101
0000
0100
0001
0100
0000
,
1010
0000
1010
0000
0010
1000
0010
0000
,
0100
0000
0100
0000
0010
0100
0001
0000
,
1000
0000
1001
0000
0001
1000
0010
0000
,
0100
0000
0110
0000
0010
1000
0001
0000
,
1000
0000
0100
0000
1000
0100
1000
0100
,
1000
0000
0100
0000
0010
0001
0010
0001
,
0010
0000
0001
0000
0100
0001
0100
0001
,
0100
0000
0010
0000
0010
0100
0010
0100
,
0010
0000
0010
0000
0010
1000
0001
1000
,
0001
0000
0001
0000
0001
1000
0001
1000
,
0001
0000
0100
0000
0010
1000
0010
0100
,
0010
0100
0110
1001
,
0020
0130
0020
1030
,
1001
0000
1000
0100
,
2000
3100
0020
0031
,
0011
0000
1100
0000
0020
0000
0000
0130
,
0000
0010
1000
0001
,
1000
0001
0100
0010
,
0100
0010
0010
1000
,
1000
0001
1000
0010
,
0000
1100
2200
0000
,
3300
0011
0022
0033
,
0001
0100
0010
1000
,
1001
0000
0010
0000
0110
0000
0010
0010
,
0000
0110
2002
3003
,
0000
1100
0022
0033
,
0001
0100
0010
1000
0010
0000
2000
0200
,
0000
0000
0000
0000
,
3300
0000
0000
0000
;

//---------------dance-single - Pandemonium X----------------
#NOTES:
     dance-single:
     Pandemonium X:
     Hard:
     9:
     0.647,0.653,0.423,0.211,0.116:
0000
0000
0000
0000
,
0010
0000
1001
0000
0000
0100
0100
0000
,
1010
0000
0101
0000
0000
0010
0010
0000
,
1001
0000
1100
0000
0000
0001
0001
0000
,
0101
0000
1010
0000
0000
0100
0100
0000
,
1100
0000
0110
0000
0000
0001
0001
0000
,
0101
0000
0110
0000
0000
1000
1000
0000
,
1001
0000
0101
0000
0000
0010
0010
0000
,
1001
0000
0100
0000
1000
0100
0010
0000
,
1001
0000
0000
0000
0100
0000
0000
1000
0100
0000
0010
0000
0001
0000
0010
0000
,
0100
0000
0000
0000
0001
0000
0000
0001
0100
0000
0001
0000
1000
0000
0010
0000
,
0100
0000
0000
0000
0010
0000
0000
0010
0100
0000
0001
0000
1000
0000
0010
0000
,
1000
0000
0000
0000
0001
0000
0000
0001
0100
0000
0010
0000
1000
0000
0001
0000
,
0010
0000
0000
0000
0001
0000
0000
1000
0100
0000
0010
0000
0001
0000
0010
0000
,
0100
0000
0000
0000
1000
0000
0000
0001
0100
0000
0001
0000
1000
0000
0010
0000
,
0200
0000
0000
0000
0000
0020
0000
0030
,
0020
0330
1100
0101
,
1000
0100
0010
0001
0010
0100
0010
0001
,
0000
0000
0001
1000
0001
0100
0001
0010
,
0000
0000
1000
0100
0010
0001
0010
0100
,
1001
0000
1001
0000
2002
0000
3003
1001
,
0000
0000
0001
0100
0001
1000
0010
1000
,
0000
0000
1000
0100
0001
0010
0001
0100
,
0000
0000
1000
0100
0010
0001
0010
0100
,
0010
0001
0010
0100
0010
0000
0100
0010
,
0000
0210
1300
0000
,
0000
0120
0031
0000
,
0010
0100
0001
1000
0010
0100
0010
0000
,
0101
0000
1100
0000
0102
0000
0100
0103
,
0000
0120
1030
0000
,
0000
0210
0301
0000
,
0001
0010
0100
0010
0001
0000
0002
2000
,
0000
0000
0000
3003
,
0001
0100
0001
1000
0001
0001
1000
1000
,
0001
0100
0010
1000
0001
0001
1000
1000
,
0001
0100
0010
1000
0001
0001
1000
1000
,
0001
0100
0010
1000
0001
0001
1000
1000
,
0010
0100
0010
0100
0010
0010
0100
0100
,
0010
0100
0010
0100
0010
0010
0100
0100
,
0010
1000
0001
0100
0010
0010
1000
1000
,
0100
0010
0001
1000
0001
0001
0010
0010
,
0001
0000
0001
1000
0000
0001
1000
0000
0001
0000
0100
0000
0010
0000
1000
0000
,
0001
0000
1000
0100
0000
1000
0100
0000
0010
0000
0100
0000
0001
0000
1000
0000
,
0001
0000
0001
0100
0000
0001
0100
0000
0010
0000
1000
0000
0001
0000
0100
0000
,
0010
0000
0010
0100
0000
0010
0100
0000
0010
0000
0100
0000
0001
0000
0100
0000
,
0001
0000
1000
0100
0000
0010
0001
0000
0010
0000
0100
0000
0001
0000
1000
0000
,
0001
0000
0001
0100
0000
0010
1000
0000
0001
0000
0100
0000
0010
0000
1000
0000
,
0001
0000
0001
1000
0000
1000
0001
0000
0010
0000
0100
0000
0001
0000
1000
0000
,
0010
0000
0100
0010
0000
0010
0100
0000
0020
0000
0100
0000
0100
0000
0100
0000
,
0130
0010
0100
0001
1000
0010
0100
0001
,
0000
0000
1000
0100
0010
0001
0010
0100
,
0000
0000
0001
1000
0010
0100
0001
1000
,
1001
0000
1100
0000
0120
0000
0000
0130
,
0000
0000
1000
0100
0001
0010
0100
1000
,
0000
0000
0001
1000
0001
0100
0001
1000
,
0000
0000
0001
0010
0100
1000
0100
0010
,
0001
0010
0100
0001
1000
0000
0010
0100
,
0000
0120
0031
0000
,
0000
0210
1300
0000
,
0001
0001
1000
1000
0001
0100
0010
0000
,
0110
0000
1001
0000
1100
0000
1100
1100
,
0000
0120
1030
0000
,
0000
0210
0301
0000
,
0001
1000
0010
0100
0001
0000
0020
0200
,
0000
0000
0000
0000
,
0330
0000
0000
0000
;

//---------------dance-single - Pandemonium X----------------
#NOTES:
     dance-single:
     Pandemonium X:
     Easy:
     4:
     0.310,0.344,0.296,0.063,0.000:
0000
0000
0000
0000
,
1000
0100
0000
0001
,
1000
0000
0000
0010
,
1000
0000
0000
0100
,
1000
0000
0000
0010
,
0001
0000
0000
0001
,
1000
0000
0000
0001
,
0100
0000
0000
0100
,
0010
0000
0010
0000
,
0110
0010
0010
0000
,
1000
0001
0100
0000
,
1001
1000
1000
0000
,
0001
1000
0100
0000
,
1100
1000
1000
0000
,
0001
0100
0001
0000
,
0011
0000
0000
1000
,
0001
0000
1000
0001
,
1000
0000
0100
0000
,
1000
0000
1000
0100
,
0010
0000
0010
0000
,
0011
1100
2002
3003
,
0000
0001
0000
0001
,
0000
1000
0000
1000
,
0000
0010
0100
0010
,
0010
0010
1000
0001
,
0000
1001
1001
0000
,
0000
0110
0110
0000
,
0010
0000
0010
0000
,
0010
1000
0001
0100
,
0001
0011
1100
0000
,
0000
1100
0011
0000
,
0001
1000
0100
2000
,
0020
0000
0000
3030
,
0001
0000
0001
0000
,
0001
0000
0001
0000
,
1000
0000
1000
0000
,
1000
0000
1000
0000
,
0010
0000
0010
0000
,
0010
0000
0010
0000
,
0100
0000
0100
0000
,
0100
0000
0100
0000
,
1001
0001
0001
0001
,
1000
1000
1000
1000
,
0001
0001
0001
0001
,
1000
1000
1000
1000
,
0110
0010
0010
0010
,
0100
0100
0100
0100
,
0010
0010
0010
0010
,
0100
0100
0110
1001
,
0110
0000
0010
0000
,
0010
0000
0010
0000
,
0010
0000
0010
1000
,
0001
1000
0001
0100
,
0001
0000
0001
0000
,
0001
0000
0001
0000
,
0001
0000
0001
0000
,
0001
1000
0100
1000
,
0000
1010
0110
0000
,
0000
0011
0110
0000
,
0001
1000
0001
0100
,
0010
0010
0100
0010
,
0000
0110
1100
0000
,
0000
0011
1100
0000
,
0001
1000
0010
0200
,
0020
0000
0000
0000
,
0330
0000
0000
0000
;

//---------------dance-double - Pandemonium X----------------
#NOTES:
     dance-double:
     Pandemonium X:
     Challenge:
     9:
     0.647,0.653,0.529,0.159,0.127: // measure 1
00000000
00000000
00000000
00000000
,  // measure 2
01100000
10000000
00010000
00100000
,  // measure 3
00001000
00010000
00000100
00001000
,  // measure 4
00000001
00000100
00000010
00001000
,  // measure 5
00000100
00000000
00001000
00000000
00000100
00010000
00001000
00000000
,  // measure 6
00101000
00000000
01010000
00000000
00010000
10000000
01000000
00000000
,  // measure 7
01000000
00000000
01100000
00000000
00100000
10000000
00010000
00000000
,  // measure 8
11000000
00000000
10010000
00000000
01000000
00010000
00100000
00000000
,  // measure 9
00110000
00101000
00010100
00001100
,  // measure 10
00001000
00000000
00000000
00000000
00001000
00000000
00000000
00000010
00001000
00000000
00000100
00000000
00000001
00000000
00000010
00000000
,  // measure 11
00000001
00000000
00000000
00000000
00000001
00000000
00000000
00000001
00000100
00000000
00000010
00000000
00001000
00000000
00000100
00000000
,  // measure 12
00001000
00000000
00000000
00000000
00000100
00000000
00000000
00001000
00010000
00000000
00001000
00000000
00010000
00000000
00100000
00000000
,  // measure 13
00010000
00000000
00100000
00000000
00010000
01000000
00100000
00000000
,  // measure 14
10000000
00000000
10010000
00000000
10000000
00010000
01000000
00000000
,  // measure 15
01010000
00000000
10100000
00000000
10000000
01000000
00100000
00000000
,  // measure 16
00110000
00000000
00011000
00000000
00001000
00100000
00010000
00000000
,  // measure 17
00202000
00000000
00000000
00303000
,  // measure 18
00100000
00001000
00010000
00001000
00100000
00001000
00010000
00000100
,  // measure 19
00000000
00000000
00001000
00000100
00000001
00000010
00000001
00000100
,  // measure 20
00000000
00000000
00000010
00000100
00000010
00001000
00000100
00001000
,  // measure 21
00001100
00000000
00011000
00000000
00210000
00000000
00001000
00301000
,  // measure 22
00000000
00000000
00010000
10000000
00010000
01000000
00010000
00100000
,  // measure 23
00000000
00000000
00100000
10000000
01000000
10000000
00010000
01000000
,  // measure 24
00000000
00000000
00100000
01000000
00100000
10000000
00010000
00100000
,  // measure 25
00001000
00010000
00000100
00001000
00000020
00000000
00000100
00000100
,  // measure 26
00000030
00000011
00001100
00000000
,  // measure 27
00000000
00110000
11000000
00000000
,  // measure 28
10000000
00010000
01000000
00010000
10000000
00010000
00100000
00000000
,  // measure 29
00101000
00000000
00011000
00000000
00001100
00000000
00001000
00000100
,  // measure 30
00000000
00010100
00011000
00000000
,  // measure 31
00000000
00002000
01003000
00000000
,  // measure 32
00001000
00010000
00001000
00100000
00010000
00100000
20000000
02000000
,  // measure 33
00000000
00000000
00000000
33000000
,  // measure 34
10000000
00010000
01000000
00010000
00100000
00100000
00010000
00010000
,  // measure 35
10000000
00010000
01000000
00010000
00100000
00001000
00010000
00000100
,  // measure 36
00001000
00000100
00000001
00000010
00000001
00000001
00001000
00001000
,  // measure 37
00000001
00000100
00000010
00001000
00000100
00010000
00001000
01000000
,  // measure 38
00010000
00100000
00010000
10000000
01000000
01000000
10000000
10000000
,  // measure 39
00010000
01000000
00010000
00100000
00001000
00010000
00001000
00000100
,  // measure 40
00001000
00000100
00000001
00000010
00000001
00000001
00000010
00000010
,  // measure 41
00000001
00000010
00000100
00001000
00000100
00010000
00001000
00100000
,  // measure 42
00010000
00000000
00010000
00100000
00000000
00010000
00100000
00000000
00110000
00000000
00000000
00000000
10010000
00000000
00000000
00000000
,  // measure 43
10000000
00000000
10000000
01000000
00000000
00010000
00100000
00000000
00110000
00000000
00000000
00000000
00011000
00000000
00000000
00000000
,  // measure 44
00010000
00000000
00001000
00010000
00000000
00001000
00010000
00000000
00011000
00000000
00000000
00000000
00001100
00000000
00000000
00000000
,  // measure 45
00001000
00000000
00000100
00001000
00000000
00000100
00001000
00000000
00001100
00000000
00000000
00000000
00000011
00000000
00000000
00000000
,  // measure 46
00000001
00000000
00000100
00000001
00000000
00000001
00000100
00000000
00000010
00000000
00001000
00000000
00000010
00000000
00000100
00000000
,  // measure 47
00000010
00000000
00001000
00000100
00000000
00000001
00000010
00000000
00000001
00000000
00000100
00000000
00000010
00000000
00001000
00000000
,  // measure 48
00000100
00000000
00010000
00001000
00000000
00001000
00100000
00000000
00001000
00000000
00100000
00000000
00010000
00000000
00100000
00000000
,  // measure 49
01000000
00000000
10000000
01000000
00000000
10000000
00100000
00000000
02000000
00000000
00000000
00000000
03002000
00000000
00000000
00000000
,  // measure 50
00013000
00000000
00000000
00000000
00011000
00000000
00000000
00010000
00000100
00000000
00001000
00000000
00000100
00000000
00000010
00000000
,  // measure 51
00000001
00000000
00000000
00000000
00000011
00000000
00000000
00000001
00000100
00000000
00000010
00000000
00001000
00000000
00000100
00000000
,  // measure 52
00001100
00000000
00000000
00000000
00011000
00000000
00000000
00010000
00100000
00000000
10000000
00000000
00010000
00000000
01000000
00000000
,  // measure 53
00200000
01300000
20000000
30010000
,  // measure 54
10010000
00000000
00000000
00000000
01010000
00000000
00000000
00100000
00001000
00000000
00010000
00000000
00000010
00000000
00001000
00000000
,  // measure 55
00000100
00000000
00000000
00000000
00001010
00000000
00000000
00000010
00000001
00000000
00000010
00000000
00000001
00000000
00000100
00000000
,  // measure 56
00000010
00000000
00000010
00001000
00000100
00010000
00001000
01000000
,  // measure 57
00100000
10000000
00010000
01000000
00010000
00000000
00010000
00100000
,  // measure 58
00000000
00011000
00100020
00000000
,  // measure 59
00000000
00010000
00001030
00000000
,  // measure 60
00000001
00000010
00001000
00000100
00010000
00000100
00010000
00000000
,  // measure 61
00011000
00000000
00110000
00000000
00110000
00000000
00010000
00001000
,  // measure 62
00000000
00011000
01000200
00000000
,  // measure 63
00000000
00100000
00010300
00000000
,  // measure 64
00000100
00010000
00001000
00100000
00001000
00010000
00002000
02000000
,  // measure 65
00000000
00000000
00000000
00000000
,  // measure 66
03003000
00000000
00000000
00000000
;

//---------------dance-single - Pandemonium X----------------
#NOTES:
     dance-single:
     Pandemonium X:
     Beginner:
     1:
     0.142,0.203,0.042,0.000,0.000:
0000
0000
0000
0000
,
0010
0000
0000
0000
,
0010
0000
0000
0000
,
0010
0000
0000
0000
,
0010
0000
0000
0000
,
0100
0000
0000
0000
,
0100
0000
0000
0000
,
0100
0000
0000
0000
,
0100
0000
0010
0000
,
1001
0000
0000
0000
,
0001
0000
0000
0000
,
1000
0000
0000
0000
,
1000
0000
0000
0000
,
0110
0000
0010
0000
,
0010
0000
0000
0000
,
0100
0000
0000
0000
,
0100
0000
0000
0000
,
0001
0000
0000
0000
,
0000
1000
0000
0000
,
0000
0001
0000
0000
,
1000
1000
1000
0000
,
0000
0010
0000
0000
,
0000
0010
0000
0000
,
0000
0100
0000
0100
,
0000
0100
0100
0100
,
0000
0001
0001
0000
,
0000
1000
1000
0000
,
0010
0000
0010
0000
,
0010
0010
0010
0000
,
0000
0100
0100
0000
,
0000
0010
0010
0000
,
0100
0000
0010
0000
,
1001
0000
0000
0000
,
0001
0000
0000
0000
,
1000
0000
0000
0000
,
0001
0000
0000
0000
,
1000
0000
0000
0000
,
0010
0000
0000
0000
,
0100
0000
0000
0000
,
0010
0000
0000
0000
,
0100
0000
0000
0000
,
0001
0000
0000
0000
,
1000
0000
0000
0000
,
0010
0000
0000
0000
,
0100
0000
0000
0000
,
0100
0000
0000
0000
,
0010
0000
0000
0000
,
1000
0000
0000
0000
,
0001
0000
0000
0000
,
0100
0000
0000
0000
,
0000
0010
0000
0000
,
0000
0010
0000
0000
,
1000
1000
1000
0000
,
0000
0001
0000
0000
,
0000
1000
0000
0000
,
0000
0010
0000
0010
,
0000
0010
0010
0010
,
0000
0100
0100
0000
,
0000
0010
0010
0000
,
0010
0000
0100
0000
,
0010
0000
0000
0000
,
0000
1000
1000
0000
,
0000
0001
0001
0000
,
1000
0000
0001
0000
,
1001
0000
0000
0000
;
