#TITLE:Uranus;
#SUBTITLE:(Summer Contest Edit);
#ARTIST:Tatsh SN 2 Style;
#TITLETRANSLIT:;
#SUBTITLETRANSLIT:;
#ARTISTTRANSLIT:;
#CREDIT:;
#BANNER:Uranus.png;
#BACKGROUND:Uranus-bg.png;
#LYRICSPATH:;
#CDTITLE:;
#MUSIC:Uranus.mp3;
#OFFSET:-0.031;
#SAMPLESTART:37.400;
#SAMPLELENGTH:15.000;
#SELECTABLE:YES;
#BPMS:0.000=162.000,116.003=81.000,132.003=162.000;
#STOPS:52.000=0.370
,116.000=1.481
,132.000=1.481
,171.000=0.370
;
#BGCHANGES:;

//---------------dance-single - for True Grand Cross----------------
#NOTES:
     dance-single:
     for True Grand Cross:
     Challenge:
     10:
     0.790,0.735,0.249,0.038,0.637:
0000
0000
0000
0000
,
1000
0100
0001
0100
1000
0100
0001
0100
,
1000
0100
0001
0100
1000
0010
0001
0010
,
1000
0010
0001
0010
1000
0010
0001
0010
,
0100
0010
0100
0010
0100
0010
0110
0000
,
1000
0100
0010
0100
0010
0100
0010
0001
,
1000
0000
0100
0000
0001
0000
0100
0000
0010
0000
0001
0000
0010
0001
0100
0000
,
0001
0100
0010
1000
0001
1000
0010
0100
,
0001
0000
0100
0000
0001
0000
0010
0000
0001
0000
0010
0000
0001
1000
0001
1000
,
0001
0010
0100
0001
0100
0010
0001
0100
,
0010
0000
0100
0000
0001
0000
1000
0000
0010
0000
1000
0000
0001
0000
1000
0010
,
0100
0001
0100
0001
1000
0010
0100
0001
,
0100
0000
0001
0000
0100
0000
0010
0000
1000
0000
0010
0000
1000
0001
1000
0001
,
1000
0001
0000
0000
0010
0000
0000
0000
0001
0000
0000
0000
0000
0000
0000
0000
1000
0000
0000
0000
0010
0000
0000
0000
1000
0000
0000
0000
0000
0000
0000
0000
0001
0000
0000
0000
0100
0000
0000
0000
0001
0000
0000
0000
0000
0000
0000
0000
1000
0000
0000
0000
0100
0000
0000
0000
1000
0000
0000
0000
0000
0000
0000
0000
,
0100
1000
0100
0000
0010
0001
0010
0000
0100
1000
0010
0000
0100
0001
0010
0000
,
0001
0010
0100
0000
1000
0100
0010
0000
0001
0100
0010
0000
1000
0010
0100
0000
,
0010
1000
0000
1000
0100
0000
0010
0000
0001
0100
0000
0100
0010
0000
1000
0000
,
0100
0010
0001
0000
0010
0100
1000
0000
0010
0100
0001
0000
0100
0010
1000
0000
,
0001
1000
0010
0000
1000
0001
0100
0000
0001
1000
0100
0000
1000
0001
0010
0000
,
0100
0001
0100
0000
0010
1000
0010
0000
1000
0001
1000
0000
0001
1000
0001
0000
,
0100
0000
0010
0000
1000
0000
0001
0000
1000
0001
1000
0001
1000
0001
1000
0001
,
1000
0000
0010
0100
0000
0100
0001
0000
0001
1000
0000
1000
0100
0000
0011
0000
,
0100
0000
1000
0001
0000
0001
0100
0000
0100
0010
0000
0010
1000
0000
0101
0000
,
1000
0000
0001
1000
0000
1000
0100
0000
0100
0010
0000
0010
0001
0000
1010
0000
,
0001
0000
0100
0010
0000
0010
1000
0000
1000
0001
0000
0001
0010
0000
1100
0000
,
0010
0000
1000
0100
0000
0100
0010
0000
0010
0001
0000
0001
0100
0000
1001
0000
,
0010
0000
0001
0010
0000
0010
0100
0000
0100
1000
0000
1000
0001
0000
0110
0000
,
1000
0000
0001
0100
0000
0100
0010
0000
0010
1000
0000
1000
0010
0000
1001
0000
,
0100
0000
1000
0010
0000
0010
0100
0000
0100
0001
0000
0001
1000
0000
0110
0000
,
0000
1001
0000
0000
0000
0000
0000
0000
0010
0000
0000
0000
1000
0000
0000
0000
0000
0000
0000
0000
0100
0000
0000
0000
0000
0000
0000
0000
0010
0000
0000
0000
0000
0000
0000
0000
0001
0000
0000
0000
1000
0000
0000
0000
0001
0000
0000
0000
0100
0000
0000
0000
0000
0000
0000
0000
1001
0000
0000
0000
0000
0000
0000
0000
,
0110
0000
1000
0010
0000
1000
0000
0001
0000
1000
0010
1000
0001
0000
0110
0000
,
1001
0000
0100
0001
0000
0100
0000
0010
0000
1000
0001
1000
0010
0000
1001
0000
,
0110
0000
0001
0100
0000
0001
0000
1000
0000
0001
0100
0001
1000
0000
0110
0000
,
1001
0100
0000
0000
0000
0000
0000
0000
0010
0000
0000
0000
0000
0000
0000
0000
0100
0000
0000
0000
0000
0000
0000
0000
0010
0000
0000
0000
0000
0000
0000
0000
0100
0000
0000
0000
0000
0000
0000
0000
0010
0000
0000
0000
0000
0000
0000
0000
0100
0000
0000
0000
0000
0000
0000
0000
0010
0000
0000
0000
0000
0000
0000
0000
,
1000
0001
1000
0001
1000
0001
1000
0001
,
0010
0100
0010
0100
0010
0100
0010
0100
,
1000
0001
1000
0001
1000
0001
1000
0001
,
1000
0100
0010
0001
0100
0001
1000
0010
,
1000
0010
0100
0001
0010
0001
1000
0100
,
1001
0000
0000
1001
0110
0000
0000
0011
,
1100
0101
0011
1100
,
1000
0001
0100
0010
1000
0001
0100
0010
,
1000
0000
0000
0000
0001
0000
0000
0000
1000
0000
0000
0000
0001
0000
0000
0000
1000
0000
0000
0000
0001
0000
0000
0000
1000
0000
0000
0000
0002
0000
0000
0000
2000
0000
0000
0000
0000
0000
0000
0000
0000
0000
0000
0000
0000
0000
0000
0000
0000
3003
0000
0000
0000
0000
0000
0000
0000
0000
0000
0000
0000
0000
0000
0000
,
1000
0001
0100
0000
0010
0000
0100
0000
0001
1000
0010
0000
0100
0000
0010
0000
,
0100
0001
0010
0000
0100
0000
1000
0000
0010
1000
0100
0000
0010
0000
0001
0000
,
1000
0100
0010
0000
0100
0000
1000
0000
0001
0010
0100
0000
0010
0000
0001
0000
,
1000
0100
1000
0000
0001
0000
1000
0100
1000
0100
1000
0100
1000
0000
0010
0000
,
0100
0010
1000
0000
0010
0000
0100
0000
0001
0100
0010
0000
0100
0000
0001
0000
,
0100
0010
1000
0000
0001
0000
0100
0000
0010
0100
0001
0000
1000
0000
0010
0000
,
1000
0100
0010
0000
0001
0000
0010
0000
0001
0010
0100
0000
1000
0000
0100
0000
,
0010
0000
0100
0000
0010
0000
0000
0000
1000
0100
0000
0000
0000
0000
0000
0010
0001
0000
0000
0000
0000
0000
0000
0000
0001
1000
0000
0000
0000
0000
0000
0000
,
0001
0010
1000
0010
0001
0010
1000
0010
,
0001
0000
0010
0000
1000
0000
0010
0000
0001
0000
0010
0100
0010
0000
0100
0000
,
1000
0100
0001
0100
1000
0100
0001
0100
,
1000
0000
0000
0000
0001
0000
0000
0000
1000
0010
0000
0000
0000
0000
0000
0100
0001
0000
0000
0000
0000
0000
0000
0000
0010
0100
0000
0000
0000
0000
0000
0000
,
0100
0000
0001
0000
1000
0100
1000
0000
0001
0100
0001
0000
1000
0000
0010
0000
,
0100
0000
0001
0000
1000
0010
1000
0000
0001
0010
0001
0000
1000
0000
0001
0000
,
0100
0000
0010
0000
0100
0000
0010
0000
1000
0000
0001
0000
1000
0100
1000
0100
,
0010
0001
0010
0001
1000
0100
0010
0001
0100
0001
0100
0002
0200
0000
0000
0000
,
0303
0000
0000
0000
;

//---------------dance-single - ----------------
#NOTES:
     dance-single:
     :
     Beginner:
     1:
     0.145,0.197,0.019,0.000,0.000:
0000
0000
0000
0000
,
1000
0000
1000
0000
,
1000
0000
0000
0000
,
0001
0000
0001
0000
,
0001
0000
0000
0000
,
1000
0000
0100
0000
,
1000
0000
0100
0000
,
0010
0000
0001
0000
,
0010
0000
0001
0000
,
1000
0000
0100
0000
,
0010
0000
0001
0000
,
1000
0000
0100
0000
,
0010
0000
0001
0000
,
0110
0000
1000
0000
,
1000
0000
1000
1000
,
1000
0000
0001
0000
,
0001
0000
0001
0001
,
0001
0000
0100
0000
,
0010
0000
0100
0010
,
0100
0000
0000
0000
,
0001
0010
0100
1000
,
0001
0000
1000
0000
,
0000
0000
1000
0000
,
0000
0000
0100
0000
,
0000
0000
0100
0000
,
0000
0000
0010
0000
,
0000
0000
0010
0000
,
0000
0000
0001
0000
,
0000
0000
0001
0000
,
0000
1000
0001
1000
,
0001
0000
1000
0000
,
0010
0100
0010
0100
,
0010
0000
0100
0000
,
0000
0000
0001
0000
,
0001
0000
0001
0000
,
0000
0000
1000
0000
,
1000
0000
1000
0000
,
0000
0000
0010
0000
,
0100
0000
0010
0000
,
0100
0000
0000
0000
,
0100
0000
0000
0000
,
0100
0000
0100
0000
,
0100
0000
0000
0000
,
0000
0001
0000
1000
,
0000
0001
0001
0001
,
0000
1000
0000
0001
,
0000
1000
1000
1000
,
0000
0010
0000
0100
,
0000
0010
0000
0100
,
0000
0000
0000
0010
,
0000
1000
0000
0001
,
0000
0000
0000
1000
,
0000
0000
0000
0001
,
0000
1000
0000
0010
,
0000
0100
0000
0010
,
0000
0000
0000
1000
,
0000
0001
0000
1000
,
0000
0000
0000
0001
,
0000
0000
0000
1001
;

//---------------dance-single - ----------------
#NOTES:
     dance-single:
     :
     Easy:
     4:
     0.341,0.396,0.287,0.326,0.000:
0000
0000
0000
0000
,
1000
0001
0000
0001
,
0100
0010
0000
0010
,
1000
0001
0000
0100
,
2002
0000
0000
3003
,
0100
0001
1000
0010
,
1000
0001
0100
1001
,
0010
1000
0001
0100
,
0001
1000
0010
1100
,
0001
0100
0010
1000
,
0100
0010
0001
0110
,
0001
1000
0001
1000
,
0011
1001
0110
1001
,
0110
0002
0003
2000
,
3000
0020
0030
0200
,
0300
0020
0030
2000
,
3000
0002
0003
0100
,
0002
0013
2000
3100
,
0002
0103
2000
3010
,
0002
1003
2000
3001
,
0010
0010
0010
0010
,
0000
0100
0000
0000
0001
0000
0000
0010
,
0000
0100
0000
0000
1000
0000
0000
0010
,
0000
1000
0000
0000
0001
0000
0000
0100
,
0000
0001
0000
0000
1000
0000
0000
0010
,
0000
1000
0000
0000
0100
0000
0000
0001
,
0000
1000
0000
0000
0010
0000
0000
0001
,
0000
0010
0000
0000
0100
0000
0000
0001
,
0000
0010
0000
0000
0100
0000
0000
1000
,
0000
0000
0001
0100
0001
0000
0110
0000
,
0001
0000
0200
0300
,
0010
0000
1000
0010
1000
0000
1001
0000
,
0010
0000
2000
3000
,
0001
0000
1000
0001
,
1000
0010
0100
0010
,
0101
0000
1000
0010
,
0100
0010
0100
0001
,
1010
0000
0001
0100
,
1000
0010
0001
1000
,
0110
0000
1001
0000
,
0110
0000
1001
0000
,
0110
0110
1001
1001
,
0220
0000
0330
0000
,
0000
1000
0001
0110
,
0000
0001
1000
0110
,
0000
0001
1000
0010
,
0100
0010
1000
0101
,
0000
0010
0100
1001
,
0000
0100
0010
1001
,
0000
0010
0100
1000
,
0001
2000
3002
0203
,
0000
0320
0000
1030
,
0100
0001
0010
2000
,
3000
0002
0003
0200
,
0300
0020
0230
0302
,
0000
2003
0000
3001
,
0100
1000
0010
0001
,
0110
1000
0110
0002
,
1003
2000
3001
2002
,
3003
0000
0000
0000
;

//---------------dance-single - ----------------
#NOTES:
     dance-single:
     :
     Medium:
     5:
     0.416,0.396,0.259,0.364,0.038:
0000
0000
0000
0000
,
0100
0000
0010
0000
1000
0001
1000
0000
,
0001
1000
0100
1001
,
0010
0000
0100
0000
0001
1000
0001
0000
,
0220
0000
0330
1000
,
0001
1000
1010
1000
,
0010
0000
1000
0000
0010
1000
0010
0000
,
1000
0001
0101
0001
,
0100
0000
0001
0000
0100
0001
0100
0001
,
0100
0001
0011
0001
,
0010
0000
0001
0000
0010
0001
0010
0000
,
0100
1000
1100
1000
,
0200
1300
0002
0013
,
2001
3010
0020
0130
,
0200
0301
0002
0103
,
0200
0310
0020
1030
,
2000
3001
0002
0103
,
0100
1010
0001
1100
,
0010
0101
1000
0011
,
1000
0110
0010
1001
,
0100
0010
0100
0000
0001
1000
0001
0000
,
0000
0000
1100
0000
0000
0000
0000
0000
0001
0000
0000
0001
0000
0000
0001
0000
,
0000
0000
1010
0000
0000
0000
0000
0000
0100
0000
0000
0100
0000
0000
0100
0000
,
0000
0000
0011
0000
0000
0000
0000
0000
1000
0000
0000
1000
0000
0000
1000
0000
,
0000
0000
0101
0000
0000
0000
0000
0000
0010
0000
0000
0010
0000
0000
0010
0000
,
0000
0000
2000
0000
0000
0000
0000
0000
3010
0000
0000
0010
0000
0000
0010
0000
,
0000
0000
0200
0000
0000
0000
0000
0000
0301
0000
0000
0001
0000
0000
0001
0000
,
0000
0000
0002
0000
0000
0000
0000
0000
1003
0000
0000
1000
0000
0000
1000
0000
,
0000
0000
0020
0000
0000
0000
0000
0000
0130
0000
0000
0100
0000
0000
0100
0000
,
0000
0000
0001
1000
0001
1000
0001
0000
,
2000
0000
0020
3030
,
1001
0000
1000
0100
1000
0100
1000
0000
,
0002
0000
0200
0303
,
0110
1000
2000
0000
,
3001
0001
0002
0000
,
1003
0100
0001
0100
,
1000
0001
0200
0000
,
0301
1000
0010
0001
,
0010
0100
0001
0100
,
1010
0000
0101
0000
,
1000
0011
0001
1100
,
0002
0100
2003
0010
,
3020
0000
0000
0030
,
1000
0100
1000
0000
0010
0000
1000
0000
,
0010
0100
0011
0100
,
0001
0010
0001
0000
0100
0000
0001
0000
,
0100
0010
1100
0001
,
2000
0000
0000
0010
3010
0000
0020
0000
,
1030
0001
0110
1000
,
0002
0000
0000
0100
0103
0000
0200
0000
,
0310
0002
2003
3020
,
1030
0001
1000
0000
0001
0000
1000
0000
,
0010
0001
0100
1000
,
0001
0000
1000
0100
1000
0000
0001
0010
,
0001
2000
3002
0203
,
0301
1000
0001
0000
1000
0000
0010
0000
,
0100
0000
0010
0100
0010
0000
1000
0000
,
0100
0000
0010
0001
0010
0000
0001
0100
,
0001
0000
1000
0010
1000
0000
0220
0000
,
0330
0000
0000
0000
;

//---------------dance-single - ----------------
#NOTES:
     dance-single:
     :
     Hard:
     8:
     0.545,0.509,0.259,0.249,0.115: // measure 1
0000
0000
0000
0000
,  // measure 2
1000
0100
1000
0000
0001
0100
0001
0000
,  // measure 3
1000
0010
1000
0000
0001
0010
0001
0000
,  // measure 4
0100
0010
0100
0000
0001
1000
0001
0000
,  // measure 5
2000
0100
0010
3001
,  // measure 6
1000
0100
0010
0100
1000
0100
1000
0100
,  // measure 7
0010
0001
0010
0001
0100
0010
1000
0000
,  // measure 8
0001
0010
0001
0100
0010
1000
0001
1000
,  // measure 9
0010
1000
0010
0100
0010
0100
0020
1000
,  // measure 10
1030
0100
0001
0100
1000
0010
0100
0001
,  // measure 11
1000
0001
0100
1000
0100
0001
1000
0000
,  // measure 12
0001
0010
0001
0100
0010
1000
0100
1000
,  // measure 13
0001
0001
0001
0001
1000
1000
1000
1000
,  // measure 14
1001
0100
1001
0100
,  // measure 15
0011
1000
0101
1000
,  // measure 16
1010
0001
1100
0001
,  // measure 17
0100
0000
0000
1001
0000
0000
0010
0000
0200
0000
0000
0000
0310
0000
0000
0000
,  // measure 18
0002
0010
0013
0000
2000
0100
3100
0000
,  // measure 19
0020
1000
1030
0000
0200
0001
0301
0000
,  // measure 20
0020
0100
0130
0000
2000
0001
3001
0000
,  // measure 21
0010
0010
0010
0010
0100
0100
0100
0100
,  // measure 22
0000
0000
0001
0000
0000
0010
0000
0000
1100
0000
0000
0010
0000
0000
0001
0000
,  // measure 23
0000
0000
1000
0000
0000
0100
0000
0000
0011
0000
0000
0100
0000
0000
1000
0000
,  // measure 24
0000
0000
0010
0000
0000
1000
0000
0000
0101
0000
0000
1000
0000
0000
0010
0000
,  // measure 25
0000
0000
0100
0000
0000
0001
0000
0000
1010
0000
0000
0001
0000
0000
0100
0000
,  // measure 26
0000
0000
0002
0000
0000
0010
0000
0000
0010
0000
0000
0010
0000
0000
0013
0000
,  // measure 27
0000
0000
0020
0000
0000
0100
0000
0000
0100
0000
0000
0100
0000
0000
0130
0000
,  // measure 28
0000
0000
0200
0000
0000
1000
0000
0000
1000
0000
0000
1000
0000
0000
1300
0000
,  // measure 29
0000
0000
2000
0000
0000
0001
0000
0000
0001
0000
0000
0001
0000
0000
3001
0000
,  // measure 30
0000
0000
0020
0100
0000
0100
0000
0130
0010
0000
0000
0000
1100
0000
0000
0000
,  // measure 31
0002
0000
0000
0000
0000
0000
0000
2000
0000
0003
0000
0000
0020
3000
0000
0000
,  // measure 32
0230
0000
0000
0010
0000
0010
0000
0310
0000
0000
0000
0000
0011
0000
0000
0000
,  // measure 33
2000
0000
0020
3000
0200
0030
0002
0300
,  // measure 34
1003
0000
0011
0000
1000
0100
0010
0000
,  // measure 35
0001
0010
0001
1000
0100
1000
0001
1000
,  // measure 36
0001
0000
1100
0000
0001
0010
0100
0000
,  // measure 37
1000
0010
1000
0001
0100
0001
1000
0010
,  // measure 38
0100
0000
1001
0000
0010
0100
0010
0000
,  // measure 39
1000
0100
0001
0100
1000
0010
0001
0010
,  // measure 40
1000
0000
0000
0001
0001
0000
0000
1000
,  // measure 41
1000
0110
1001
0110
,  // measure 42
1000
0010
1000
0010
0100
0001
0100
0002
,  // measure 43
2000
0000
0000
3003
,  // measure 44
0100
0001
1000
0000
0001
1000
0010
0000
,  // measure 45
1000
0100
0010
0100
1000
0001
0100
0000
,  // measure 46
0001
0010
1000
0000
0001
0100
1000
0000
,  // measure 47
0001
0010
0100
1000
0010
0100
0001
0000
,  // measure 48
1000
0001
0100
0000
0001
1000
0010
0000
,  // measure 49
1000
0100
0001
0100
1000
0001
0010
0000
,  // measure 50
0100
1000
0010
0000
0100
0001
0010
0000
,  // measure 51
0001
1000
0011
0000
1100
0000
1001
0000
,  // measure 52
0010
0000
1000
0001
0100
0000
0001
0010
,  // measure 53
0100
0001
0010
0100
0001
0000
0110
0000
,  // measure 54
1000
0000
0001
0100
0010
0000
1000
0100
,  // measure 55
0010
0001
1010
0000
0101
0000
1001
0000
,  // measure 56
0010
0100
0010
1000
0010
0001
0010
1000
,  // measure 57
0001
0100
0001
1000
0001
0010
0001
1000
,  // measure 58
0100
0010
0100
0001
0100
1000
0100
0100
,  // measure 59
1000
1000
0001
0001
0010
0010
0220
0000
,  // measure 60
0330
0000
0000
0000
;
