#TITLE:Scorching Moon;
#SUBTITLE:;
#ARTIST:Shawn the Horny Master;
#TITLETRANSLIT:;
#SUBTITLETRANSLIT:;
#ARTISTTRANSLIT:;
#GENRE:;
#CREDIT:;
#BANNER:Scorching Moon.png;
#BACKGROUND:Scorching Moon-bg.png;
#LYRICSPATH:;
#CDTITLE:./CDTITLES/DANCE DANCE REVOLUTION HOME VERSION.PNG;
#MUSIC:Scorching Moon.mp3;
#OFFSET:-0.297;
#SAMPLESTART:23.320;
#SAMPLELENGTH:15.000;
#SELECTABLE:YES;
#DISPLAYBPM:125.000;
#BPMS:0.000=124.990;
#STOPS:;
#BGCHANGES:;
#KEYSOUNDS:;

//---------------dance-single - Blank----------------
#NOTES:
     dance-single:
     Blank:
     Beginner:
     1:
     0.128,0.149,0.000,0.083,0.000,79.000,0.000,8.000,0.000,0.000,0.000,0.128,0.149,0.000,0.083,0.000,79.000,0.000,8.000,0.000,0.000,0.000:
0000
0000
0000
0000
,
0000
0000
0000
0000
,
0000
0000
0000
0000
,
0000
0000
0000
0000
,
0010
0000
0000
0000
,
0100
0000
0000
0000
,
0001
0000
0000
0000
,
1000
0000
0000
0000
,
0100
0000
1000
0000
,
0001
0000
1000
0000
,
0010
0000
1000
0000
,
0100
0000
0010
0000
,
0001
0000
0100
0000
,
0010
0000
0100
0000
,
0001
0000
0100
0000
,
0000
0000
0000
0000
,
0010
0000
0100
0000
,
0001
0000
0100
0000
,
0010
0000
0100
0000
,
0001
0000
1000
0000
,
0100
0000
0010
0000
,
0100
0000
1000
0000
,
0001
0000
0100
0100
,
0000
0010
0010
0000
,
0200
0000
0300
0000
,
0002
0000
0003
1000
,
2000
0000
3000
0000
,
0200
0000
0300
0010
,
0020
0000
0030
0000
,
0002
0000
0003
0000
,
2000
0000
3000
0000
,
0020
0030
0010
0010
,
0100
0000
0001
0000
,
1000
0000
0100
0000
,
0000
0000
0010
0000
,
0001
0000
0010
0000
,
0010
0000
0100
0000
,
1000
0000
0010
0000
,
0000
0000
0100
0000
,
0001
0000
0100
0000
,
0010
0010
0100
0000
,
1000
0000
0010
0000
,
1000
0000
0001
0000
,
1000
0000
0010
0000
,
0100
0000
0001
0000
,
0010
0000
0001
0000
,
1000
0000
0001
0000
,
0100
0000
0010
0000
,
0100
0000
0000
0000
;

//---------------dance-single - Blank----------------
#NOTES:
     dance-single:
     Blank:
     Easy:
     4:
     0.264,0.300,0.134,0.093,0.000,157.000,13.000,9.000,0.000,0.000,0.000,0.264,0.300,0.134,0.093,0.000,157.000,13.000,9.000,0.000,0.000,0.000:
0000
0000
0000
0000
,
0000
0000
0000
0000
,
0000
0000
0000
0000
,
0000
0000
0000
0000
,
0001
0100
0010
0000
,
1000
0100
0010
0000
,
0001
1000
0001
0000
,
0000
0000
0000
0000
,
0100
0001
0010
0001
,
0100
0010
1000
0100
,
1000
0010
0001
0010
,
0100
0001
0010
1000
,
0001
0100
1000
0100
,
0010
0001
1000
0010
,
0100
0001
0100
0010
,
0000
0000
0000
0000
,
0100
0101
0100
0101
,
1000
1100
1000
1100
,
0010
0110
0010
0110
,
0001
0011
0001
0011
,
1000
1100
0001
0101
,
0010
1010
0001
1100
,
0010
0000
0000
0000
,
0100
0000
0000
0000
,
0002
0000
0010
1000
,
0203
0000
1000
0010
,
0302
0000
1000
0010
,
2003
0000
0001
0010
,
3200
0000
0001
1000
,
0320
0000
0001
1000
,
0230
0000
0001
0010
,
2300
0000
0002
3003
,
1001
0000
0100
0010
,
1000
0001
1000
0100
,
0010
0001
0100
0010
,
1000
0010
1000
0001
,
0010
0000
0100
1000
,
0001
0100
0010
1000
,
0010
0100
0001
0010
,
0001
1000
0010
1000
,
0000
0001
0001
0001
0000
0000
1000
0000
,
0001
1000
0001
0000
0010
0000
0100
0000
,
1000
0100
1000
0000
0010
0000
0100
0000
,
0001
0100
0001
0000
0010
0000
0100
0000
,
1000
0001
0100
0010
,
1000
0010
1000
0000
0001
0000
0010
0000
,
0100
1000
0100
0000
0010
0000
0001
0000
,
1000
0001
1000
0000
0000
0001
1000
0000
,
0001
0000
1000
0001
0000
0000
0000
0000
;

//---------------dance-single - Blank----------------
#NOTES:
     dance-single:
     Blank:
     Medium:
     6:
     0.362,0.400,0.062,0.124,0.005,227.000,6.000,12.000,0.000,0.000,0.000,0.362,0.400,0.062,0.124,0.005,227.000,6.000,12.000,0.000,0.000,0.000: // measure 1
0000
0000
0000
0000
,  // measure 2
0000
0000
0000
0000
,  // measure 3
0000
0000
0000
0000
,  // measure 4
0000
0000
0000
0000
,  // measure 5
0001
0100
1000
0100
,  // measure 6
0010
1000
0010
0001
,  // measure 7
1000
0000
0100
0000
0001
0000
0100
0100
,  // measure 8
0000
0000
0000
0000
,  // measure 9
0100
0000
0001
0000
0010
0100
1000
0000
,  // measure 10
0001
0000
1000
0000
0010
0100
0010
0000
,  // measure 11
1000
0001
0010
0000
0010
0001
0100
0000
,  // measure 12
0010
0000
1000
0000
0001
0100
0010
0000
,  // measure 13
1000
0000
0100
0000
0010
0001
0100
0000
,  // measure 14
0001
0000
1000
0000
0100
0010
0001
0000
,  // measure 15
0100
0010
1000
0000
1000
0010
0100
0000
,  // measure 16
0001
0000
0000
0000
1000
1000
0000
0000
0010
0000
0100
0000
0001
0000
1000
0000
,  // measure 17
0200
0000
0010
0010
2300
0000
0010
0010
,  // measure 18
3002
0000
0100
0100
0023
0000
1000
1000
,  // measure 19
0230
0000
0001
0001
0320
0000
1000
1000
,  // measure 20
0032
0000
0010
0010
2003
0000
3100
0000
,  // measure 21
0020
0000
1000
1000
0032
0000
0100
0100
,  // measure 22
0023
0000
1000
1000
0230
0000
0001
0001
,  // measure 23
1300
0000
0010
0010
0010
0010
0001
0010
,  // measure 24
0000
0100
0100
0010
0100
0000
0000
0000
,  // measure 25
0001
0000
1000
0000
0100
1000
0100
0000
,  // measure 26
1000
0000
0010
0000
0100
0001
0100
0000
,  // measure 27
0001
0000
1000
0000
0100
0010
0100
0000
,  // measure 28
0010
0000
0001
0000
1000
0010
1000
0001
,  // measure 29
0100
0101
1000
1100
,  // measure 30
0001
0110
1000
0110
,  // measure 31
1000
0101
0010
1100
,  // measure 32
0010
0000
0100
0000
0001
0100
1000
0100
,  // measure 33
0001
0000
0010
0001
,  // measure 34
0100
0010
1000
0000
0001
0000
1000
0000
,  // measure 35
0010
1000
0001
0000
0010
0000
0001
0000
,  // measure 36
0010
0100
1000
0000
0001
0000
1000
0000
,  // measure 37
0100
0100
0100
0000
1000
0000
0010
0000
,  // measure 38
1000
0100
0010
0000
0001
0000
0100
0000
,  // measure 39
0010
1000
0001
0000
0010
0000
0001
0000
,  // measure 40
1000
0001
0010
0000
0100
0000
1000
0000
,  // measure 41
0001
0001
0010
0000
0100
0000
1000
0000
,  // measure 42
0010
0100
0010
0000
1000
0000
0001
0000
,  // measure 43
0010
0001
0010
0000
0100
1000
0010
0000
,  // measure 44
0010
1000
0001
0000
0010
0000
0100
0000
,  // measure 45
1000
0001
0010
0000
0001
0000
0100
0000
,  // measure 46
0010
1000
0100
0000
0010
0000
0001
0000
,  // measure 47
0100
0010
1000
0000
0100
0010
0001
0000
,  // measure 48
0001
0010
1000
0000
0000
0010
0001
0001
,  // measure 49
1000
0100
1000
0010
0000
0000
0000
0000
;

//---------------dance-single - Blank----------------
#NOTES:
     dance-single:
     Blank:
     Hard:
     9:
     0.633,0.650,0.506,0.000,1.000,380.000,49.000,0.000,0.000,0.000,0.000,0.633,0.650,0.506,0.000,1.000,380.000,49.000,0.000,0.000,0.000,0.000: // measure 1
0000
0000
0000
0000
,  // measure 2
0000
0000
0000
0000
,  // measure 3
0000
0000
0000
0000
,  // measure 4
0000
0000
0000
0000
,  // measure 5
0001
1000
0001
0000
0010
0100
0000
0010
0000
0001
0000
1000
0010
0000
0100
0000
,  // measure 6
0001
0010
0001
0000
1000
0100
0000
1000
0000
0010
0000
0100
0001
0000
0010
0000
,  // measure 7
0100
1000
0100
0000
0010
0001
0000
0100
0000
0010
0000
1000
0001
0000
0010
0000
,  // measure 8
0000
0000
0000
0100
0000
0000
0000
0000
0000
1000
0000
0000
0001
0000
0000
0000
1000
0000
0000
0000
0000
0010
0000
0000
0000
0000
0000
0100
0000
0000
0000
0000
0000
0001
0000
0000
1000
0000
0000
0000
0000
0000
0010
0000
0000
0000
0000
0000
,  // measure 9
0100
0000
0000
0001
1000
0100
0000
1100
0000
1000
0000
0010
0100
0000
0001
0000
,  // measure 10
1000
0000
0000
0100
0010
0001
0000
0101
0000
0100
0000
0010
1000
0000
0100
0000
,  // measure 11
0010
0000
0000
0001
0100
0010
0000
1010
0000
1000
0000
0100
0010
0000
0001
0000
,  // measure 12
0100
0000
0000
0010
1000
0100
0000
0110
0000
0010
0000
0001
0100
0000
0010
0000
,  // measure 13
1000
0000
0000
0010
0100
0001
0000
0011
0000
0010
0000
0100
1000
0000
0010
0000
,  // measure 14
0100
0000
0000
0001
0010
0100
0000
1100
0000
1000
0000
0010
0100
0000
0001
0000
,  // measure 15
0010
0000
0000
0100
1000
0010
0000
0110
0000
0100
0000
0001
0010
0000
0100
0000
,  // measure 16
0000
1000
0000
0001
1000
0001
0000
0100
0000
0110
0000
1000
0001
0000
1001
0000
,  // measure 17
0010
1000
0000
0010
0000
0100
0000
0001
0010
0100
0000
1000
0000
0010
0000
0100
,  // measure 18
0001
0010
0000
0100
0000
0010
0000
0001
1000
0010
0000
0100
0000
1000
0100
0000
,  // measure 19
0001
0010
0000
0100
0000
1000
0000
0010
0100
0001
0000
0010
0000
0001
0000
1000
,  // measure 20
0010
0100
0000
0001
0000
0100
0000
0010
1000
0100
0000
0010
0000
0001
0100
0000
,  // measure 21
0010
1000
0000
0100
0000
1000
0000
0010
0100
0001
0000
0010
0000
0001
0000
1000
,  // measure 22
0010
0100
0000
0010
0000
1000
0000
0001
0010
1000
0000
0010
0000
0100
0000
1000
,  // measure 23
0001
0000
0000
0100
0000
0000
0000
0000
0000
0001
0000
0000
0000
0000
0000
0001
0000
0000
0000
0000
0000
0001
0000
0000
0000
0000
0000
0001
0000
0000
0000
0000
0000
0001
0010
0100
1000
0000
0000
0010
0000
0000
0100
0000
0000
0000
0000
0000
,  // measure 24
0000
0000
0000
0010
0000
0000
0000
0000
0000
0010
0000
0000
0100
0000
0000
0000
0010
0000
0000
0000
0100
0000
0000
0000
0010
0000
0000
0000
0000
0000
0000
0000
0000
0000
0000
0000
0000
0000
0000
0000
0000
0000
0000
0000
0000
0000
0000
0000
,  // measure 25
1000
0000
0000
0000
0001
0000
0000
0010
0100
1000
0000
0000
0001
0000
0000
0000
,  // measure 26
0100
0000
0000
0000
0010
0000
1000
0000
0100
0000
0000
0000
0000
0011
0000
0000
,  // measure 27
1100
0000
0000
0000
0010
0000
0000
0100
0001
0010
0000
0000
0100
0000
0000
0000
,  // measure 28
1000
0000
0000
0000
0000
0000
0000
0000
0010
0000
0000
0000
1000
0000
0000
0000
0100
0000
0000
0000
0000
0000
0000
0000
0000
0000
1010
0000
0000
1001
0000
0000
,  // measure 29
0101
0000
0010
0000
0100
0000
0000
0100
1000
0010
0000
0010
0100
0000
0001
0000
,  // measure 30
0011
0010
0100
1000
0001
0100
0010
0100
,  // measure 31
0001
0000
0010
0000
0100
0000
0000
0100
1000
0010
0000
0010
0100
0000
0001
0000
,  // measure 32
1000
0000
0000
0000
0000
0000
0100
0000
0000
0000
0000
0000
0010
0000
0000
0000
0000
0000
0001
0000
0000
1000
0000
0000
0010
0000
0000
0000
0100
0000
0000
0000
0001
0000
0000
0000
0011
0000
0000
0000
0110
0000
0000
0000
1100
0000
0000
0000
,  // measure 33
1001
0000
0000
0000
0000
0000
0000
0000
0100
0000
0000
0100
0001
0010
0000
0000
,  // measure 34
1100
0000
0000
0000
0001
0000
0100
0000
1000
0000
0000
0100
0010
1000
0000
0000
,  // measure 35
1100
0000
0000
0000
0010
0000
0001
0000
0100
0000
0000
0010
1000
0001
0000
0000
,  // measure 36
0011
0000
0000
0000
0100
0000
1000
0000
0010
0000
0000
1000
0100
0010
0000
0000
,  // measure 37
0000
0100
0000
1000
0010
0000
0000
0000
0100
0000
0000
0001
0010
0100
0000
0000
,  // measure 38
1100
0000
0000
0000
0010
0000
0100
0000
0001
0000
0000
0010
0100
1000
0000
0000
,  // measure 39
1100
0000
0000
0000
0010
0000
0100
0000
0001
0000
0000
1000
0100
0001
0000
0000
,  // measure 40
1100
0000
0000
0000
0010
0000
0100
0000
0001
0100
0000
0001
0010
0000
0000
0000
,  // measure 41
0000
1001
0000
0110
1010
0000
0101
0000
1001
0000
0000
0100
1000
0010
0000
0110
,  // measure 42
0000
0101
0000
0001
0010
0000
0100
0000
1000
0000
0000
0010
0100
0001
0000
0011
,  // measure 43
0000
0110
0000
0100
1000
0000
0010
0000
0100
0000
0000
0001
0010
0100
0000
1100
,  // measure 44
0000
1010
0000
0010
0100
0000
0001
0000
0010
0000
0000
0100
1000
0010
0000
0110
,  // measure 45
0000
0101
0000
0001
0010
0000
0100
0000
1000
0000
0000
0100
0010
0001
0000
0101
,  // measure 46
0000
0110
0000
0010
1000
0000
0100
0000
0010
0000
0000
0001
0100
0010
0000
1010
,  // measure 47
0000
1100
0000
0100
0010
0000
0001
0000
0100
0000
0000
0010
1000
0100
0000
0110
,  // measure 48
0000
0011
0000
0001
0100
0000
0010
0000
1000
0100
0000
0010
0001
1000
0000
1100
,  // measure 49
0000
0011
0000
1100
1001
0000
0110
0000
0000
0000
0000
0000
0000
0000
0000
0000
;
