#TITLE:S·A·G·A;
#SUBTITLE:(Summer Contest Edit);
#ARTIST:Veeton;
#TITLETRANSLIT:;
#SUBTITLETRANSLIT:;
#ARTISTTRANSLIT:;
#CREDIT:;
#BANNER:SAGA.png;
#BACKGROUND:SAGA-bg.png;
#LYRICSPATH:;
#CDTITLE:;
#MUSIC:SAGA.mp3;
#OFFSET:-0.015;
#SAMPLESTART:0.020;
#SAMPLELENGTH:15.000;
#SELECTABLE:YES;
#BPMS:0.000=200.000,96.000=205.500,100.000=211.000,104.000=216.500,108.000=222.000,112.000=227.500,116.000=233.000,120.000=238.500,124.000=244.000,128.000=200.000;
#STOPS:;
#BGCHANGES:;

//---------------dance-single - ----------------
#NOTES:
     dance-single:
     :
     Beginner:
     1:
     0.125,0.205,0.032,0.000,0.000: // measure 1
0000
0000
0000
0000
,  // measure 2
0000
0000
0000
0000
,  // measure 3
0000
0000
0000
0000
,  // measure 4
0000
0000
0000
0000
,  // measure 5
1000
0000
0000
0000
,  // measure 6
0000
0000
0000
0000
,  // measure 7
0001
0000
0001
0000
,  // measure 8
0000
0000
0000
0000
,  // measure 9
0100
0000
0000
0000
,  // measure 10
0000
0000
0000
0000
,  // measure 11
0100
0000
0000
0000
,  // measure 12
0000
0000
0000
0000
,  // measure 13
0100
0000
0000
0000
,  // measure 14
0000
0000
0000
0000
,  // measure 15
0010
0000
0000
0000
,  // measure 16
0010
0000
0010
0000
,  // measure 17
1000
0000
0000
0000
,  // measure 18
1000
0000
0000
0000
,  // measure 19
1000
0000
0000
0000
,  // measure 20
1000
0000
1000
0000
,  // measure 21
0001
0000
0000
0000
,  // measure 22
0001
0000
0000
0000
,  // measure 23
0001
0000
0000
0000
,  // measure 24
0001
0000
0000
0000
,  // measure 25
0100
0000
0000
0000
,  // measure 26
0010
0000
0000
0000
,  // measure 27
0100
0000
0000
0000
,  // measure 28
0010
0000
0000
0000
,  // measure 29
0100
0000
0000
0000
,  // measure 30
0010
0000
0000
0000
,  // measure 31
0100
0000
0000
0000
,  // measure 32
0010
0000
0000
0000
,  // measure 33
1001
0000
0000
0000
,  // measure 34
0000
0000
0000
0000
,  // measure 35
0110
0000
0000
0000
,  // measure 36
0000
0000
0000
0000
,  // measure 37
1000
0000
0000
0000
,  // measure 38
0001
0000
0000
0000
,  // measure 39
1000
0000
0000
0000
,  // measure 40
0001
0000
1000
0000
,  // measure 41
0001
0001
0000
0000
,  // measure 42
0100
0000
0000
0000
,  // measure 43
0010
0010
0000
0000
,  // measure 44
1000
0000
0000
0000
,  // measure 45
1000
1000
0000
0000
,  // measure 46
0010
0000
0000
0000
,  // measure 47
0100
0100
0000
0000
,  // measure 48
0001
0000
0000
0000
,  // measure 49
1000
0000
0000
0000
,  // measure 50
0100
0000
0000
0000
,  // measure 51
0010
0000
0000
0000
,  // measure 52
0001
0000
0000
0000
,  // measure 53
1000
0000
0100
0000
,  // measure 54
0010
0000
0001
0000
,  // measure 55
1000
0000
0001
0000
,  // measure 56
1000
0000
0000
0000
,  // measure 57
1000
0000
0000
0000
,  // measure 58
0100
0000
0000
0000
,  // measure 59
1000
0000
0000
0000
,  // measure 60
0010
0000
0000
0000
,  // measure 61
1000
0000
0000
0000
,  // measure 62
0001
0000
0000
0000
,  // measure 63
1000
0000
0000
0000
,  // measure 64
0000
0000
1000
0000
,  // measure 65
0001
0000
0000
0000
,  // measure 66
0010
0000
0000
0000
,  // measure 67
0001
0000
0000
0000
,  // measure 68
0100
0000
0000
0000
,  // measure 69
0001
0000
0000
0000
,  // measure 70
1000
0000
0000
0000
,  // measure 71
0001
0000
0000
0000
,  // measure 72
0000
0000
0000
0100
,  // measure 73
0100
0000
0000
0000
,  // measure 74
0000
0000
0010
0010
,  // measure 75
0010
0000
0000
0000
,  // measure 76
0000
0000
0000
0000
,  // measure 77
1000
0000
0000
0000
,  // measure 78
0001
0000
1000
0000
,  // measure 79
1001
0000
0000
0000
;

//---------------dance-single - ----------------
#NOTES:
     dance-single:
     :
     Easy:
     4:
     0.335,0.410,0.116,0.253,0.005: // measure 1
0000
0000
0000
0000
,  // measure 2
0000
0000
0000
0000
,  // measure 3
0000
0000
0000
0000
,  // measure 4
0000
0000
0000
0000
,  // measure 5
1000
0000
0000
0100
,  // measure 6
0000
1000
0000
0000
,  // measure 7
0001
0000
0000
0010
,  // measure 8
0000
0001
0000
0000
,  // measure 9
1000
1000
0100
0000
,  // measure 10
0100
1000
0000
0001
,  // measure 11
0001
0001
0010
0000
,  // measure 12
0010
0001
0000
0100
,  // measure 13
0010
0010
0100
0000
,  // measure 14
0100
0010
0000
0100
,  // measure 15
0002
0000
0000
0000
,  // measure 16
0003
0000
1000
1000
,  // measure 17
1000
0100
0010
0000
,  // measure 18
0001
0010
0100
0000
,  // measure 19
1000
0010
0100
0000
,  // measure 20
0001
0100
0010
1000
,  // measure 21
0002
0000
1003
0000
,  // measure 22
1000
0001
0100
0000
,  // measure 23
0001
1000
0010
0000
,  // measure 24
0200
0000
0000
0300
,  // measure 25
0001
0001
0000
0100
,  // measure 26
0100
0100
0000
0010
,  // measure 27
0010
0010
0000
1000
,  // measure 28
1000
1000
0000
0100
,  // measure 29
1000
1000
0000
0010
,  // measure 30
0010
0010
0000
0100
,  // measure 31
0100
0100
0000
0001
,  // measure 32
2000
0000
0000
3000
,  // measure 33
0101
0000
0011
0000
,  // measure 34
2002
0000
3003
0000
,  // measure 35
1010
0000
1100
0000
,  // measure 36
0220
0000
0330
0000
,  // measure 37
1000
0100
0001
0100
,  // measure 38
1000
0000
1000
0000
,  // measure 39
0001
0010
1000
0010
,  // measure 40
0001
0000
0000
0000
,  // measure 41
1000
0100
1000
0100
,  // measure 42
0000
0010
0001
0010
,  // measure 43
0001
0100
0001
0100
,  // measure 44
0000
0010
1000
0010
,  // measure 45
1000
0100
0001
1000
,  // measure 46
0000
0100
0001
1000
,  // measure 47
0001
0010
1000
0001
,  // measure 48
0000
0010
1000
0001
,  // measure 49
2000
0000
0000
3000
,  // measure 50
0200
0000
0000
0300
,  // measure 51
0020
0000
0000
0030
,  // measure 52
0002
0000
0000
0003
,  // measure 53
1000
0000
0100
0000
,  // measure 54
0010
0000
0001
0000
,  // measure 55
1000
0100
0010
0001
,  // measure 56
0220
0000
0000
0330
,  // measure 57
1000
0010
0010
0000
,  // measure 58
1000
0001
0000
1000
,  // measure 59
0001
1000
0010
0100
,  // measure 60
0001
0000
1100
0000
,  // measure 61
0001
0100
0100
0000
,  // measure 62
0010
0100
0000
0010
,  // measure 63
1000
0001
0100
0010
,  // measure 64
2002
0000
0000
3003
,  // measure 65
0100
0010
0000
1000
,  // measure 66
0100
1000
0001
0001
,  // measure 67
1000
0001
0000
0100
,  // measure 68
0010
0000
0011
0000
,  // measure 69
1000
0001
0000
0010
,  // measure 70
0001
0010
0001
0001
,  // measure 71
2000
0000
3002
0000
,  // measure 72
0000
0103
0100
0000
,  // measure 73
0002
0000
2003
0000
,  // measure 74
0000
0000
3010
0010
,  // measure 75
0020
0000
0230
0000
,  // measure 76
0000
0301
0001
0000
,  // measure 77
0200
0000
0320
0000
,  // measure 78
1030
0000
0000
0000
0000
0000
0000
0000
0001
0000
0000
0000
0000
0000
0000
1001
;

//---------------dance-single - ----------------
#NOTES:
     dance-single:
     :
     Medium:
     6:
     0.483,0.492,0.474,0.200,0.005: // measure 1
0000
0000
0000
0000
,  // measure 2
0000
0000
0000
0000
,  // measure 3
0000
0000
0000
0000
,  // measure 4
0000
0000
0000
0000
,  // measure 5
1000
0002
0000
0103
,  // measure 6
0010
0000
1001
0000
,  // measure 7
0010
0200
0000
0301
,  // measure 8
1000
0000
0110
0000
,  // measure 9
1000
0100
0010
1100
,  // measure 10
0000
0001
0010
0010
,  // measure 11
0001
0010
0100
0011
,  // measure 12
0000
1000
0100
0100
,  // measure 13
1000
0100
0010
0001
,  // measure 14
0000
0100
0010
1001
,  // measure 15
0220
0000
0000
0330
,  // measure 16
0110
0000
1000
1000
,  // measure 17
1000
0000
0001
0000
0001
0000
1000
0001
,  // measure 18
1000
0000
0010
0000
0010
0000
0100
0001
,  // measure 19
0100
0000
0001
0000
0001
0000
0100
0010
,  // measure 20
0200
0300
0010
0010
,  // measure 21
2000
0000
0000
0000
,  // measure 22
3001
0000
1000
0000
1000
0000
0010
0100
,  // measure 23
0010
0000
0100
0000
0100
0000
0001
1000
,  // measure 24
0002
0000
0000
0020
0000
0000
0033
0000
,  // measure 25
1000
0100
1010
0000
,  // measure 26
0001
0010
0101
0000
,  // measure 27
1000
0001
0110
0000
,  // measure 28
0001
1000
0110
0000
,  // measure 29
0001
0100
0011
0000
,  // measure 30
1000
0010
1100
0000
,  // measure 31
0010
0100
1001
0000
,  // measure 32
2002
0000
0000
3003
,  // measure 33
0110
0000
0012
0000
,  // measure 34
1003
0000
0000
0000
0010
0100
0010
0000
,  // measure 35
1001
0000
2100
0000
,  // measure 36
3010
0000
0000
0000
0001
1000
0001
0000
,  // measure 37
1000
0001
0100
1010
,  // measure 38
0001
1000
0010
0101
,  // measure 39
0010
0100
0010
1001
,  // measure 40
0110
0000
0000
0000
,  // measure 41
1000
0100
1000
0000
0001
0010
0001
0000
,  // measure 42
1000
1000
0100
0010
,  // measure 43
0001
0100
0001
0000
1000
0010
1000
0000
,  // measure 44
0001
0001
0100
0010
,  // measure 45
0100
0000
0001
0000
0100
0001
0100
0000
,  // measure 46
0010
1000
0010
0000
1000
0000
0010
0000
,  // measure 47
0010
0000
1000
0000
0100
1000
0100
0000
,  // measure 48
0010
0001
0010
0000
0001
0000
0100
0000
,  // measure 49
0011
0011
0000
1001
,  // measure 50
1001
0000
0100
0010
,  // measure 51
1100
1100
0000
0110
,  // measure 52
0110
0000
1001
0000
,  // measure 53
0100
0001
0100
1000
,  // measure 54
0010
0001
0010
1000
,  // measure 55
0001
0100
0010
0000
1000
0010
0100
0000
,  // measure 56
2002
0000
0000
3003
,  // measure 57
0100
0010
0000
1000
,  // measure 58
0010
0100
0010
0000
0000
0000
1000
0000
,  // measure 59
0001
0010
0001
0000
0000
0000
1000
0000
,  // measure 60
0010
1000
0010
1000
0010
0000
0000
0000
,  // measure 61
0010
0100
0000
0001
,  // measure 62
0100
0010
0100
0000
0000
0000
0001
0000
,  // measure 63
1000
0100
1000
0000
0000
0000
0001
0000
,  // measure 64
2000
0000
0200
3300
,  // measure 65
0001
0100
1010
1000
,  // measure 66
0001
0000
1000
0000
0010
1000
0010
1000
,  // measure 67
0010
1000
0101
0001
,  // measure 68
1000
0000
0010
0000
0100
0001
0100
0001
,  // measure 69
0100
0010
0110
0100
,  // measure 70
0010
0000
1000
0001
1000
0000
0100
0000
,  // measure 71
1001
0000
0000
0000
1010
0000
0000
2000
,  // measure 72
0000
0000
3100
0000
,  // measure 73
1001
0000
0000
0000
0101
0000
0000
0002
,  // measure 74
0000
0000
0010
0013
,  // measure 75
0110
0000
0000
0000
1100
0000
0000
0020
,  // measure 76
0000
0000
1030
0000
,  // measure 77
0110
0000
0011
0000
,  // measure 78
1000
0000
0000
0000
0010
0000
0000
0000
0100
0000
0000
0000
0001
0000
0000
0110
;

//---------------dance-single - ----------------
#NOTES:
     dance-single:
     :
     Hard:
     8:
     0.666,0.615,0.516,0.389,0.005: // measure 1
0000
0000
0000
0000
,  // measure 2
0000
0000
0000
0000
,  // measure 3
0000
0000
0000
0000
,  // measure 4
0000
0000
0000
0000
,  // measure 5
1000
0100
0010
0001
,  // measure 6
0000
0100
0001
1000
0010
0000
1001
0000
,  // measure 7
0001
0100
0010
1000
,  // measure 8
0000
0010
1000
0001
0100
0000
0110
0000
,  // measure 9
2000
0000
3010
0000
1010
0000
0001
1000
,  // measure 10
0000
0002
0000
0103
0000
0101
0000
0000
,  // measure 11
2000
0000
3100
0000
1100
0000
0001
1000
,  // measure 12
0000
0002
0000
0013
0000
0011
0000
0000
,  // measure 13
0200
0000
0310
0000
0110
0000
0001
1000
,  // measure 14
0000
0020
0000
0130
0000
0110
0000
0000
,  // measure 15
1000
0000
0110
0000
0001
1000
0001
0000
,  // measure 16
2002
3003
1001
1001
,  // measure 17
1000
0000
0010
0000
1100
0000
0001
0010
,  // measure 18
0001
0000
0100
0000
0011
0000
1000
0001
,  // measure 19
1000
0000
0110
0000
0001
0000
0100
0010
,  // measure 20
0100
0001
1000
0000
0001
1000
0010
0000
,  // measure 21
1000
0100
0001
0100
2000
0000
3001
0000
,  // measure 22
0002
0000
0010
0000
0013
0000
1000
0100
,  // measure 23
2000
0000
0100
0000
3100
0000
0010
0100
,  // measure 24
0020
0000
1000
1000
0000
2030
0000
0000
,  // measure 25
3001
0000
1010
0000
0000
0000
0001
1000
,  // measure 26
0001
0000
1100
0000
0000
0000
1000
0001
,  // measure 27
1000
0000
0011
0000
0000
0000
1000
0001
,  // measure 28
1000
0000
0101
0000
0000
0000
0001
1000
,  // measure 29
0002
0000
0203
0000
0000
0000
0310
0100
,  // measure 30
0020
0000
2030
0000
0000
0000
3001
0100
,  // measure 31
0002
0000
2003
0000
0000
0000
3010
0200
,  // measure 32
0020
0000
0000
0330
,  // measure 33
1000
0000
0001
0010
0001
0000
0000
0000
,  // measure 34
0210
0000
0310
0000
,  // measure 35
0001
0000
1000
0100
1000
0000
0000
0000
,  // measure 36
1002
0000
1003
0000
,  // measure 37
1000
0100
0010
0100
1000
0000
1010
0000
,  // measure 38
0001
0010
0100
0010
0001
0000
0101
0000
,  // measure 39
1000
0100
0010
0001
1000
0000
0110
0000
,  // measure 40
2002
0000
0000
3003
,  // measure 41
0100
0010
0001
0000
1000
0100
0010
0000
,  // measure 42
1000
0100
0001
0100
1000
0001
1000
0000
,  // measure 43
0001
0010
0100
0000
0010
0100
1000
0000
,  // measure 44
0001
0010
1000
0010
0001
1000
0001
0000
,  // measure 45
0100
0001
0010
0000
0100
1000
0010
0000
,  // measure 46
1000
0100
1000
0010
1000
0001
1000
0000
,  // measure 47
0001
0100
1000
0000
0001
0010
1000
0000
,  // measure 48
0001
0010
0001
0100
0001
1000
0001
0000
,  // measure 49
1100
0000
0000
0000
0011
0000
0000
1001
,  // measure 50
0000
0100
0002
0000
1000
0000
1003
0000
,  // measure 51
0101
0000
0000
0000
1010
0000
0000
0110
,  // measure 52
0000
0001
0200
0000
0010
0000
0310
0000
,  // measure 53
1000
0100
0001
0000
0001
0100
1000
0000
,  // measure 54
0001
0010
1000
0000
1000
0010
0001
0000
,  // measure 55
1000
0100
1000
0100
0010
0001
0010
0002
,  // measure 56
2000
0000
0000
3003
,  // measure 57
0001
0010
0001
1000
0001
0000
0110
0000
,  // measure 58
1000
0100
1000
0001
1000
0000
0110
0000
,  // measure 59
0001
1000
0010
0100
0010
0000
1001
0000
,  // measure 60
0100
0010
1000
0000
0001
0100
0010
0000
,  // measure 61
0100
0001
0100
0010
0100
0000
1001
0000
,  // measure 62
0010
1000
0010
0100
0010
0000
1001
0000
,  // measure 63
0100
0001
1000
0010
1000
0000
0001
1000
,  // measure 64
0002
0000
0200
0303
,  // measure 65
1000
0100
0010
0000
1000
0100
0010
0000
,  // measure 66
2000
3100
0110
1100
,  // measure 67
0001
0010
0100
0000
0001
0010
0100
0000
,  // measure 68
0002
0013
0110
0011
,  // measure 69
1000
0001
0100
0000
0001
1000
0010
0000
,  // measure 70
0200
0310
1001
0110
,  // measure 71
1000
0010
1000
0000
0001
0010
1000
0010
,  // measure 72
0000
0001
1000
0000
1100
0000
1010
0000
,  // measure 73
0001
0100
0001
0000
1000
0100
0001
0100
,  // measure 74
0000
1000
0001
0000
0011
0000
0101
0000
,  // measure 75
1000
0001
0100
0000
0010
1000
0010
0001
,  // measure 76
0000
0010
0200
0000
0320
0000
1030
0000
,  // measure 77
0001
1000
0010
0000
0100
0010
0100
0000
,  // measure 78
0002
0000
0000
0000
1003
0000
0000
0000
0110
0000
0000
0000
1001
0000
0000
0110
;

//---------------dance-single - ----------------
#NOTES:
     dance-single:
     :
     Challenge:
     10:
     0.893,0.984,0.516,0.410,0.500: // measure 1
0000
0000
0000
0000
,  // measure 2
0000
0000
0000
0000
,  // measure 3
0000
0000
0000
0000
,  // measure 4
0000
0000
0000
0000
,  // measure 5
1000
0100
1000
0100
0001
0100
1000
0010
,  // measure 6
0000
0100
0001
0010
1000
0010
0001
1000
,  // measure 7
0001
0100
0001
0100
1000
0100
0001
0010
,  // measure 8
0000
0100
1000
0010
0001
0010
1000
0001
,  // measure 9
0100
0010
0000
1100
0000
0011
0000
1001
,  // measure 10
0000
0101
0000
1010
0000
0110
0000
1001
,  // measure 11
0000
0012
0000
1003
0000
2100
0000
3001
,  // measure 12
0000
0120
0000
1030
0000
0210
0000
0301
,  // measure 13
0000
1100
0000
0101
0000
2010
0000
3001
,  // measure 14
0000
0011
0000
1010
0000
0012
0000
1003
,  // measure 15
0001
0000
1000
0100
1000
0000
0001
0000
1000
0000
0001
0010
0001
0000
1000
0000
,  // measure 16
0002
0003
0110
1001
,  // measure 17
0100
0000
0000
0000
0000
0000
0001
0000
0000
0010
0000
0000
0001
0000
0000
0000
0000
0000
1000
0000
0010
0000
1000
0000
,  // measure 18
0010
0000
0000
0000
0000
0000
1000
0000
0000
0100
0000
0000
1000
0000
0000
0000
0000
0000
0001
0000
1000
0000
0001
0000
,  // measure 19
1000
0000
0000
0000
0000
0000
0001
0000
0000
1000
0000
0000
0001
0000
0000
0000
0000
0000
0100
0000
0010
0000
0100
0000
,  // measure 20
0010
0000
1000
0100
1000
0000
0010
0000
0100
0000
0001
0010
0001
0000
0100
0000
,  // measure 21
0001
0000
0000
0010
0000
0000
0100
0000
0000
1000
0000
0000
0001
0000
0000
0000
0000
0000
1000
0000
0100
0000
1000
0000
,  // measure 22
0200
0000
0000
1300
0000
0000
1100
0000
0000
0001
0010
0001
,  // measure 23
0020
0000
0000
0031
0000
0000
0011
0000
0000
1000
0001
1000
,  // measure 24
0002
0000
1000
1003
0000
2002
0000
3003
,  // measure 25
2000
0000
0000
3100
0000
0000
1100
0000
0000
0001
1000
0001
,  // measure 26
0200
0000
0000
0310
0000
0000
0110
0000
0000
1000
0001
0100
,  // measure 27
0002
0000
0000
0013
0000
0000
0011
0000
0000
1000
0010
1000
,  // measure 28
0002
0000
0000
1003
0000
0000
1001
0000
0000
0100
0010
1000
,  // measure 29
0020
0000
0000
1030
0000
0000
1010
0000
0000
0001
1000
0010
,  // measure 30
2000
0000
0000
3001
0000
0000
1001
0000
0000
0010
0100
0001
,  // measure 31
0200
0000
0000
0301
0000
0000
0101
0000
0000
0010
0100
0010
,  // measure 32
0200
0000
0010
0310
,  // measure 33
1001
0000
0100
0010
0100
0000
0001
1000
,  // measure 34
0002
0000
0000
0000
0000
0000
0000
1003
0100
0000
0001
0000
0100
0000
1000
0000
,  // measure 35
0001
0000
1000
0100
0010
0000
0001
0010
,  // measure 36
0200
0000
0000
0000
0000
0000
0000
0310
0001
0000
1000
0000
0100
0000
0010
0000
,  // measure 37
0001
0000
0000
1010
0000
0000
0101
0000
0000
1000
0001
1000
,  // measure 38
0100
0000
0000
0011
0000
0000
1100
0000
0000
0001
1000
0010
,  // measure 39
0100
0000
0000
1001
0000
0000
0110
0000
0000
0001
0010
0100
,  // measure 40
2000
0000
0000
0002
0000
0000
3003
0000
,  // measure 41
0001
0010
1000
0010
0001
0010
1000
0010
,  // measure 42
0001
0010
0001
0010
0100
1000
0100
1000
,  // measure 43
0100
1000
0001
1000
0001
0010
0001
1000
,  // measure 44
0100
0001
0100
1000
0100
0001
0100
1000
,  // measure 45
0001
0100
0010
1000
0100
0010
0001
1000
,  // measure 46
0010
1000
0001
0100
0001
1000
0010
1000
,  // measure 47
0100
1000
0010
0100
0001
0010
0001
1000
,  // measure 48
0001
0000
0000
0010
0000
0000
1000
0000
0000
0010
0000
0000
1000
0000
0000
0010
0000
0000
0001
0000
0100
0000
0010
0000
,  // measure 49
1000
0000
0010
0100
0010
0000
1000
0000
0001
0000
0010
0000
0100
0000
1000
0000
,  // measure 50
0000
0000
0001
0000
1000
0000
0010
0000
0100
0000
0010
1000
0010
0000
0100
0000
,  // measure 51
0001
0000
0100
0010
0100
0000
0001
0000
1000
0000
0100
0000
0010
0000
0001
0000
,  // measure 52
0000
0000
1000
0000
0001
0000
0100
0000
0010
0000
0100
0001
0100
0000
0010
0000
,  // measure 53
1000
0100
1000
0100
1000
0010
1000
0010
,  // measure 54
0100
0001
0100
0001
0010
0001
0010
0001
,  // measure 55
1000
0010
1000
0010
0100
0001
0100
0001
1000
0001
1000
0001
,  // measure 56
1000
0001
1000
0001
1000
0001
1000
0002
2000
0000
0000
0000
3003
0000
0000
0000
,  // measure 57
0010
0000
0000
1000
0000
0000
0002
0000
0000
0000
0000
0000
1003
0000
0000
0000
0000
0000
0010
0000
1000
0000
0001
0000
,  // measure 58
0100
0000
0000
0001
0000
0000
2000
0000
0000
0000
0000
0000
3001
0000
0000
0000
0000
0000
0010
0000
0001
0000
1000
0000
,  // measure 59
0001
0000
0000
0100
0000
0000
0020
0000
0000
0000
0000
0000
0130
0000
0000
0000
0000
0000
0010
0000
1000
0000
0001
0000
,  // measure 60
1000
0000
0000
0001
0000
0000
0200
0000
0000
0000
0000
0000
0310
0000
0000
0000
0000
0000
0001
0000
1000
0000
0001
0000
,  // measure 61
1000
0000
0000
0001
0000
0000
0100
0000
0000
0000
0000
0000
0011
0000
0000
0000
0000
0000
0100
0000
0001
0000
1000
0000
,  // measure 62
0001
0000
0000
1000
0000
0000
0010
0000
0000
0000
0000
0000
1100
0000
0000
0000
0000
0000
0010
0000
0100
0000
0001
0000
,  // measure 63
0100
0000
0000
0010
0000
0000
0100
0000
0000
0000
0000
0000
1001
0000
0000
0000
0000
0000
0100
0000
0010
0000
0100
0000
,  // measure 64
0001
1000
0001
1000
0001
0010
0001
1000
0010
2000
0000
0000
,  // measure 65
3002
0000
0000
1003
0000
0000
0101
0000
0000
0010
1000
0010
,  // measure 66
2000
0000
0000
3001
0000
0000
1010
0000
0000
0001
1000
0100
,  // measure 67
0020
0000
0000
0130
0000
0000
0011
0000
0000
1000
0010
1000
,  // measure 68
0200
0000
0000
0310
0000
0000
1100
0000
0000
0010
1000
0001
,  // measure 69
0200
0000
0000
0301
0000
0000
1001
0000
0000
1000
0010
0100
,  // measure 70
0020
0000
0000
1030
0000
0000
0110
0000
0000
1000
0100
0010
,  // measure 71
0001
0000
1000
0001
1000
0000
0001
0000
0100
0000
0010
0000
0100
0000
0010
0000
,  // measure 72
0000
0000
0010
0000
0100
0000
0001
0000
1000
0000
0001
1000
0001
0000
1000
0000
,  // measure 73
0010
0000
0100
0010
0100
0000
0010
0000
1000
0000
0001
0000
1000
0000
0001
0000
,  // measure 74
0000
0001
1000
0010
0110
0000
1001
0000
,  // measure 75
0010
0000
1000
0001
1000
0000
0010
0000
1000
0000
0100
0000
0001
0000
0100
0000
,  // measure 76
0000
0000
1000
0000
0010
0000
0001
0000
0010
0000
0100
0010
0100
0000
0010
0000
,  // measure 77
1000
0100
0010
0001
1000
0010
0100
0001
,  // measure 78
1000
0000
0000
0000
0000
0000
0000
0000
0000
0000
0000
0000
0000
0000
0000
0000
0220
0000
0000
0000
0000
0000
0000
0000
0000
0000
0000
0000
0000
0000
0000
0330
0110
0000
0000
0000
0000
0000
0000
0000
0000
0000
0000
0000
0000
0000
0000
0000
1000
0000
0000
0000
0001
0000
0000
0000
1000
0000
0000
0000
0001
0000
0000
0000
;
