#TITLE:Ready Steady Go;
#SUBTITLE:;
#ARTIST:Paul Oakenfold;
#TITLETRANSLIT:;
#SUBTITLETRANSLIT:;
#ARTISTTRANSLIT:;
#CREDIT:;
#BANNER:Ready Steady Go.png;
#BACKGROUND:Ready Steady Go-bg.png;
#LYRICSPATH:;
#CDTITLE:./CDTITLES/DANCE DANCE REVOLUTION ULTRAMIX.PNG;
#MUSIC:Ready Steady Go.mp3;
#OFFSET:-2.452;
#SAMPLESTART:24.950;
#SAMPLELENGTH:12.000;
#SELECTABLE:YES;
#BPMS:0.000=128.000;
#STOPS:;
#BGCHANGES:;

//---------------dance-single - ----------------
#NOTES:
     dance-single:
     :
     Hard:
     7:
     0.433,0.449,0.216,0.094,0.089:
0000
0000
0000
0000
,
1000
0000
0000
0001
0000
0000
1000
0000
,
0100
0000
0010
0100
0000
0100
0010
0000
,
0100
0000
0000
0010
0000
0000
0001
0000
,
1001
2002
0000
0000
3003
0000
0110
0000
,
1001
0001
0100
0000
0010
1000
0100
0000
,
0010
0001
1000
0000
0001
1000
0010
0100
,
0010
1000
0100
0000
0010
0001
0100
0000
,
0010
0000
1000
0000
0001
0000
0000
0000
0100
0001
0100
0000
0001
0000
1000
0000
,
0100
0010
0100
0000
0010
0001
1000
0000
,
0010
1000
0001
0000
1000
0100
0010
0001
,
1000
0100
0010
0000
0010
0100
1000
0000
,
0010
0000
0100
0000
0001
1000
0000
0000
0010
0100
0000
0000
1001
0000
0000
0000
,
0101
0000
1000
0010
0100
0010
1000
0000
,
0001
0000
1000
0100
1000
0000
0011
0000
,
1000
0000
0001
1000
0001
0000
1010
0000
,
0001
0000
0100
0010
1000
0010
1000
0001
,
0010
0000
0001
0100
1000
0100
0001
0000
,
1000
0000
0100
0010
0100
0000
0011
0000
,
0001
0000
1000
0001
0100
0000
1001
0000
,
1000
0100
0010
0001
1000
0001
0011
0000
,
2002
0000
0000
0003
,
0200
0000
0000
0000
3000
0000
0000
0010
,
0020
0000
0000
0000
,
0000
0000
0000
0000
0330
0000
0000
0001
,
0002
0000
0000
0000
0000
0000
0000
0100
,
0200
0000
0000
0000
0003
0000
0000
0010
,
0020
0000
0000
0000
0300
0000
0000
1000
,
2030
0010
0001
3100
,
0110
0000
0010
0000
0001
0000
1000
0010
,
1000
0001
1000
0001
,
1000
0010
0100
0001
,
1000
0000
0010
0000
0100
0000
0001
1000
,
0001
0100
0001
0100
0010
1000
0010
1000
,
0001
0010
0001
0010
0100
1000
0100
1000
,
0100
0010
0001
0010
0100
1000
0010
1000
,
0010
0000
0100
0000
0001
0100
0000
0000
0010
1000
0000
0000
0110
0000
0000
0000
,
1000
0000
0001
0000
1000
0000
0100
0000
0010
0001
0000
0010
0001
0000
0000
0000
,
0001
0000
0100
0000
0010
0000
1000
0000
0010
0000
1000
0000
0001
0000
0100
0001
,
0100
0000
0010
0000
1000
0000
0001
0000
1000
0001
0000
1000
0001
0000
0000
0000
,
1000
0100
0010
0001
0100
0010
0110
0000
,
0010
0000
1000
0000
0100
0000
0010
0000
0100
1000
0000
1000
0100
0000
0000
0000
,
0010
0000
0001
0000
1000
0000
0010
0000
0100
0000
0001
0000
1000
0000
0001
0100
,
0001
0000
1000
0000
0100
0000
0010
0000
0001
0010
0000
0010
0001
0000
0000
0000
,
1000
0000
0001
0000
1000
0100
0000
0000
0010
0001
0000
0000
1001
0000
0000
0000
,
0001
0100
1000
0100
0001
0010
0001
0000
,
1001
0000
1000
0010
1000
0000
0010
0000
,
0110
0000
0100
0001
0100
0000
0001
0000
,
1001
0000
1000
0100
0010
0001
0100
0010
,
1000
0000
0001
0010
0001
1000
0010
0000
,
0110
0000
0100
0010
1000
0000
0100
0000
,
0110
0000
0010
0001
0100
0000
0010
0000
,
1000
0000
0010
0000
0100
0001
0000
0000
1000
0010
0000
0000
1001
0000
0000
0000
,
0110
0000
0000
0000
;

//---------------dance-single - ----------------
#NOTES:
     dance-single:
     :
     Medium:
     5:
     0.325,0.374,0.122,0.104,0.000: // measure 1
0000
0000
0000
0000
,  // measure 2
1000
0000
0000
0001
0000
0000
1000
0000
,  // measure 3
0010
0000
0000
0100
0000
0000
0010
0000
,  // measure 4
1000
0000
0000
0001
0000
0000
1000
0000
,  // measure 5
1001
0000
1100
0011
,  // measure 6
1001
0000
0000
0000
0001
0100
0001
0000
,  // measure 7
1000
0000
0100
0000
0010
0000
0001
1000
,  // measure 8
0001
1000
0010
0100
,  // measure 9
0001
0000
1000
0000
0100
0000
0010
0100
,  // measure 10
0010
0001
1000
0010
,  // measure 11
0100
0000
0001
0000
1000
0000
0010
1000
,  // measure 12
0010
1000
0001
1000
,  // measure 13
0100
1100
0011
1001
,  // measure 14
1000
0000
0010
0000
0100
0001
0100
0000
,  // measure 15
0001
1000
0100
0010
,  // measure 16
0001
0100
0010
0100
,  // measure 17
0001
0000
1000
0000
0100
1000
0100
0000
,  // measure 18
0010
0000
0001
0000
1000
0010
1000
0000
,  // measure 19
0001
0100
0010
0100
,  // measure 20
0001
1000
0100
0010
,  // measure 21
0100
0000
1000
0000
0010
1000
0010
1000
,  // measure 22
0002
0000
0000
0000
,  // measure 23
2003
0000
0000
0000
0000
0000
0000
0100
,  // measure 24
3200
0000
0000
0000
,  // measure 25
0000
0000
0000
0000
0000
0000
0000
0310
,  // measure 26
0020
0000
0000
0000
0000
0000
0000
0031
,  // measure 27
0002
0000
0000
0000
0000
0000
0000
1003
,  // measure 28
2000
0000
0000
0000
0000
0000
0000
0010
,  // measure 29
0010
0001
0001
3001
,  // measure 30
1001
1000
0001
1000
,  // measure 31
0100
1000
0100
1000
,  // measure 32
0100
0010
0100
0010
,  // measure 33
0001
0010
0001
0010
,  // measure 34
0001
1000
0001
0000
1000
0000
0100
0000
,  // measure 35
0010
0001
0010
0000
0100
0000
0010
0000
,  // measure 36
0001
1000
0001
0000
1000
0010
1000
0000
,  // measure 37
0001
0100
0002
0000
0010
0000
1003
0000
,  // measure 38
1001
0000
0001
0000
1000
0100
1000
0000
,  // measure 39
0001
0000
1000
0000
0010
0000
0100
0001
,  // measure 40
0100
0000
0001
0000
1000
0100
1000
0000
,  // measure 41
0001
0000
1000
0000
0100
0010
0100
0010
,  // measure 42
0100
0000
0010
0000
0001
0010
0001
0000
,  // measure 43
1000
0000
0010
0000
1000
0000
0001
0100
,  // measure 44
0001
0000
1000
0000
0100
1000
0100
0000
,  // measure 45
0010
0011
1100
1001
,  // measure 46
0001
0000
1000
0010
1000
0020
2000
0000
,  // measure 47
3030
0000
0100
0001
0100
0000
0001
0000
,  // measure 48
1000
0000
0100
1000
0100
0000
1000
0000
,  // measure 49
0001
0000
0100
0001
0100
0000
0001
0000
,  // measure 50
1000
0000
0001
0010
0001
0020
0002
0000
,  // measure 51
0033
0000
0001
1000
0001
0000
1000
0000
,  // measure 52
0010
0000
0100
0001
1000
0000
0001
0000
,  // measure 53
1000
0100
1000
0001
1000
0000
0001
0000
,  // measure 54
1001
0000
0000
0000
;

//---------------dance-single - ----------------
#NOTES:
     dance-single:
     :
     Beginner:
     1:
     0.120,0.150,0.056,0.038,0.000: // measure 1
0000
0000
0000
0000
,  // measure 2
1000
0000
1000
0000
,  // measure 3
0001
0000
0001
0000
,  // measure 4
0100
0000
0010
0000
,  // measure 5
0110
0000
0000
0000
,  // measure 6
0001
0000
0100
0000
,  // measure 7
0001
0000
0000
0000
,  // measure 8
1000
0000
0100
0000
,  // measure 9
1000
0000
0000
0000
,  // measure 10
0001
0000
0001
0000
,  // measure 11
1000
0000
0000
0000
,  // measure 12
0010
0000
0010
0000
,  // measure 13
1000
0000
0100
0000
,  // measure 14
0110
0000
0000
0000
,  // measure 15
0010
0000
0001
0000
,  // measure 16
1000
0000
0001
0000
,  // measure 17
0100
0000
0010
0000
,  // measure 18
0110
0000
0000
0000
,  // measure 19
0100
0000
0010
0000
,  // measure 20
0100
0000
0010
0000
,  // measure 21
1000
0000
0001
0000
,  // measure 22
1002
0000
0000
0000
,  // measure 23
0000
0000
0000
0000
,  // measure 24
2003
0000
0000
0000
,  // measure 25
0000
0000
0000
0000
,  // measure 26
3200
0000
0000
0000
,  // measure 27
0000
0000
0000
0000
,  // measure 28
0320
0000
0000
0000
,  // measure 29
0000
0000
0000
0000
,  // measure 30
0130
0000
0000
0000
,  // measure 31
0010
0000
0000
0000
,  // measure 32
0100
0000
0000
0000
,  // measure 33
0010
0000
0000
0000
,  // measure 34
0001
0000
1000
0000
,  // measure 35
0001
0000
1000
0000
,  // measure 36
0001
0000
0100
0000
,  // measure 37
0010
0000
1000
0000
,  // measure 38
1001
0000
0000
0000
,  // measure 39
0001
0000
0100
0000
,  // measure 40
0001
0000
0000
0000
,  // measure 41
1000
0000
0100
0000
,  // measure 42
1000
0000
0000
0000
,  // measure 43
0001
0000
1000
0000
,  // measure 44
0001
0000
0000
0000
,  // measure 45
1000
0000
0100
0000
,  // measure 46
0010
0000
0100
0000
,  // measure 47
0010
0000
0001
0000
,  // measure 48
1000
0000
0001
0000
,  // measure 49
0100
0000
0010
0000
,  // measure 50
1000
0000
0100
0000
,  // measure 51
0010
0000
0001
0000
,  // measure 52
1000
0000
0010
0000
,  // measure 53
0100
0000
0001
0000
,  // measure 54
1001
0000
0000
0000
;

//---------------dance-single - ----------------
#NOTES:
     dance-single:
     :
     Easy:
     3:
     0.245,0.249,0.094,0.066,0.000: // measure 1
0000
0000
0000
0000
,  // measure 2
1000
0000
0001
0000
,  // measure 3
1000
0000
0001
0000
,  // measure 4
0100
0000
0010
0000
,  // measure 5
0110
0000
0010
1000
,  // measure 6
1001
0000
0001
1000
,  // measure 7
0100
0010
0100
1000
,  // measure 8
1001
0000
0001
0100
,  // measure 9
0010
0100
0001
1000
,  // measure 10
1001
0000
1000
0010
,  // measure 11
0100
0001
1000
0100
,  // measure 12
0110
0000
0010
0001
,  // measure 13
1000
0001
1000
0010
,  // measure 14
0100
0010
1000
0001
,  // measure 15
0000
1000
0001
1000
,  // measure 16
0001
0010
0001
0010
,  // measure 17
0001
1000
0100
0010
,  // measure 18
0001
1000
0010
0100
,  // measure 19
0000
0001
0100
0001
,  // measure 20
1000
0100
0010
0100
,  // measure 21
0010
0001
0100
0010
,  // measure 22
0120
0000
0000
0000
,  // measure 23
2030
0000
0000
0000
,  // measure 24
3002
0000
0000
0000
,  // measure 25
0000
0000
0000
0000
,  // measure 26
0203
0000
0000
0000
,  // measure 27
0320
0000
0000
0000
,  // measure 28
2030
0000
0000
0000
,  // measure 29
3002
1000
1000
1000
,  // measure 30
1003
0001
1000
0001
,  // measure 31
0100
0001
0100
0001
,  // measure 32
1000
0010
1000
0010
,  // measure 33
0100
0010
0100
0010
,  // measure 34
1000
0100
0010
0001
,  // measure 35
1000
0100
0010
0001
,  // measure 36
1000
0010
0100
0010
,  // measure 37
1000
0100
1000
0001
,  // measure 38
1001
0000
1000
0010
,  // measure 39
1000
0100
0010
0100
,  // measure 40
0010
0000
0100
0010
,  // measure 41
0100
0010
0001
1000
,  // measure 42
0001
0000
1000
0010
,  // measure 43
0100
0001
1000
0100
,  // measure 44
1000
0000
0001
0010
,  // measure 45
0001
1000
0001
1001
,  // measure 46
0110
0010
1000
0100
,  // measure 47
0000
0010
0001
1000
,  // measure 48
0000
0001
0100
0001
,  // measure 49
0000
1000
0010
1000
,  // measure 50
0001
0010
0001
1000
,  // measure 51
0000
0010
0100
0001
,  // measure 52
0000
1000
0100
0010
,  // measure 53
0001
1000
0010
0100
,  // measure 54
0110
0000
0000
0000
;
