#TITLE:RAGGANINJA;
#SUBTITLE:;
#ARTIST:Greg Packer & Assassin;
#TITLETRANSLIT:;
#SUBTITLETRANSLIT:;
#ARTISTTRANSLIT:;
#GENRE:;
#CREDIT:;
#MENUCOLOR:;
#NEWMETERSYSTEM:NO;
#BANNER:Ragganinja (contest)-bn.png;
#BACKGROUND:Ragganinja (contest)-bg.png;
#LYRICSPATH:;
#CDTITLE:Z-I-v Summer Contest 2010-cdtitle.png;
#MUSIC:Ragganinja.mp3;
#OFFSET:-0.080;
#SAMPLESTART:46.940;
#SAMPLELENGTH:12.000;
#SELECTABLE:YES;
#LISTSORT:;
#BPMS:0.000=174.000;
#STOPS:;
#BGCHANGES:;
#ATTACKS:;

//---------------dance-single - ----------------
#NOTES:
     dance-single:
     :
     Easy:
     4:
     0.312,0.461,0.021,0.193,0.000: // measure 1
0000
0000
0000
0000
,  // measure 2
0000
0000
0000
0000
,  // measure 3
0000
0000
0000
0000
,  // measure 4
0000
0000
0000
0000
,  // measure 5
0000
0001
0000
1000
,  // measure 6
0000
0001
0000
1000
,  // measure 7
0020
0000
0100
0000
,  // measure 8
0130
0000
0000
0000
,  // measure 9
0001
0100
1000
0100
,  // measure 10
0001
1000
0001
1000
,  // measure 11
0001
0010
1000
0010
,  // measure 12
0001
1000
0001
1000
,  // measure 13
0002
0013
0200
1300
,  // measure 14
0020
1030
0002
0103
,  // measure 15
0020
0000
0100
0000
,  // measure 16
0130
0000
0000
0000
,  // measure 17
0010
0010
1000
1000
,  // measure 18
0010
0000
0010
0000
,  // measure 19
0100
0100
0001
0001
,  // measure 20
0100
0000
0100
0000
,  // measure 21
0010
0010
1000
1000
,  // measure 22
0001
0000
0001
0000
,  // measure 23
0100
0100
0001
0001
,  // measure 24
1000
0000
1000
0000
,  // measure 25
0020
1000
0000
1030
,  // measure 26
0200
0001
0000
0301
,  // measure 27
2000
0001
0000
3001
,  // measure 28
0200
0010
0000
0310
,  // measure 29
0001
0100
0010
1000
,  // measure 30
0002
1000
2000
3003
,  // measure 31
1000
0100
0000
0100
,  // measure 32
0010
0001
0000
0001
,  // measure 33
2002
0000
0000
0000
,  // measure 34
3003
0000
0000
0000
,  // measure 35
0010
0100
0001
0100
,  // measure 36
1000
0100
0001
0000
,  // measure 37
1000
0100
0010
0100
,  // measure 38
1000
0001
0100
0000
,  // measure 39
0010
1000
0001
0100
,  // measure 40
0001
1000
0010
0000
,  // measure 41
1000
0100
0001
0100
,  // measure 42
1000
0001
0100
0000
,  // measure 43
0010
0010
0200
0301
,  // measure 44
1000
0100
1100
0000
,  // measure 45
1000
0001
1000
0010
,  // measure 46
0100
0100
0001
0000
,  // measure 47
0010
0001
0010
0001
,  // measure 48
2000
0100
3100
0000
,  // measure 49
0100
0010
0001
1000
,  // measure 50
0100
0010
0001
0000
,  // measure 51
2000
0100
0000
0001
,  // measure 52
0000
0010
0000
0100
,  // measure 53
0000
0010
0000
0001
,  // measure 54
0000
0100
0000
0010
,  // measure 55
3002
0100
0000
0010
,  // measure 56
0000
1000
0000
0100
,  // measure 57
0000
1000
0000
0010
,  // measure 58
0000
0100
0000
1003
,  // measure 59
0001
1000
0000
1000
,  // measure 60
0010
0100
0000
0010
,  // measure 61
0100
0001
0000
0010
,  // measure 62
0001
1000
0000
0001
,  // measure 63
1000
0010
0000
0010
,  // measure 64
0100
0001
0000
0001
,  // measure 65
1000
0100
0000
0100
,  // measure 66
0010
0001
0000
0001
,  // measure 67
0100
0000
0000
0000
;

//---------------dance-single - Copied from----------------
#NOTES:
     dance-single:
     Copied from:
     Beginner:
     2:
     0.143,0.177,0.011,0.086,0.000: // measure 1
0000
0000
0000
0000
,  // measure 2
0000
0000
0000
0000
,  // measure 3
0000
0000
0000
0000
,  // measure 4
0000
0000
0000
0000
,  // measure 5
0000
1000
0000
1000
,  // measure 6
0000
0001
0000
0001
,  // measure 7
0000
0000
0000
0000
,  // measure 8
0000
0000
0000
0000
,  // measure 9
0000
0010
0000
0010
,  // measure 10
0000
1000
0000
1000
,  // measure 11
0000
0001
0000
0001
,  // measure 12
0000
0100
0000
0100
,  // measure 13
0000
0001
0000
1000
,  // measure 14
0000
0001
0000
1000
,  // measure 15
1000
0000
0000
0000
,  // measure 16
0000
0000
0000
0000
,  // measure 17
0200
0000
0000
0000
,  // measure 18
0000
0000
0300
0000
,  // measure 19
0020
0000
0000
0000
,  // measure 20
0000
0000
0030
0000
,  // measure 21
2000
0000
0000
0000
,  // measure 22
0000
0000
3000
0000
,  // measure 23
0002
0000
0000
0000
,  // measure 24
0000
0000
0003
0000
,  // measure 25
1000
0000
0000
0000
,  // measure 26
0001
0000
0000
0000
,  // measure 27
1000
0000
0001
0000
,  // measure 28
1000
0000
0000
0000
,  // measure 29
0010
0000
0000
0000
,  // measure 30
0100
0000
0000
0000
,  // measure 31
0010
0000
0100
0000
,  // measure 32
0010
0000
0000
0000
,  // measure 33
1001
0000
0000
0000
,  // measure 34
0000
0000
0000
0000
,  // measure 35
1000
0000
0010
0000
,  // measure 36
1000
0000
0000
0000
,  // measure 37
0001
0000
0010
0000
,  // measure 38
0001
0000
0000
0000
,  // measure 39
0100
0000
0010
0000
,  // measure 40
0100
0000
0000
0000
,  // measure 41
1000
0000
0001
0000
,  // measure 42
1000
0000
0000
0000
,  // measure 43
0001
0000
0010
0000
,  // measure 44
1000
0000
0000
0000
,  // measure 45
1000
0000
0010
0000
,  // measure 46
0001
0000
0000
0000
,  // measure 47
0100
0000
0010
0000
,  // measure 48
1000
0000
0000
0000
,  // measure 49
0001
0000
0100
0000
,  // measure 50
0010
0000
0000
0000
,  // measure 51
0000
1000
0000
0001
,  // measure 52
0000
1000
0000
0001
,  // measure 53
0000
1000
0000
0001
,  // measure 54
0000
1000
0000
0001
,  // measure 55
0000
0100
0000
0010
,  // measure 56
0000
0100
0000
0010
,  // measure 57
0000
0100
0000
0010
,  // measure 58
0000
0100
0000
0010
,  // measure 59
0020
0000
0030
0000
,  // measure 60
0200
0000
0300
0000
,  // measure 61
0002
0000
0003
0000
,  // measure 62
2000
0000
3000
0000
,  // measure 63
0001
0000
0001
0000
,  // measure 64
0001
0000
0000
0000
,  // measure 65
1000
0000
1000
0000
,  // measure 66
0001
0000
1000
0000
,  // measure 67
0001
0000
0000
0000
;

//---------------dance-single - Copied from----------------
#NOTES:
     dance-single:
     Copied from:
     Medium:
     6:
     0.465,0.461,0.344,0.193,0.000: // measure 1
0000
0000
0000
0000
,  // measure 2
0000
0000
0000
0000
,  // measure 3
0000
0000
0000
0000
,  // measure 4
0000
0000
0000
0000
,  // measure 5
0001
0011
0001
0101
,  // measure 6
0001
1001
0001
0101
,  // measure 7
0002
0000
2003
0000
,  // measure 8
3020
0000
0000
0000
,  // measure 9
0130
0001
1000
0100
,  // measure 10
0010
0100
1000
0001
,  // measure 11
0010
0001
0100
0010
,  // measure 12
1000
0001
0010
0100
,  // measure 13
1000
1010
1000
1001
,  // measure 14
1000
1100
1000
1001
,  // measure 15
0002
0000
2003
0000
,  // measure 16
3002
0000
0000
0100
0000
0000
0103
0000
,  // measure 17
0001
1000
0100
0000
,  // measure 18
1000
0010
0001
0000
,  // measure 19
0010
0100
0010
1000
,  // measure 20
0020
0100
0130
0000
,  // measure 21
0001
1000
0001
0000
,  // measure 22
0100
0010
1000
0000
,  // measure 23
1000
0010
0100
0001
,  // measure 24
0010
0100
1000
0000
,  // measure 25
0001
0000
0010
0001
0000
0100
0000
0000
,  // measure 26
0001
1100
0011
0000
,  // measure 27
1000
0100
1000
0000
0001
0100
0001
0000
,  // measure 28
0010
0010
0200
0300
,  // measure 29
0010
0100
1000
0000
0001
0010
0100
0000
,  // measure 30
1000
0000
0002
2000
0000
0000
3003
0000
,  // measure 31
0010
0000
0100
0010
0100
0000
0001
1000
,  // measure 32
0001
0100
0001
1000
,  // measure 33
0120
0000
2030
0000
,  // measure 34
3001
0000
0000
0110
,  // measure 35
0001
0100
0001
0100
0001
0000
1000
0000
,  // measure 36
0010
0000
1000
0100
0010
0000
1000
0000
,  // measure 37
0001
1000
0001
1000
0010
0000
0100
0000
,  // measure 38
0001
0000
0010
0100
1000
0000
0001
0000
,  // measure 39
0100
0010
0100
0000
0000
1001
0000
0000
,  // measure 40
0100
0001
1000
0000
0000
0110
0000
0000
,  // measure 41
1000
0100
1000
0000
0000
0011
0000
0000
,  // measure 42
0100
0010
1000
0000
0000
1001
0000
0000
,  // measure 43
0010
0100
0010
0000
1000
0200
0000
0300
,  // measure 44
0010
0000
0001
0100
0001
0000
0010
0000
,  // measure 45
0001
0000
0100
0000
0010
0000
1000
0100
,  // measure 46
0001
0100
1000
0001
,  // measure 47
0001
0010
0001
0100
0001
0000
1000
0000
,  // measure 48
0001
0000
0200
0002
0000
0000
0303
0000
,  // measure 49
0100
0000
0010
0000
1000
0000
0001
0100
,  // measure 50
1000
0000
1000
0100
0001
0000
1000
0000
,  // measure 51
0001
0101
0010
1010
,  // measure 52
0100
0011
0100
1001
,  // measure 53
0010
1100
0010
0101
,  // measure 54
0010
1001
0010
0011
,  // measure 55
0100
1001
0001
1100
,  // measure 56
0001
0110
0100
1100
,  // measure 57
0010
0101
0010
1100
,  // measure 58
0100
1001
0010
1001
,  // measure 59
0001
0100
0001
0000
1000
0100
1000
0000
,  // measure 60
0010
0010
0200
0301
,  // measure 61
0010
0001
0010
0000
0100
1000
0100
0000
,  // measure 62
0010
1000
0001
0100
,  // measure 63
0010
1000
0010
0100
0001
0000
0010
0000
,  // measure 64
0001
0000
2000
0002
0000
0000
3003
0000
,  // measure 65
0001
0000
1000
0100
0010
0000
0100
0000
,  // measure 66
0010
0000
0001
0100
1000
0000
0100
0000
,  // measure 67
0001
0000
0000
0000
;

//---------------dance-single - Copied from ----------------
#NOTES:
     dance-single:
     Copied from:
     Hard:
     8:
     0.608,0.603,0.183,0.290,0.005: // measure 1
0000
0000
0000
0000
,  // measure 2
0000
0000
0000
0000
,  // measure 3
0000
0000
0000
0000
,  // measure 4
0000
0000
0000
0000
,  // measure 5
1000
0100
0001
0000
0001
0100
1000
0000
,  // measure 6
1000
0010
0100
0000
0001
0010
0100
0000
,  // measure 7
0011
0000
1100
0000
,  // measure 8
2002
0000
3003
0000
,  // measure 9
0001
0100
0001
1000
0100
1000
0010
0100
,  // measure 10
0001
0010
0100
1000
0010
0100
0001
0000
,  // measure 11
1000
0010
0100
0001
0010
0100
1000
0100
,  // measure 12
0010
0001
1000
0010
0100
0001
1000
0000
,  // measure 13
0001
0100
0101
0000
1000
0100
1100
0000
,  // measure 14
0010
0001
0011
0000
0100
1000
1010
0000
,  // measure 15
0002
0000
0023
0000
,  // measure 16
0230
0000
0000
0300
,  // measure 17
1000
0100
0010
0000
0100
0010
0001
0000
,  // measure 18
0100
0001
0000
1000
0100
0000
1000
0000
,  // measure 19
0010
0100
0010
0000
1000
0100
1000
0000
,  // measure 20
0001
0100
0000
0010
1000
0000
0100
0000
,  // measure 21
0010
0100
1000
0000
0001
0010
0100
0000
,  // measure 22
1000
0100
2000
0000
3002
0000
0103
0000
,  // measure 23
0010
1000
0010
0000
0100
0001
0100
0000
,  // measure 24
0010
1000
0002
0000
0203
0000
0301
0000
,  // measure 25
1000
1000
0100
0100
,  // measure 26
0010
0001
0010
0100
,  // measure 27
1000
0001
0100
0001
,  // measure 28
1000
0100
0010
1000
,  // measure 29
0001
0001
0010
0010
,  // measure 30
0100
1000
0100
0010
,  // measure 31
0001
0100
0001
1000
,  // measure 32
0010
0000
0100
0001
1000
0000
0001
0000
,  // measure 33
0110
0000
0010
0000
,  // measure 34
0010
0000
0000
0000
0000
0000
0000
0000
0000
0000
1000
0001
1000
0000
0000
0000
,  // measure 35
0010
0100
0001
0010
0100
0010
0001
1000
,  // measure 36
0010
0100
0001
1000
0100
1000
0010
0000
,  // measure 37
0100
0001
1000
0010
0100
0001
0010
0100
,  // measure 38
1000
0001
0100
1000
0100
0001
0010
0000
,  // measure 39
1000
0100
0010
0100
1000
0001
0000
0000
,  // measure 40
0100
0010
0100
0001
0010
0100
0000
0000
,  // measure 41
0001
0010
1000
0010
0001
1000
0000
0000
,  // measure 42
0100
0010
0100
0001
1000
0100
0000
0000
,  // measure 43
1000
0100
1000
0100
1000
0010
1000
0000
,  // measure 44
0001
0010
0001
0010
0001
0000
0101
0000
,  // measure 45
0010
0100
0010
0100
0001
0100
1000
0100
,  // measure 46
0001
0010
0100
1000
0010
0000
1001
0000
,  // measure 47
1000
0010
1000
0001
0100
0001
0010
0001
,  // measure 48
0200
0000
0310
2000
0010
0000
3001
0000
,  // measure 49
0010
1000
0010
0100
0001
0010
0100
0010
,  // measure 50
0001
1000
0100
0010
0001
0000
1100
0000
,  // measure 51
0001
0010
0200
0000
0310
0100
2000
0000
,  // measure 52
3010
0100
0002
0000
1003
0100
0020
0000
,  // measure 53
0031
0100
2000
0000
3100
1000
0200
0000
,  // measure 54
0310
1000
0002
0000
0013
0001
0200
0000
,  // measure 55
0310
1000
0002
0000
0013
0001
2000
0000
,  // measure 56
3100
0010
0020
0000
0031
1000
0002
0000
,  // measure 57
0103
0010
2000
0000
3001
0100
0020
0000
,  // measure 58
0130
0001
0020
0000
0031
1000
0200
0000
,  // measure 59
0310
0100
0010
0100
1000
0100
1000
0000
,  // measure 60
0001
0100
0001
0000
0011
0000
1001
0000
,  // measure 61
0100
0010
0100
1000
0001
0100
0001
0000
,  // measure 62
1000
1100
1010
1001
,  // measure 63
0100
0001
0100
0001
0100
0010
0100
0000
,  // measure 64
0001
0100
1000
0100
0001
0000
1100
0000
,  // measure 65
1000
0010
0100
0001
1000
0100
0010
0001
,  // measure 66
1000
0001
0100
0010
0100
0001
0010
1000
,  // measure 67
0010
0000
0000
0000
;
