#TITLE:Pluto Relinquish;
#SUBTITLE:;
#ARTIST:2MB;
#TITLETRANSLIT:;
#SUBTITLETRANSLIT:;
#ARTISTTRANSLIT:;
#CREDIT:;
#BANNER:Pluto Relinquish.png;
#BACKGROUND:Pluto Relinquish-bg.png;
#LYRICSPATH:;
#CDTITLE:./CDTITLES/DanceDanceRevolution SuperNOVA2.png;
#MUSIC:Pluto Relinquish.mp3;
#OFFSET:0.519;
#SAMPLESTART:0.040;
#SAMPLELENGTH:15.000;
#SELECTABLE:YES;
#DISPLAYBPM:100.000:800.000;
#BPMS:0.000=400.000,4.000=100.000,11.000=800.000,19.000=400.000,79.000=800.000,87.000=400.000,151.000=100.000,167.000=200.000,231.000=100.000,246.000=800.000,254.000=400.000,314.000=100.000,315.000=400.000,343.000=100.000,344.000=400.000,372.000=100.000,373.000=400.000,434.000=800.000;
#STOPS:;
#BGCHANGES:;

//---------------dance-single - ----------------
#NOTES:
     dance-single:
     :
     Hard:
     10:
     0.571,0.955,0.368,0.072,0.000: // measure 1
0000
0000
0000
0000
,  // measure 2
0000
0001
0110
0000
1001
0100
0010
1000
,  // measure 3
0001
0000
0100
0010
1000
0001
2002
0000
,  // measure 4
0000
0000
0000
0000
,  // measure 5
0000
0000
0000
0000
0000
3003
0000
0010
,  // measure 6
0000
1000
0000
0001
,  // measure 7
0000
0100
0000
0010
,  // measure 8
1000
0001
0100
0010
,  // measure 9
0000
1000
0000
0000
0000
0001
0000
0100
,  // measure 10
0000
0010
0000
1000
0000
0001
0100
0000
,  // measure 11
0000
0010
0000
1000
0000
0001
0100
0000
,  // measure 12
0000
0010
0000
0010
0000
0010
0000
0000
,  // measure 13
0000
0000
0000
1001
,  // measure 14
0000
0100
0010
1000
,  // measure 15
0000
0001
0000
0100
0000
0000
0000
0010
,  // measure 16
0000
0000
1000
0000
0000
0001
0100
0000
,  // measure 17
0000
0010
0000
0000
0000
1000
0000
0001
,  // measure 18
0100
0000
0010
0000
0000
1000
0000
0000
,  // measure 19
0000
0001
0000
0000
0000
0100
0000
0010
,  // measure 20
0000
0010
0000
0000
0000
0020
0000
0000
,  // measure 21
0000
0000
0000
0000
,  // measure 22
0000
0030
0000
1000
,  // measure 23
0000
0001
0100
0010
,  // measure 24
0000
1000
0000
0001
0000
0000
0000
0100
,  // measure 25
0000
0000
0010
1000
,  // measure 26
0000
0001
0100
0010
,  // measure 27
1000
0000
0001
0000
0100
0010
0000
1000
,  // measure 28
0000
0001
0000
0100
0000
0010
0000
0000
,  // measure 29
0010
0000
0000
0010
0000
0010
0000
0000
,  // measure 30
0000
1000
0000
0000
0000
0001
0000
0100
,  // measure 31
0000
0010
0000
1000
0000
0001
0000
0100
,  // measure 32
0000
0010
0000
0000
1000
0001
0000
0100
,  // measure 33
0000
0010
0000
1000
0000
0001
0000
0100
,  // measure 34
0000
0000
0010
0000
0000
1000
0000
0001
,  // measure 35
0000
0100
0000
0010
0000
1000
0000
0001
,  // measure 36
0000
0100
0010
0010
0000
1000
0000
0001
,  // measure 37
0000
0000
0010
0000
0000
0010
0000
0010
,  // measure 38
0000
0010
0000
0010
0000
1000
0000
0000
,  // measure 39
0001
0000
0100
0000
0010
1000
0001
0000
,  // measure 40
0100
0000
0010
0000
1000
0100
0010
0000
,  // measure 41
0001
0100
0010
0000
1000
0000
0100
0000
,  // measure 42
0010
0001
0100
0010
,  // measure 43
1000
0000
0001
0000
0100
0000
0010
1000
,  // measure 44
0001
0100
0010
0000
1000
0000
0001
0000
,  // measure 45
0100
0010
0000
1100
,  // measure 46
0011
1100
0110
1000
,  // measure 47
0001
0100
0010
1000
,  // measure 48
0001
0100
0010
1000
,  // measure 49
0001
0100
0010
1000
,  // measure 50
0001
0100
0010
1000
,  // measure 51
0001
0000
0100
0000
0010
0000
1000
0001
,  // measure 52
0100
0010
1000
0001
,  // measure 53
0100
0100
0011
1100
,  // measure 54
1100
1100
1100
0001
,  // measure 55
0100
0010
1000
0001
,  // measure 56
0100
0010
1000
0001
,  // measure 57
0100
0010
0010
1000
,  // measure 58
0001
0001
0000
1001
,  // measure 59
0000
1100
0011
1100
,  // measure 60
0011
0110
1001
1100
,  // measure 61
0011
1100
0110
1001
,  // measure 62
0110
1100
2002
0000
,  // measure 63
0000
0000
0000
0000
0000
0000
0000
3003
,  // measure 64
0000
0000
0000
0010
0000
0000
0000
1000
,  // measure 65
0000
0000
0001
0100
,  // measure 66
0010
0000
1000
0001
,  // measure 67
0100
0000
0010
1000
,  // measure 68
0001
0000
0000
0100
0000
0000
0010
0000
,  // measure 69
0010
0000
1000
1000
,  // measure 70
1000
0000
0000
0000
0001
0000
0001
0001
,  // measure 71
0000
0000
0000
0100
0000
0100
0000
0100
,  // measure 72
0000
0000
0000
0010
0000
0000
0010
0000
,  // measure 73
0010
0000
0000
1000
0000
0000
1000
0000
,  // measure 74
1000
0000
0001
0001
,  // measure 75
0001
0000
0100
0100
,  // measure 76
0100
0000
0000
0010
0000
0000
0010
0000
,  // measure 77
0010
0000
1000
1000
,  // measure 78
1000
0000
0001
0001
,  // measure 79
0001
0000
0000
0000
1000
1000
0001
0000
,  // measure 80
0001
0001
0000
0100
,  // measure 81
0100
0100
0000
0010
,  // measure 82
0010
0010
0000
1000
,  // measure 83
1000
0000
1000
0000
0000
0001
0000
0001
,  // measure 84
0000
0001
0000
0000
0000
0100
0000
0100
,  // measure 85
0000
0100
0000
0000
0000
0000
0010
0000
,  // measure 86
0010
0010
0000
1100
,  // measure 87
0011
0000
0000
0011
0000
0000
0000
0000
,  // measure 88
1000
1000
1000
0000
,  // measure 89
0100
0100
0100
0000
,  // measure 90
0010
0010
0010
0000
,  // measure 91
1000
1000
1000
0000
,  // measure 92
0001
0000
0001
0000
0001
0000
0000
0100
,  // measure 93
0000
0100
0000
0100
0000
0000
0000
0000
,  // measure 94
0110
0000
1001
0000
0000
1000
0000
0000
,  // measure 95
0000
0001
0000
0000
0000
0000
0100
0000
,  // measure 96
0000
0010
0000
1000
,  // measure 97
0000
0001
0000
0001
,  // measure 98
0001
0001
0001
0001
,  // measure 99
0001
0001
0001
0001
,  // measure 100
0001
0001
0000
1000
,  // measure 101
0000
0000
0100
0000
0000
0010
0000
0010
,  // measure 102
0000
0010
0010
0010
,  // measure 103
0010
0010
0010
0010
,  // measure 104
0010
0010
0010
0010
,  // measure 105
0010
0010
0010
0010
,  // measure 106
0010
0000
0010
0000
0010
0000
0000
1000
,  // measure 107
0000
1000
1000
0000
1000
0000
0000
0000
,  // measure 108
1000
0001
0000
0000
0000
0110
0000
0000
,  // measure 109
0000
0110
0000
0000
0000
0000
0000
0220
,  // measure 110
0000
0000
0000
0000
,  // measure 111
0000
0000
0000
0000
,  // measure 112
0000
0000
0000
0000
,  // measure 113
0000
0000
0000
0000
,  // measure 114
0000
0000
0000
0000
,  // measure 115
0000
0000
0000
0000
,  // measure 116
0000
0000
0000
0000
,  // measure 117
0000
0000
0000
0000
0000
0000
0000
0000
0000
0000
0000
0000
0000
0000
0000
0000
0000
0000
0000
0000
0000
0000
0000
0000
0000
0000
0000
0000
0000
0000
0000
0000
0000
0000
0000
0000
0000
0000
0000
0000
0000
0000
0000
0000
0000
0000
0000
0000
0000
0000
0000
0000
0000
0000
0000
0000
0000
0000
0000
0000
0000
0000
0000
0000
0000
0000
0000
0000
0000
0000
0000
0000
0000
0000
0000
0000
0000
0000
0000
0000
0000
0000
0000
0000
0000
0000
0000
0000
0000
0000
0000
0000
0000
0000
0000
0000
0000
0000
0000
0000
0000
0000
0000
0000
0000
0000
0000
0000
0000
0000
0000
0000
0000
0000
0000
0000
0000
0000
0000
0000
0000
0000
0000
0000
0000
0000
0000
0000
0000
0000
0000
0000
0000
0000
0000
0000
0000
0000
0000
0000
0000
0000
0000
0000
0000
0000
0000
0000
0000
0000
0000
0000
0000
0000
0000
0000
0000
0330
0000
0000
0000
0000
0000
0000
0000
0000
0000
0000
0000
0000
0000
0000
0000
0000
0000
0000
0000
0000
0000
0000
0000
0000
0000
0000
0000
0000
0000
0000
0000
0000
0000
0000
;

//---------------dance-single - ----------------
#NOTES:
     dance-single:
     :
     Medium:
     10:
     0.542,1.000,0.348,0.082,0.000:
0000
0000
0000
0000
,
1001
0100
0010
0000
1000
0000
0001
0000
,
0100
0000
0010
0000
1000
0100
2002
0000
,
0000
0000
0000
0000
,
0000
0000
3003
0000
0000
0010
0000
1000
,
0000
0001
0000
0100
,
0010
1000
0000
0001
,
0100
0010
0000
1000
,
0000
0001
0000
0100
,
0010
1000
0000
0001
,
0100
0010
0000
1000
,
0001
0000
0100
0000
0000
0010
0000
0000
,
0000
1000
0000
0000
0000
0001
0000
0100
,
0000
0010
0000
0000
0000
0000
1000
0000
,
0001
0100
0000
0010
,
1000
0001
0000
0100
,
0000
0010
0000
0000
0000
0000
1000
1000
,
0000
1000
0000
0001
0000
0100
0000
0000
,
0000
0000
0010
0000
0000
0000
1000
0001
,
0000
0000
1001
0000
0000
2002
0000
0000
,
0000
0000
0000
0000
,
0000
0000
3003
0010
,
1000
0001
0000
0100
,
0010
1000
0000
0001
,
0100
0010
0000
1000
,
0001
0100
0000
0010
,
1000
0001
0100
0010
,
0000
0000
1000
0000
0000
0000
0001
0100
,
0000
0010
0000
0000
1000
0000
1000
0000
,
0000
0000
0000
0000
0000
0001
0000
0000
,
0000
0100
0000
0000
0000
0010
0000
0000
,
0000
1000
0000
0000
0000
0001
0000
0000
,
0000
0100
0000
0010
,
0000
1000
0000
0001
,
0000
0100
0000
0010
,
0000
0000
1000
0000
0000
0001
0000
0100
,
0000
0010
0000
1000
0000
0000
0001
0000
,
0100
0010
0000
1000
,
0001
0000
0100
0000
0010
1000
0001
0000
,
0100
0010
1000
0100
,
0010
1000
0100
0010
,
1000
0100
0010
1000
,
0100
0010
0001
0100
,
0010
1000
0100
0001
,
0000
1000
0000
0100
,
0010
1000
0000
0001
0000
0100
0000
0000
,
0000
0010
0000
1000
,
0100
0010
0001
1000
,
0001
0100
0010
0010
,
1000
0001
0100
0110
,
1000
0001
0100
0010
,
0000
1000
0001
0000
0100
0000
0010
0000
,
1000
0001
0100
0110
,
0110
0110
0110
1000
,
0001
0100
0010
1000
,
0001
0100
0010
0000
1000
0000
0001
0000
,
0100
0000
0010
0000
1000
0001
0100
0010
,
0000
0010
0000
1100
,
0011
1100
0110
0011
,
1100
0110
1001
0110
,
1100
0011
0110
1100
,
0011
0110
2002
0000
,
0000
0000
0000
3003
,
0000
0000
0010
0000
0000
1000
0000
0001
,
0000
0000
0100
0010
,
1000
0000
0001
0100
,
0000
0010
0000
0000
1000
0000
0001
0000
,
0100
0000
0010
1000
,
0001
0000
0100
0010
,
1000
0000
0001
0100
,
0010
0000
1000
0001
,
0100
0000
0010
1000
,
0001
0000
0100
0010
,
1000
0000
0001
0100
,
0010
0000
1000
0001
,
0100
0000
0010
1000
,
0001
0000
0100
0010
,
1000
0000
0001
0100
,
0010
0000
0000
0000
1000
0000
0001
0100
,
0000
0010
0000
1000
,
0001
0100
0000
0010
,
1000
0000
0001
0000
0000
0100
0000
0010
,
0000
1000
0000
0000
0000
0001
0000
0001
,
0001
0000
0000
0000
0000
1000
0000
1000
,
0000
1000
0000
0000
0000
0100
0000
0010
,
0000
0010
0000
0000
0000
1001
0000
0110
,
1000
0000
0001
0000
0000
0000
0000
0100
,
0000
0010
0000
1000
0000
0000
0000
0000
,
0001
0100
0010
0000
,
1000
0001
0100
0000
,
0010
1000
0001
0000
,
0100
0010
1000
0000
,
0001
0100
0100
0000
,
0110
1000
1000
0000
0000
0001
0000
0100
,
0000
0100
0000
0010
0000
0000
1000
0001
,
0000
0100
0000
0000
0000
0010
0000
0000
,
0000
1000
0000
0000
0000
0001
0000
0100
,
0000
0010
0000
1000
0001
0000
0100
0000
,
0010
1000
0001
0100
,
0100
0000
0000
0000
0000
0010
0000
0000
,
1000
0000
0001
0100
,
0010
1000
0001
0100
,
0000
0010
0000
1000
0000
0001
0000
0100
,
0000
0010
0000
0000
0000
0110
0000
0110
,
0000
0110
0000
0000
1000
0000
0001
0000
,
0100
0000
0000
0010
0000
0000
1000
0000
,
0001
0000
0100
0000
,
0110
0000
0000
0110
0000
0000
0000
0001
,
1000
0000
0000
2002
0000
0000
0000
0000
,
0000
0000
0000
0000
,
0000
0000
0000
0000
,
0000
0000
0000
0000
,
0000
0000
0000
0000
,
0000
0000
0000
0000
,
0000
0000
0000
0000
,
0000
0000
0000
0000
,
0000
0000
0000
0000
,
0000
0000
0000
0000
,
0000
0000
0000
0000
,
3003
0000
0000
0000
;

//---------------dance-single - ----------------
#NOTES:
     dance-single:
     :
     Easy:
     6:
     0.264,0.608,0.092,0.061,0.000:
0000
0000
0000
0000
,
1001
0110
1000
0001
,
0100
0010
1000
2000
,
0000
0000
0000
0000
,
0000
0000
3000
0001
,
0000
0000
0000
0100
,
0000
0000
0000
0010
,
0000
1000
0000
0001
,
0000
0000
0000
0100
,
0000
0000
0000
0010
,
0000
0000
0000
1000
,
0000
0000
0000
0001
,
0100
0000
0000
0010
,
0000
0000
0000
1000
,
0000
0000
0000
0001
,
0000
0000
0000
0100
,
0000
0000
0000
0010
,
0000
0000
0000
1000
,
0000
0000
0001
0000
,
0000
0010
0000
0220
,
0000
0000
0000
0000
,
0000
0330
0000
1000
,
0000
0000
0000
0001
,
0000
0000
0000
0100
,
0000
0010
0000
1000
,
0000
0000
0000
0001
,
0000
0100
0000
0010
,
0000
0000
0000
1000
,
0000
0000
0000
0001
,
0000
0000
0100
0000
,
0000
0010
0000
1000
,
0000
0001
0100
0000
,
0000
0000
0000
0010
,
0000
0000
0000
0000
,
1000
0001
0000
0100
,
0000
0010
0000
1000
,
0000
0001
0000
0100
,
0000
0010
0000
1100
,
0011
1100
1000
0100
,
0010
1000
0000
0001
,
0100
0010
0000
1000
,
0100
0010
0001
1000
,
0000
0100
0000
0010
,
0000
0000
0001
0100
,
0000
0010
0000
1000
,
0000
0000
0000
0001
,
0000
1000
0000
0100
,
0000
0010
0000
1000
,
0000
0001
0000
0100
,
0000
0010
0000
1000
,
0000
0100
0000
0010
,
0000
1000
0000
0100
,
0000
0010
0000
1000
,
0000
0100
0000
0010
,
0000
1000
0000
0001
,
0000
0100
0000
0010
,
0000
1000
0000
0001
,
0000
0100
0000
1100
,
0001
0000
0000
1000
,
0001
0100
0000
1000
,
0100
1000
0000
1000
,
0100
0010
0200
0000
,
0000
0000
0000
0000
,
0300
1000
0000
0000
,
0000
0000
0001
0000
,
0000
0000
0100
0000
,
0000
0000
1000
0000
,
0000
0000
0100
0000
,
0000
0000
0010
0000
,
0000
0000
0001
0000
,
0000
0000
0100
0000
,
0000
0000
1000
0000
,
0000
0000
0001
0000
,
0000
0000
0100
0000
,
0000
0000
0010
0000
,
0000
0000
1000
0000
,
0000
0000
0001
0000
,
0000
0000
0100
0000
,
0000
0000
1100
0001
,
0000
0100
0000
0010
,
0000
0000
0000
1000
,
0000
0001
0000
0100
,
0000
0000
0000
0010
,
0000
1000
0000
0100
,
0000
0000
0000
1000
,
0000
0000
0000
0001
,
0100
0000
0010
0000
,
1000
0000
0000
0000
,
0001
0000
0100
0000
,
0010
0000
0000
0000
,
1000
0000
0100
0000
,
0010
0000
0000
0000
,
1000
0000
0000
0000
,
1001
1000
0000
0001
,
0000
0100
0000
0000
,
0000
0010
0000
0000
,
1000
0000
0000
0000
,
0000
0001
0000
0000
,
0000
0100
0000
0000
,
0000
0010
0000
0000
,
0000
1000
0000
0000
,
0000
0100
0000
0000
,
0000
0010
0000
0000
,
0000
1000
0000
0000
,
0000
0001
0000
0000
,
0000
0100
0000
0000
,
0010
0000
0000
0000
,
1000
0000
0001
0000
,
0000
0100
0002
2000
,
0000
0000
0000
0000
,
0000
0000
0000
0000
,
0000
0000
0000
0000
,
0000
0000
0000
0000
,
0000
0000
0000
0000
,
0000
0000
0000
0000
,
0000
0000
0000
0000
,
0000
0000
0000
0000
,
0000
0000
0000
0000
,
0000
0000
0000
0000
,
3003
0000
0000
0000
;
