#TITLE:OUTER LIMITS;
#SUBTITLE:;
#ARTIST:L.E.D.-G;
#TITLETRANSLIT:;
#SUBTITLETRANSLIT:;
#ARTISTTRANSLIT:;
#GENRE:;
#CREDIT:;
#MENUCOLOR:;
#METERTYPE:DDR;
#BANNER:OUTER LIMITS.png;
#BACKGROUND:OUTER LIMITS-bg.png;
#LYRICSPATH:;
#CDTITLE:./CDTITLES/BEATMANIA IIDX.PNG;
#MUSIC:OUTER LIMITS.mp3;
#OFFSET:-0.054;
#SAMPLESTART:23.860;
#SAMPLELENGTH:12.000;
#SELECTABLE:YES;
#LISTSORT:;
#BPMS:0.000=171.000;
#STOPS:;
#BGCHANGES:;
#ATTACKS:;

//---------------dance-single - BASIC----------------
#NOTES:
     dance-single:
     BASIC:
     Easy:
     5:
     0.318,0.437,0.241,0.266,0.000: // measure 1
0000
0000
0000
0000
,  // measure 2
0000
0000
0000
0000
,  // measure 3
0000
0000
0000
0000
,  // measure 4
0000
0000
0000
0000
,  // measure 5
2000
0000
3000
0000
,  // measure 6
1000
0000
1000
0000
,  // measure 7
0020
0000
0030
0000
,  // measure 8
0100
0000
0000
0000
,  // measure 9
2002
0000
3003
0000
,  // measure 10
0001
0000
1000
0000
,  // measure 11
0200
0000
0300
0000
,  // measure 12
0010
0000
0000
0000
,  // measure 13
0002
0000
0003
0000
,  // measure 14
1000
0000
0001
0000
,  // measure 15
0020
0000
0000
0000
,  // measure 16
0130
0000
0000
0000
,  // measure 17
0000
0000
0000
0000
,  // measure 18
0100
0101
0001
0100
,  // measure 19
1000
1100
1000
0010
,  // measure 20
0100
0110
0001
1000
,  // measure 21
0001
0010
1000
0100
,  // measure 22
0001
0110
0001
0100
,  // measure 23
1000
0110
1000
0001
,  // measure 24
0010
1001
0010
0100
,  // measure 25
0010
0000
0010
0000
1000
0001
1000
0001
,  // measure 26
1000
0000
0000
0100
0000
0000
0001
0000
,  // measure 27
0100
0000
0010
0010
,  // measure 28
1000
0000
0000
0010
0000
0000
0100
0000
,  // measure 29
0010
0000
1000
0001
,  // measure 30
0010
0000
0000
0001
0000
0000
1000
0000
,  // measure 31
0010
0000
0100
1000
,  // measure 32
0100
0000
0000
0001
0000
0000
0100
0000
,  // measure 33
0010
0000
1000
0001
,  // measure 34
0110
0000
0000
0001
0000
0000
0100
0000
,  // measure 35
0010
0000
1010
0100
,  // measure 36
0101
0000
0000
0001
0000
0000
1000
0000
,  // measure 37
0100
0000
1001
0001
,  // measure 38
1001
0000
0000
1000
0000
0000
2000
0000
,  // measure 39
0000
0000
3000
0000
,  // measure 40
1001
0000
0000
0001
0000
0000
0002
0000
,  // measure 41
0000
0000
0003
0000
,  // measure 42
0001
0000
0200
0000
0000
0300
0020
0000
,  // measure 43
0030
2000
3000
0001
,  // measure 44
0010
0002
0003
2000
,  // measure 45
3000
0200
0000
0300
,  // measure 46
0001
0200
0300
0002
,  // measure 47
0003
0020
0030
0100
,  // measure 48
2000
0000
0000
3000
,  // measure 49
0002
0000
0000
0003
,  // measure 50
1001
0100
1000
0010
,  // measure 51
1001
0000
0000
1001
0000
0000
0010
0000
,  // measure 52
1001
0010
0100
1000
,  // measure 53
0001
0100
0001
0100
0001
0100
0001
0000
,  // measure 54
0110
0000
0000
0110
0000
0000
0100
0000
,  // measure 55
0001
1000
0010
1000
,  // measure 56
0010
1000
0100
0001
,  // measure 57
0010
1000
0100
0010
,  // measure 58
0001
0200
0300
2000
,  // measure 59
3000
0020
0030
1000
,  // measure 60
0001
0020
0030
0200
,  // measure 61
0300
2000
3000
0001
,  // measure 62
0200
0301
0000
0020
,  // measure 63
0030
2000
3000
0200
,  // measure 64
0300
0000
0000
0000
,  // measure 65
0000
0000
0000
0000
,  // measure 66
0001
0100
0001
0100
,  // measure 67
0010
1000
0001
0110
,  // measure 68
1000
0001
0010
0100
,  // measure 69
1000
0001
0100
1100
,  // measure 70
1001
0100
0001
0010
,  // measure 71
0001
0010
1000
0110
,  // measure 72
1000
0100
0010
0001
,  // measure 73
1010
1010
0101
0101
,  // measure 74
0010
0000
0000
0100
0000
0000
0010
0000
,  // measure 75
1000
0001
0100
0010
,  // measure 76
1000
0000
0000
0010
0000
0000
0001
0000
,  // measure 77
0010
0100
0010
0010
,  // measure 78
1001
0000
0000
0010
0000
0000
0020
0000
,  // measure 79
0000
0000
0030
0000
,  // measure 80
1001
0000
0000
0100
0000
0000
0200
0000
,  // measure 81
0000
0000
0000
0000
,  // measure 82
0300
0000
0000
0000
;

//---------------dance-single - DIFFICULT----------------
#NOTES:
     dance-single:
     DIFFICULT:
     Medium:
     7:
     0.461,0.517,0.166,0.257,0.000: // measure 1
0000
0000
0000
0000
,  // measure 2
0000
0000
0000
0000
,  // measure 3
0000
0000
0000
0000
,  // measure 4
0000
0000
0000
0000
,  // measure 5
0002
0000
0000
0003
,  // measure 6
0002
0003
0001
1000
,  // measure 7
0020
0030
0200
0300
,  // measure 8
0002
0000
0000
0003
,  // measure 9
2002
0000
0000
3003
,  // measure 10
0020
0030
0100
0001
,  // measure 11
2000
3000
0020
0030
,  // measure 12
0200
0000
0000
0300
,  // measure 13
0002
0000
0000
0000
0000
0003
0000
0000
,  // measure 14
0020
0030
0001
1000
,  // measure 15
0020
0030
2000
3000
,  // measure 16
0200
0000
0000
0000
,  // measure 17
0000
0000
0000
0300
,  // measure 18
1000
0000
0100
0010
0000
0001
0010
0001
,  // measure 19
0100
0000
0010
0100
0000
0010
1000
0001
,  // measure 20
0100
0000
0001
0010
0000
1000
0100
0010
,  // measure 21
0001
0000
0100
0010
0000
0010
1000
0001
,  // measure 22
1000
0000
0001
0100
0000
0100
0001
0010
,  // measure 23
1000
0000
0010
0100
0000
1000
0100
0001
,  // measure 24
0010
0000
0100
0010
0000
0100
1000
0001
,  // measure 25
0010
0000
0010
0000
1000
0100
0001
0100
,  // measure 26
1000
0000
1000
0100
0000
0100
0010
0000
,  // measure 27
0010
0100
0000
0100
0010
0001
0010
0000
,  // measure 28
0001
0000
0001
0100
0000
0100
0010
0000
,  // measure 29
0010
0100
0000
0100
0010
1000
0010
0000
,  // measure 30
0100
0000
0001
0100
0000
0100
0010
0000
,  // measure 31
0001
0100
0000
1000
0100
0010
0001
0000
,  // measure 32
0010
0000
0010
0100
0000
1000
0010
0000
,  // measure 33
0010
0100
0000
0001
0100
0001
0010
0000
,  // measure 34
1000
0000
0001
0100
0000
1000
0100
0000
,  // measure 35
0010
0001
0000
0010
1000
0100
0010
0000
,  // measure 36
0100
0000
0010
0100
0000
1000
0001
0000
,  // measure 37
0100
0010
0000
1000
0010
1000
0100
0000
,  // measure 38
1001
0000
0000
0101
0000
0000
2200
0000
,  // measure 39
0000
0000
3300
0000
,  // measure 40
0110
0000
0000
1001
0000
0000
0220
0000
,  // measure 41
0000
0000
0330
0000
0010
0100
0001
1000
,  // measure 42
0010
0000
0101
0000
1000
1000
0100
0000
,  // measure 43
1000
0100
0010
0000
0001
0010
0100
0000
,  // measure 44
0001
0000
0110
0000
0001
0001
0010
0000
,  // measure 45
0001
0100
1000
0000
1000
0100
0001
0000
,  // measure 46
0100
0000
1100
0000
0100
0001
0010
0000
,  // measure 47
0100
1000
0010
0000
0010
0001
0100
0000
,  // measure 48
1001
0000
0010
0000
1000
0001
0100
0000
,  // measure 49
0202
0000
0000
0303
,  // measure 50
1000
1000
1000
0000
0010
0100
0010
0000
,  // measure 51
0001
0001
0001
0000
1000
0100
0001
0000
,  // measure 52
0100
0100
0100
0000
0001
0100
1000
0000
,  // measure 53
0010
0010
0010
1000
0010
0001
0100
0000
,  // measure 54
0001
0100
0001
1000
0100
1000
0010
0000
,  // measure 55
1000
0010
1000
0001
0010
0001
0100
0000
,  // measure 56
0010
0100
0010
1000
0001
0100
0010
0000
,  // measure 57
1000
1000
1000
0100
0001
0001
0001
0000
,  // measure 58
1002
0100
0000
0100
,  // measure 59
0010
1000
0000
1003
,  // measure 60
2001
0010
0000
0010
,  // measure 61
0100
0001
0000
3100
,  // measure 62
0001
0200
0000
0010
,  // measure 63
1000
0302
0000
0010
,  // measure 64
0003
0000
0000
0000
,  // measure 65
0000
0000
0000
0000
,  // measure 66
0001
0000
0100
0010
0000
0010
1000
0010
,  // measure 67
0100
0000
1000
0100
0000
0001
1000
0100
,  // measure 68
0010
0000
0001
0100
0000
0010
1000
0010
,  // measure 69
0001
0000
0010
0100
0000
1000
0100
0001
,  // measure 70
0010
0000
0100
0010
0000
0001
1000
0001
,  // measure 71
0010
0000
0100
1000
0000
0010
0001
0010
,  // measure 72
0100
0000
0010
0100
0000
1000
0100
0001
,  // measure 73
1000
0000
1000
0000
0001
0100
1000
0100
,  // measure 74
0001
0000
0001
0100
0000
0100
0010
0000
,  // measure 75
0010
1000
0000
0001
0100
0010
1000
0000
,  // measure 76
1000
0000
1000
0010
0000
0010
0100
0000
,  // measure 77
0100
0001
0000
1000
0010
0100
0001
0000
,  // measure 78
1001
0000
0000
1010
0000
0000
0220
0000
,  // measure 79
0000
0000
0330
0000
0001
1000
0001
0000
,  // measure 80
1001
0000
0000
1100
0000
0000
0202
0000
,  // measure 81
0000
0000
0303
0000
1000
0100
0010
0000
,  // measure 82
0002
0000
0000
0000
,  // measure 83
0000
0000
0000
0000
,  // measure 84
0003
0000
0000
0000
;

//---------------dance-single - EXPERT----------------
#NOTES:
     dance-single:
     EXPERT:
     Hard:
     9:
     0.612,0.654,0.183,0.307,0.141: // measure 1
0000
0000
0000
0000
,  // measure 2
0000
0000
0000
0000
,  // measure 3
0000
0000
0000
0000
,  // measure 4
0000
0000
0000
0000
,  // measure 5
0020
0000
0000
0000
,  // measure 6
2030
0000
0001
0010
,  // measure 7
3002
0000
2003
0000
,  // measure 8
3200
0000
0000
0300
,  // measure 9
2000
0010
0010
0010
0010
0000
3010
0000
,  // measure 10
0002
0100
0100
0100
0100
0000
0100
0003
,  // measure 11
0200
0010
0010
0010
1000
0000
0301
0000
,  // measure 12
0200
0000
0001
0000
1000
0000
0001
0300
,  // measure 13
2000
0010
0010
0010
0001
0000
3100
0000
,  // measure 14
0002
0010
0010
0010
1000
0000
0103
0000
,  // measure 15
2000
0010
0001
3100
,  // measure 16
0020
0000
0000
0000
,  // measure 17
0000
0000
0000
0030
,  // measure 18
1000
0000
0100
0000
0010
0000
0100
0000
0000
1000
0010
0000
0100
0000
0010
0000
,  // measure 19
1000
0000
0001
0000
0100
0000
1000
0000
0000
0001
0100
0000
0010
0000
0100
0000
,  // measure 20
0010
0000
1000
0000
0100
0000
0010
0000
0000
0001
1000
0000
0001
0000
0010
0000
,  // measure 21
0100
0000
1000
0000
0010
0000
0100
0000
0000
0010
1000
0000
0001
0000
0100
0000
,  // measure 22
0110
0000
0001
0000
1000
0000
0100
0000
0000
1000
0001
0000
1000
0000
0010
0000
,  // measure 23
0001
0000
0010
0000
1000
0000
0001
0000
0000
0001
0100
0000
0010
0000
0100
0000
,  // measure 24
1000
0000
0100
0000
0010
0000
0100
0000
0000
0001
0010
0000
0100
0000
1000
0000
,  // measure 25
0010
0000
0000
0000
0010
0000
0000
0000
1000
0000
0100
0000
1000
0001
1000
0001
,  // measure 26
1000
1000
0100
0100
1000
0001
0010
0000
,  // measure 27
0001
0001
0100
0100
0010
1000
0010
0000
,  // measure 28
0100
0100
0010
0010
1000
0100
0010
0000
,  // measure 29
0001
0010
1000
0010
0001
0100
1000
0100
,  // measure 30
0001
0001
0100
0010
0010
1000
0001
0000
,  // measure 31
1000
1000
1000
0010
0100
0001
0010
0000
,  // measure 32
0100
0010
0001
0100
0010
0001
0100
0000
,  // measure 33
1000
0100
0010
0100
0010
1000
0100
0000
,  // measure 34
0110
0001
1000
0100
1000
0100
0001
0000
,  // measure 35
0110
0001
0100
1000
0100
0001
1000
0000
,  // measure 36
1001
0100
1000
0010
0100
0010
0001
0000
,  // measure 37
1001
0100
0010
0001
0010
0100
1000
0000
,  // measure 38
1001
0000
0000
0011
0000
0000
0220
0000
,  // measure 39
0000
0000
0330
0000
1000
0001
1000
0001
,  // measure 40
0101
0000
0000
1100
0000
0000
2002
0000
,  // measure 41
0000
0000
3003
0000
0100
0010
0100
0010
,  // measure 42
1000
0000
0000
0000
0010
0000
0100
0000
0001
0100
0001
0000
1000
0000
0100
0000
,  // measure 43
1000
0000
0000
0000
0001
0000
0010
0000
0100
0010
0100
0000
0010
0000
1000
0000
,  // measure 44
0001
0000
0000
0000
1000
0000
0100
0000
1000
0001
0100
0000
0001
0000
0010
0000
,  // measure 45
0100
0000
0000
0000
0001
0000
0100
0000
1000
0100
0001
0000
1000
0000
0010
0000
,  // measure 46
0001
0000
0000
0000
0010
0000
0100
0000
0001
0010
0100
0000
0010
0000
1000
0000
,  // measure 47
0100
0000
0000
0000
1000
0000
0100
0000
1000
0100
0010
0000
0001
0000
0010
0000
,  // measure 48
0100
0000
0000
0000
0010
0000
1000
0000
0001
0100
0001
0000
1000
0000
0010
0000
,  // measure 49
1010
0000
0101
0000
0010
1000
0001
0000
,  // measure 50
0010
0000
0010
0000
0010
0000
1000
0100
1000
0100
1000
0000
0001
0000
0000
0000
,  // measure 51
0010
0000
0010
0000
0010
0000
1000
0010
1000
0001
0100
0000
0001
0000
0000
0000
,  // measure 52
0001
0000
0001
0000
0001
0000
0010
0100
1000
0100
0010
0000
1000
0000
0000
0000
,  // measure 53
0010
0000
0010
0000
0010
0000
0001
1000
0001
1000
0100
0000
1000
0000
0000
0000
,  // measure 54
0010
0000
0100
0000
0010
0000
0100
1000
0100
1000
0010
0000
0010
0000
0000
0000
,  // measure 55
0001
0000
0010
0000
0100
0000
1000
0010
0100
0001
0010
0000
0001
0000
0000
0000
,  // measure 56
0001
0000
0100
0000
1000
0000
0010
0100
0001
0100
1000
0000
0100
0000
0000
0000
,  // measure 57
1000
0000
1000
0000
1000
0000
0001
0010
0001
1000
0100
0000
1000
0000
0000
0000
,  // measure 58
2000
0002
0003
0020
,  // measure 59
0030
0200
0300
3001
,  // measure 60
0020
2000
3000
0002
,  // measure 61
0003
2000
3000
0130
,  // measure 62
0002
2000
3000
0200
,  // measure 63
0300
0020
0030
2000
,  // measure 64
0000
0000
0000
0000
,  // measure 65
0000
0000
0000
3003
,  // measure 66
1000
0010
0100
0010
0000
1000
0100
0100
,  // measure 67
1000
0100
0010
0001
0000
0010
0001
1000
,  // measure 68
0010
0100
0001
0100
0000
0001
1000
0100
,  // measure 69
0010
0001
0100
1000
0000
1000
0010
0100
,  // measure 70
1001
0100
0010
0001
0000
0010
0001
0001
,  // measure 71
0100
0010
1000
0010
0000
0100
0001
1000
,  // measure 72
0100
0010
0100
1000
0000
0010
0100
0001
,  // measure 73
1010
0000
0000
0000
0101
0000
0000
0000
0010
0000
1000
0000
0001
0100
0001
0100
,  // measure 74
0001
0001
0100
0010
0010
0100
0001
0000
,  // measure 75
0001
1000
0100
1000
0010
0100
0010
0000
,  // measure 76
1000
1000
0010
0010
0100
0010
1000
0000
,  // measure 77
0010
0100
1000
0001
0100
0010
1000
0000
,  // measure 78
0101
0000
0000
0110
0000
0000
2020
0000
,  // measure 79
0000
0000
3030
0000
0010
0100
0001
1000
,  // measure 80
0220
0000
0330
1001
0000
0000
0220
0000
,  // measure 81
0000
0330
0000
0000
0010
1000
0001
0100
,  // measure 82
0020
0000
0000
0000
,  // measure 83
0000
0000
0000
0000
,  // measure 84
0030
0000
0000
0000
;

//---------------dance-single - BEGINNER----------------
#NOTES:
     dance-single:
     BEGINNER:
     Beginner:
     2:
     0.166,0.232,0.083,0.000,0.000: // measure 1
0000
0000
0000
0000
,  // measure 2
0000
0000
0000
0000
,  // measure 3
0000
0000
0000
0000
,  // measure 4
0000
0000
0000
0000
,  // measure 5
1000
0000
0000
0000
,  // measure 6
1000
0000
0000
0000
,  // measure 7
0010
0000
0000
0000
,  // measure 8
0100
0000
0000
0000
,  // measure 9
1001
0000
0000
0000
,  // measure 10
0001
0000
0000
0000
,  // measure 11
0100
0000
0000
0000
,  // measure 12
0010
0000
0000
0000
,  // measure 13
0001
0000
0000
0000
,  // measure 14
1000
0000
0000
0000
,  // measure 15
0010
0000
0000
0000
,  // measure 16
0100
0000
0000
0000
,  // measure 17
0000
0000
0000
0000
,  // measure 18
1000
1000
0000
1000
,  // measure 19
0000
0001
0000
0001
,  // measure 20
0000
0010
0000
0010
,  // measure 21
0000
0001
0000
0001
,  // measure 22
0000
0100
0000
0100
,  // measure 23
0000
1000
0000
1000
,  // measure 24
0000
0010
0000
0010
,  // measure 25
0010
0010
0010
0000
,  // measure 26
1000
0000
1000
0000
,  // measure 27
1000
1000
1000
0000
,  // measure 28
0001
0000
0001
0000
,  // measure 29
0001
0001
0001
0000
,  // measure 30
1000
0000
1000
0000
,  // measure 31
1000
1000
1000
0000
,  // measure 32
0001
0000
0001
0000
,  // measure 33
0001
0001
0001
0000
,  // measure 34
0010
0000
0010
0000
,  // measure 35
0010
0010
0010
0000
,  // measure 36
0100
0000
0100
0000
,  // measure 37
0100
0100
0100
0000
,  // measure 38
1001
0000
0000
1001
,  // measure 39
0000
0000
0000
0000
,  // measure 40
1001
0000
0000
1001
,  // measure 41
0000
0000
0000
0000
,  // measure 42
0010
0010
0000
1000
,  // measure 43
0000
0100
0000
0001
,  // measure 44
0001
0001
0000
0100
,  // measure 45
0000
1000
0000
0000
,  // measure 46
1000
1000
0000
0100
,  // measure 47
0000
0001
0000
0010
,  // measure 48
0010
0000
0000
0000
,  // measure 49
0100
0000
0000
0000
,  // measure 50
0001
0000
0001
0000
,  // measure 51
0001
0000
0000
0000
,  // measure 52
1000
0000
1000
0000
,  // measure 53
1000
0000
0000
0000
,  // measure 54
0010
0000
0010
0000
,  // measure 55
0010
0000
0000
0000
,  // measure 56
0100
0000
0000
0000
,  // measure 57
0010
0000
0000
0000
,  // measure 58
0100
0000
0000
0000
,  // measure 59
0010
0000
0000
0000
,  // measure 60
0100
0000
0000
0000
,  // measure 61
0010
0000
0000
0000
,  // measure 62
1001
0000
0000
0000
,  // measure 63
1000
0000
0000
0000
,  // measure 64
0001
0000
0000
0000
,  // measure 65
0000
0000
0000
0000
,  // measure 66
0001
0001
0000
0010
,  // measure 67
0000
0100
0000
1000
,  // measure 68
0000
0010
0000
1000
,  // measure 69
0000
0100
0000
0001
,  // measure 70
0000
0100
0000
0001
,  // measure 71
0000
1000
0000
0010
,  // measure 72
0000
1000
0000
0001
,  // measure 73
0000
0100
0100
0100
,  // measure 74
0100
0000
0010
0000
,  // measure 75
0100
0100
0100
0000
,  // measure 76
0001
0000
1000
0000
,  // measure 77
0001
0001
0001
0000
,  // measure 78
1001
0000
0000
1001
,  // measure 79
0000
0000
0000
0000
,  // measure 80
1001
0000
0000
1001
;

//---------------dance-single - CHALLENGE----------------
#NOTES:
     dance-single:
     CHALLENGE:
     Challenge:
     10:
     0.664,0.861,0.183,0.307,0.253: // measure 1
0000
0000
0000
0000
,  // measure 2
0000
0000
0000
0000
,  // measure 3
0000
0000
0000
0000
,  // measure 4
0000
0000
0000
0000
,  // measure 5
0020
0000
0000
0000
,  // measure 6
2030
0000
0001
0010
,  // measure 7
3002
0000
2003
0000
,  // measure 8
3200
0000
0000
0300
,  // measure 9
2000
0010
0010
0010
0010
0000
3010
0000
,  // measure 10
0002
0100
0100
0100
0100
0000
0100
0003
,  // measure 11
0200
0010
0010
0010
1000
0000
0301
0000
,  // measure 12
0200
0000
0001
0000
1000
0000
0001
0300
,  // measure 13
2000
0010
0010
0010
0001
0000
3100
0000
,  // measure 14
0002
0010
0010
0010
1000
0000
0103
0000
,  // measure 15
2000
0010
0001
3100
,  // measure 16
0020
0000
0000
0000
,  // measure 17
0000
0000
0000
0030
,  // measure 18
1000
0000
0100
0000
0010
0000
0100
0000
0000
1000
0010
0000
0100
0000
0010
0000
,  // measure 19
1000
0000
0001
0000
0100
0000
1000
0000
0000
0001
0100
0000
0010
0000
0100
0000
,  // measure 20
0010
0000
1000
0000
0100
0000
0010
0000
0000
0001
1000
0000
0001
0000
0010
0000
,  // measure 21
0100
0000
1000
0000
0010
0000
0100
0000
0000
0010
1000
0000
0001
0000
0100
0000
,  // measure 22
0110
0000
0001
0000
1000
0000
0100
0000
0000
1000
0001
0000
1000
0000
0010
0000
,  // measure 23
0001
0000
0010
0000
1000
0000
0001
0000
0000
0001
0100
0000
0010
0000
0100
0000
,  // measure 24
1000
0000
0100
0000
0010
0000
0100
0000
0000
0001
0010
0000
0100
0000
1000
0000
,  // measure 25
0010
0000
0000
0000
0010
0000
0000
0000
1000
0000
0100
0000
1000
0001
1000
0001
,  // measure 26
1000
1000
0100
0100
1000
0001
0010
0000
,  // measure 27
0001
0001
0100
0100
0010
1000
0010
0000
,  // measure 28
0100
0100
0010
0010
1000
0100
0010
0000
,  // measure 29
0001
0010
1000
0010
0001
0100
1000
0100
,  // measure 30
0001
0001
0100
0010
0010
1000
0001
0000
,  // measure 31
1000
1000
1000
0010
0100
0001
0010
0000
,  // measure 32
0100
0010
0001
0100
0010
0001
0100
0000
,  // measure 33
1000
0100
0010
0100
0010
1000
0100
0000
,  // measure 34
0110
0001
1000
0100
1000
0100
0001
0000
,  // measure 35
0110
0001
0100
1000
0100
0001
1000
0000
,  // measure 36
1001
0100
1000
0010
0100
0010
0001
0000
,  // measure 37
1001
0100
0010
0001
0010
0100
1000
0000
,  // measure 38
1001
0000
0000
0011
0000
0000
0220
0000
,  // measure 39
0000
0000
0330
0000
1000
0001
1000
0001
,  // measure 40
0101
0000
0000
1100
0000
0000
2002
0000
,  // measure 41
0000
0000
3003
0000
0100
0010
0100
0010
,  // measure 42
1000
0000
0000
0000
0010
0000
0100
0000
0001
0100
0001
0000
1000
0000
0100
0000
,  // measure 43
1000
0000
0000
0000
0001
0000
0010
0000
0100
0010
0100
0000
0010
0000
1000
0000
,  // measure 44
0001
0000
0000
0000
1000
0000
0100
0000
1000
0001
0100
0000
0001
0000
0010
0000
,  // measure 45
0100
0000
0000
0000
0001
0000
0100
0000
1000
0100
0001
0000
1000
0000
0010
0000
,  // measure 46
0001
0000
0000
0000
0010
0000
0100
0000
0001
0010
0100
0000
0010
0000
1000
0000
,  // measure 47
0100
0000
0000
0000
1000
0000
0100
0000
1000
0100
0010
0000
0001
0000
0010
0000
,  // measure 48
0100
0000
0000
0000
0010
0000
1000
0000
0001
0100
0001
0000
1000
0000
0010
0000
,  // measure 49
1010
0000
0101
0000
0010
1000
0001
0000
,  // measure 50
0010
0000
0010
0000
0010
0000
1000
0100
1000
0100
1000
0000
0001
0100
0001
0100
,  // measure 51
0010
0000
0010
0000
0010
0000
1000
0010
1000
0001
0100
0000
0001
0010
0100
1000
,  // measure 52
0001
0000
0001
0000
0001
0000
0010
0100
1000
0100
0010
0000
1000
0001
1000
0100
,  // measure 53
0010
0000
0010
0000
0010
0000
0001
1000
0001
1000
0100
0000
1000
0001
1000
0001
,  // measure 54
0010
0000
0100
0000
0010
0000
0100
1000
0100
1000
0010
0000
0010
1000
0010
0100
,  // measure 55
0001
0000
0010
0000
0100
0000
1000
0010
0100
0001
0010
0000
0001
0010
0100
0010
,  // measure 56
0001
0000
0100
0000
1000
0000
0010
0100
0001
0100
1000
0000
0100
0010
0100
0001
,  // measure 57
1000
0000
1000
0000
1000
0000
0001
0010
0001
1000
0100
0000
1000
0100
0001
0100
,  // measure 58
2000
0002
0003
0020
,  // measure 59
0030
0200
0300
3001
,  // measure 60
0020
2000
3000
0002
,  // measure 61
0003
2000
3000
0130
,  // measure 62
0002
2000
3000
0200
,  // measure 63
0300
0020
0030
2000
,  // measure 64
0000
0000
0000
0000
,  // measure 65
0000
0000
0000
3003
,  // measure 66
1000
0000
0010
0000
0100
0000
0010
1000
0001
0000
1000
0000
0100
0000
0100
0000
,  // measure 67
1000
0000
0100
0000
0010
0000
0001
0010
0100
0000
0010
0000
0001
0000
1000
0000
,  // measure 68
0010
0000
0100
0000
0001
0000
0100
0010
0100
0000
0001
0000
1000
0000
0100
0000
,  // measure 69
0010
0000
0001
0000
0100
0000
1000
0100
0001
0000
1000
0000
0010
0000
0100
0000
,  // measure 70
1001
0000
0100
0000
0010
0000
0001
0010
1000
0000
0010
0000
0001
0000
0001
0000
,  // measure 71
0100
0000
0010
0000
1000
0000
0010
0100
1000
0000
0100
0000
0001
0000
1000
0000
,  // measure 72
0100
0000
0010
0000
0100
0000
1000
0010
1000
0000
0010
0000
0100
0000
0001
0000
,  // measure 73
1010
0000
0000
0000
0101
0000
0000
0000
0010
0000
1000
0000
0001
0100
0001
0100
,  // measure 74
0001
0001
0100
0010
0010
0100
0001
1000
,  // measure 75
0001
1000
0100
1000
0010
0100
0010
0000
,  // measure 76
1000
1000
0010
0010
0100
0010
1000
0100
,  // measure 77
0010
0100
1000
0001
0100
0010
1000
0000
,  // measure 78
0101
0000
0000
0110
0000
0000
2020
0000
,  // measure 79
0000
0000
3030
0000
0010
0100
0001
1000
,  // measure 80
0220
0000
0330
1001
0000
0000
0220
0000
,  // measure 81
0000
0000
0330
0000
0000
0000
0000
0000
0010
1000
0010
1000
0001
0100
0001
0100
,  // measure 82
0020
0000
0000
0000
,  // measure 83
0000
0000
0000
0000
,  // measure 84
0030
0000
0000
0000
;
