#TITLE:MAX 300;
#SUBTITLE:;
#ARTIST:Ω;
#TITLETRANSLIT:;
#SUBTITLETRANSLIT:;
#ARTISTTRANSLIT:OMEGA;
#CREDIT:;
#BANNER:MAX 300.png;
#BACKGROUND:MAX 300-bg.png;
#LYRICSPATH:;
#CDTITLE:./CDTITLES/DDRMAX -Dance Dance Revolution 6thMIX-.PNG;
#MUSIC:MAX 300.mp3;
#OFFSET:-0.061;
#SAMPLESTART:12.810;
#SAMPLELENGTH:15.500;
#SELECTABLE:YES;
#DISPLAYBPM:300.000;
#BPMS:0.000=300.100,286.000=214.290,287.000=145.160,288.000=104.650,289.000=64.290,290.000=300.130;
#STOPS:290.000=1.200
;
#BGCHANGES:;

//---------------dance-single - ----------------
#NOTES:
     dance-single:
     :
     Hard:
     9:
     0.660,0.826,0.285,0.066,0.000:
0000
0000
0000
0000
,
0000
0000
0000
0000
,
0000
0000
0000
0000
,
0000
0000
0000
0000
,
1000
0000
0100
0000
0010
0001
1000
0100
,
0000
1000
0010
0000
1000
0100
0000
1000
,
0010
0000
0000
0100
1000
0000
0000
0001
,
0100
0010
1000
0000
,
0001
0000
0100
0000
0010
0000
1000
0001
,
0000
0100
0000
0010
1000
0000
0001
0000
,
0100
1000
0000
0010
1000
0000
0000
0001
,
0100
0010
1000
0000
,
0100
0000
0001
1000
0001
1000
0000
0100
,
0000
0010
0000
1000
0001
0100
0010
0000
,
1000
0000
0001
0100
0010
0000
1000
0000
,
0001
0100
0000
0000
0010
0000
1000
0000
,
0001
0000
0100
0000
0010
0000
0000
1000
,
0001
0100
0000
0010
0000
1000
0000
0001
,
0100
0000
0010
0000
0000
1000
0000
0001
,
0100
0010
0000
0000
1000
0000
0001
0000
,
0100
0000
0010
0000
1000
0000
0000
0001
,
0100
0000
0010
0000
0000
1000
0000
0001
,
0100
0000
0010
0000
0000
1000
0000
0001
,
0100
0010
1000
0001
,
0100
0000
0010
0000
1000
0000
0001
0100
,
0000
0010
1000
0000
0000
0001
0000
0100
,
0000
0010
1000
0000
0000
0001
0000
0100
,
0000
0010
0000
1000
0001
0000
0100
0000
,
0010
0000
1000
0000
0001
0100
0000
0000
,
0010
0000
1000
0000
0000
0001
0000
0000
,
1001
0000
0000
1001
0000
0000
1001
0000
,
1001
1001
1001
1001
,
0000
0010
1000
0000
0001
0000
0100
0000
,
0000
0010
0000
0000
1000
0000
0001
0000
,
0100
0000
0000
0010
0000
1000
0000
0101
,
0000
0010
1000
0001
,
0000
0100
0010
1000
,
0001
0100
0000
0010
,
1000
0001
0100
0010
,
1000
0001
0100
0000
,
0010
0000
1000
0000
0001
0000
0000
0100
,
1000
0100
0001
0100
,
0010
0000
1000
0000
0100
1000
0100
0000
,
0001
0100
0010
0000
,
1000
0001
0100
0010
,
1000
0001
0100
0010
,
1000
0001
0100
0010
,
1000
0001
0100
0010
,
1000
0000
0001
0000
0100
0000
0000
0010
,
1000
0001
0000
0100
,
0010
0000
1000
0001
,
0100
0010
1000
0001
,
0100
0010
1000
0001
,
0100
0010
0010
0010
,
0010
0000
1000
0000
,
0001
0000
0100
0000
,
0010
0000
1000
0000
0000
0001
0000
0000
,
0100
0000
0010
0000
0000
1000
0000
0001
,
0000
0000
0100
0000
0000
0010
0000
0000
,
1000
0000
0001
0000
0100
0000
0000
0010
,
0000
0000
1000
0000
0000
0001
0000
0100
,
0010
0000
1000
0000
0000
0001
0000
0100
,
0010
0000
0000
1000
0000
0001
0000
0100
,
0010
1000
0001
0000
,
0100
0000
0010
0000
0000
1000
0000
0001
,
0100
0000
0010
0000
0000
1000
0000
0001
,
0100
0000
0010
0000
0000
1000
0000
0001
,
0100
0010
1000
0000
,
0001
0000
0010
0000
0000
1000
0000
0001
,
0100
0000
0010
0000
1000
0000
0000
0001
,
0000
0100
0000
0010
1000
0000
0001
0100
,
0000
0010
1000
0000
2002
0000
0000
0000
,
0000
0000
0000
0000
3003
0000
0000
1000
,
0000
0100
0000
0010
0000
1000
0001
0000
,
0100
0010
1000
0001
,
0100
0000
0010
0000
1000
0000
0001
0100
,
0000
0010
0000
1000
0000
0100
1000
0100
,
1000
0100
1000
0100
1000
0000
0001
0000
,
0100
0010
0000
1000
0000
0000
0001
0100
,
0000
0000
0010
0000
1000
0001
0100
0000
,
0000
0010
0000
1000
0000
0000
0100
1000
,
0100
1000
0100
0000
0000
0001
0000
0001
,
0000
0100
0000
0010
0000
0010
0010
0000
,
1000
1000
1000
0001
,
0001
0001
0000
0000
0100
0000
0010
0000
,
1000
0000
0000
0001
0100
0000
0010
0000
,
1000
0000
0001
0000
0100
0000
0000
0010
,
0000
0010
0010
0000
1000
0000
0100
1000
,
0100
1000
0100
1000
0100
0000
0100
0000
,
0000
1000
0000
0001
0000
0100
0000
0010
,
0000
1001
0000
0110
0000
0000
0001
1000
,
0000
0001
1000
0000
1001
0000
1100
0000
,
1100
0000
0000
0011
0000
0000
0000
1100
,
0000
0010
0000
0000
0110
0000
1001
0000
,
0000
1000
0100
0100
,
0000
0010
0000
0001
0000
0001
0000
0000
,
1001
0000
0000
1001
0000
0000
0010
0000
,
0000
1000
0000
0000
0001
0000
0000
0000
,
1001
0000
0000
1001
0000
0000
0010
0000
,
0000
1000
0000
0000
0001
0000
0000
0000
,
1001
0000
0000
1001
0000
0000
0001
0000
,
0000
0100
0000
0000
2002
0000
0000
0000
,
0000
0000
0000
0000
3003
0000
0010
1000
,
0000
0001
0000
0000
0000
0000
0010
0010
,
0000
1000
0000
0000
0000
0001
0000
0001
,
0001
0000
0100
0100
0000
0100
2102
0000
,
0000
0000
0000
0000
,
0000
0000
0000
0000
0000
0000
0000
0000
0000
0000
0000
0000
0000
0000
0000
0000
0000
0000
0000
0000
0000
0000
0000
0000
0000
0000
0000
0000
0000
0000
0000
0000
0000
0000
0000
0000
0000
0000
0000
0000
0000
0000
0000
0000
0000
0000
0000
0000
0000
0000
0000
0000
0000
0000
0000
0000
0000
0000
0000
0000
0000
0000
0000
0000
0000
0000
0000
0000
0000
0000
0000
0000
0000
0000
0000
0000
0000
0000
0000
0000
0000
0000
0000
0000
0000
0000
0000
0000
0000
0000
0000
0000
0000
0000
0000
0000
0000
3003
0000
0000
0000
0000
0000
0000
0000
0000
0000
0000
0000
0000
0000
0000
0000
0000
0000
0000
0000
0000
0000
0000
0000
0000
0000
0000
0000
0000
0000
0000
0000
0000
0000
0000
0000
0000
0000
0000
0000
0000
0000
0000
0000
0000
0000
0000
0000
0000
0000
0000
0000
0000
0000
0000
0000
0000
0000
0000
0000
0000
0000
0000
0000
0000
0000
0000
0000
0000
0000
0000
0000
0000
0000
0000
0000
0000
0000
0000
0000
0000
0000
0000
0000
0000
0000
0000
0000
0000
0000
0000
0000
0000
0000
0000
;

//---------------dance-single - ----------------
#NOTES:
     dance-single:
     :
     Medium:
     7:
     0.420,0.531,0.055,0.044,0.000:
0000
0000
0000
0000
,
0000
0000
0000
0000
,
0000
0000
0000
0000
,
0000
0000
0000
0000
,
0001
0100
0010
0000
,
1000
0001
0100
0000
,
0010
0000
0000
0000
0000
1000
0000
0000
,
0001
0100
0010
0000
,
1000
0000
0000
0000
0000
0001
0000
0000
,
0000
0100
0000
0000
0010
0000
0000
0000
,
1000
0000
0000
0000
0000
0001
0000
0000
,
0100
0010
1000
0000
,
0001
0100
0010
0000
,
1000
0001
0100
0010
,
1000
0001
0100
0000
,
0010
0010
0010
0010
,
1000
0001
0100
0000
,
0010
1000
0001
0000
,
0100
0000
0010
0000
0000
1000
0000
0000
,
1000
1000
0001
0100
,
0010
1000
0001
0000
,
0000
0100
0000
0010
1000
0000
0000
0000
,
0001
0000
0100
0000
0000
0010
0000
1000
,
0001
0100
0010
1000
,
0001
0000
0100
0000
0000
0010
0000
0000
,
0000
1000
0001
0000
0100
0000
0000
0000
,
0010
0000
0010
0000
,
1000
0001
0100
0000
,
0010
0000
0000
0000
0000
1000
0000
0000
,
0000
0001
0000
0100
0000
0010
0000
0000
,
0000
1000
0000
0000
0000
0001
0000
0000
,
0100
0010
1000
0000
,
0001
0000
0100
0000
,
0010
0000
1000
0000
,
0001
0100
0010
0000
,
1000
0000
0001
0000
,
0100
0000
0010
0000
,
1000
0000
0001
0100
,
0010
0000
1000
0000
,
0001
0000
0100
0000
,
0010
0000
1000
0001
,
0100
0000
0010
0000
,
0010
1000
0001
0100
,
0010
1000
0001
0000
,
0100
0000
0010
0000
,
1000
0000
0001
0000
,
0100
0000
0010
0000
,
1000
0000
0001
0000
,
0100
0000
0010
0000
,
1000
0001
0000
0000
,
0100
0000
0010
0000
,
1000
0000
0001
0000
,
0100
0000
0010
0000
,
0000
1000
0000
0001
0000
0100
0000
0010
,
0000
0000
1001
0000
,
0110
0000
1001
0000
,
1000
0000
0000
0000
0100
0000
0000
0010
,
0000
0000
0001
0000
,
0001
0000
0100
0000
,
0010
1000
0001
0000
,
0100
0000
0010
0000
,
1000
0000
0001
0000
,
0100
0000
0000
0000
0000
0010
0000
0000
,
1000
0001
0100
0000
,
0010
0000
1000
0000
,
0001
0000
0100
0000
,
0010
0000
1000
0000
,
0001
0000
0100
0000
,
0010
0000
0000
0000
,
1000
0000
0000
0000
,
0001
0000
0100
0000
,
0010
0000
2002
0000
,
0000
0000
3003
0000
,
1000
0001
0000
0100
,
0000
0010
0000
1000
,
0000
0001
0000
0100
,
0010
1000
0000
0001
,
0000
0100
0000
0010
,
1000
0001
0000
0100
,
0000
0010
1000
0001
,
0000
0000
0100
0000
0000
0000
0000
0010
,
1000
0001
0000
0100
,
0010
1000
0000
0001
,
0100
0010
0000
1000
,
0001
0000
0100
0000
0000
0010
0000
1000
,
0000
0001
0100
0010
,
0000
1000
0001
0100
,
0010
0000
1000
0001
,
0100
0010
0000
1000
,
0000
0001
0000
0000
0100
0000
0010
0000
,
1000
0000
0000
0001
0000
0000
0100
0000
,
0000
0010
0000
0000
1000
0000
0001
0000
,
0100
0000
0000
0010
0000
0000
1000
0000
,
0000
0001
0000
0000
0100
0000
0010
0000
,
1000
0000
0000
0001
0000
0000
0100
0000
,
0000
0010
0000
0010
0000
0000
0010
0000
,
1000
0000
0000
0001
0000
0000
0100
0000
,
0000
0010
0000
0000
1000
0000
0001
0000
,
0100
0000
0000
0010
0000
0000
1000
0000
,
0000
0001
0000
0000
0100
0000
0010
0000
,
0000
1000
0000
0000
0001
0000
0100
0000
,
0000
0010
0000
0000
1000
0000
0001
0000
,
0000
0100
0000
0000
0000
0000
1000
0000
,
0000
0000
0000
0000
0000
0000
0000
0001
,
0000
0000
0000
0100
,
0000
0010
0000
2002
,
0000
0000
0000
0000
,
0000
0000
0000
0000
0000
0000
0000
0000
0000
0000
0000
0000
0000
0000
0000
0000
0000
0000
0000
0000
0000
0000
0000
0000
0000
0000
0000
0000
0000
0000
0000
0000
0000
0000
0000
0000
0000
0000
0000
0000
0000
0000
0000
0000
0000
0000
0000
0000
0000
0000
0000
0000
0000
0000
0000
0000
0000
0000
0000
0000
0000
0000
0000
0000
0000
0000
0000
0000
0000
0000
0000
0000
0000
0000
0000
0000
0000
0000
0000
0000
0000
0000
0000
0000
0000
0000
0000
0000
0000
0000
0000
0000
0000
0000
0000
0000
0000
0000
3003
0000
0000
0000
0000
0000
0000
0000
0000
0000
0000
0000
0000
0000
0000
0000
0000
0000
0000
0000
0000
0000
0000
0000
0000
0000
0000
0000
0000
0000
0000
0000
0000
0000
0000
0000
0000
0000
0000
0000
0000
0000
0000
0000
0000
0000
0000
0000
0000
0000
0000
0000
0000
0000
0000
0000
0000
0000
0000
0000
0000
0000
0000
0000
0000
0000
0000
0000
0000
0000
0000
0000
0000
0000
0000
0000
0000
0000
0000
0000
0000
0000
0000
0000
0000
0000
0000
0000
0000
0000
0000
0000
0000
0000
;

//---------------dance-single - ----------------
#NOTES:
     dance-single:
     :
     Easy:
     4:
     0.227,0.295,0.022,0.044,0.000: // measure 1
0000
0000
0000
0000
,  // measure 2
0000
0000
0000
0000
,  // measure 3
0000
0000
0000
0000
,  // measure 4
0000
0000
0000
0000
,  // measure 5
0001
0000
0000
0000
,  // measure 6
0100
0000
0000
0000
,  // measure 7
0010
0000
1000
0000
,  // measure 8
0001
0000
0000
0000
,  // measure 9
0100
0000
0000
0000
,  // measure 10
0010
0000
0000
0000
,  // measure 11
1000
0000
0001
0000
,  // measure 12
0100
0000
0000
0000
,  // measure 13
0010
0000
1000
0000
,  // measure 14
0001
0000
0000
0000
,  // measure 15
0100
0000
0010
0000
,  // measure 16
1000
0000
0001
0000
,  // measure 17
0100
0000
0010
0000
,  // measure 18
1000
0000
0000
0000
,  // measure 19
0001
0000
0000
0000
,  // measure 20
0100
0000
0000
0000
,  // measure 21
0010
0000
1000
0000
,  // measure 22
0001
0000
0000
0000
,  // measure 23
0100
0000
0010
0000
,  // measure 24
1000
0000
0000
0000
,  // measure 25
0001
0000
0100
0000
,  // measure 26
0010
0000
0000
0000
,  // measure 27
1000
0000
0001
0000
,  // measure 28
0100
0010
0000
0000
,  // measure 29
1000
0000
0001
0000
,  // measure 30
0100
0000
0010
0000
,  // measure 31
1000
0000
0001
0000
,  // measure 32
0100
0000
0010
0000
,  // measure 33
1000
0000
0000
0000
,  // measure 34
0001
0000
0100
0000
,  // measure 35
0010
0000
0000
0000
,  // measure 36
1000
0000
0100
0000
,  // measure 37
0010
0000
0000
0000
,  // measure 38
1000
0000
0100
0000
,  // measure 39
1000
0000
0001
0000
,  // measure 40
0100
0000
0000
0000
,  // measure 41
0010
0000
1000
0000
,  // measure 42
0001
0000
0000
0000
,  // measure 43
0100
0000
0010
0000
,  // measure 44
1000
0000
0000
0000
,  // measure 45
0001
0000
0100
0000
,  // measure 46
0010
0000
0000
0000
,  // measure 47
1000
0000
0100
0000
,  // measure 48
0010
0000
0000
0000
,  // measure 49
1000
0000
0001
0000
,  // measure 50
0100
0000
0000
0000
,  // measure 51
0010
0000
1000
0000
,  // measure 52
0001
0000
0000
0000
,  // measure 53
0100
0000
0010
0000
,  // measure 54
1000
0000
0000
0000
,  // measure 55
0001
0000
0100
0000
,  // measure 56
0010
0000
0000
0000
,  // measure 57
1000
0000
0000
0000
,  // measure 58
0001
0000
0000
0000
,  // measure 59
0100
0000
0000
0000
,  // measure 60
0010
1000
0000
0000
,  // measure 61
0001
0000
0000
0000
,  // measure 62
0100
0000
0000
0000
,  // measure 63
0010
0000
0000
0000
,  // measure 64
1000
0000
0001
0000
,  // measure 65
0100
0000
0000
0000
,  // measure 66
0010
0000
0000
0000
,  // measure 67
1000
0000
0000
0000
,  // measure 68
0001
0000
0100
0000
,  // measure 69
0010
0000
0000
0000
,  // measure 70
1000
0000
0000
0000
,  // measure 71
0001
0000
0000
0000
,  // measure 72
0100
0000
0220
0000
,  // measure 73
0000
0000
0330
1000
,  // measure 74
0000
0001
0000
0100
,  // measure 75
0000
0000
0000
0010
,  // measure 76
0000
0000
0000
1000
,  // measure 77
0000
0000
0000
0001
,  // measure 78
0000
0000
0000
0100
,  // measure 79
0000
0000
0000
0010
,  // measure 80
0000
1000
0000
0001
,  // measure 81
0000
0000
0000
0100
,  // measure 82
0000
0000
0000
0010
,  // measure 83
0000
0000
0000
1000
,  // measure 84
0000
0000
0000
0001
,  // measure 85
0000
0000
0000
0100
,  // measure 86
0000
0000
0000
0010
,  // measure 87
0000
0000
0000
1000
,  // measure 88
0000
0000
0000
0001
,  // measure 89
0000
0100
0000
0010
,  // measure 90
0000
0000
0000
0000
,  // measure 91
1000
0000
0000
0000
,  // measure 92
0000
0000
0000
0000
,  // measure 93
0001
0000
1000
0000
,  // measure 94
0000
0000
0000
0010
,  // measure 95
0000
0000
0000
1000
,  // measure 96
0000
0000
0000
0001
,  // measure 97
0000
0000
0000
0100
,  // measure 98
0000
0010
0000
1000
,  // measure 99
0000
0000
0000
1000
,  // measure 100
0000
0100
0000
0010
,  // measure 101
0000
0000
0000
1000
,  // measure 102
0000
0001
0000
0100
,  // measure 103
0000
0000
0000
1000
,  // measure 104
0000
0000
0000
0001
,  // measure 105
0000
0000
0000
1000
,  // measure 106
0000
0100
0000
2002
,  // measure 107
0000
0000
0000
0000
,  // measure 108
0000
0000
0000
0000
0000
0000
0000
0000
0000
0000
0000
0000
0000
0000
0000
0000
0000
0000
0000
0000
0000
0000
0000
0000
0000
0000
0000
0000
0000
0000
0000
0000
0000
3003
0000
0000
0000
0000
0000
0000
0000
0000
0000
0000
0000
0000
0000
0000
0000
0000
0000
0000
0000
0000
0000
0000
0000
0000
0000
0000
0000
0000
0000
0000
;
