#TITLE:LOVE THIS FEELIN';
#SUBTITLE:;
#ARTIST:Chang Ma;
#TITLETRANSLIT:;
#SUBTITLETRANSLIT:;
#ARTISTTRANSLIT:;
#GENRE:;
#CREDIT:;
#BANNER:LOVE THIS FEELIN'.png;
#BACKGROUND:LOVE THIS FEELIN'-bg.png;
#LYRICSPATH:;
#CDTITLE:./CDTITLES/DANCE DANCE REVOLUTION HOME VERSION.PNG;
#MUSIC:LOVE THIS FEELIN'.mp3;
#OFFSET:-0.074;
#SAMPLESTART:65.610;
#SAMPLELENGTH:15.000;
#SELECTABLE:YES;
#DISPLAYBPM:95.000:190.000;
#BPMS:0.000=95.080,52.000=190.210;
#STOPS:124.500=0.316
,125.500=0.316
,126.500=0.316
,127.500=0.316
,136.500=0.316
,137.500=0.316
,138.500=0.316
,139.500=0.316
;
#BGCHANGES:;
#KEYSOUNDS:;

//---------------dance-single - ----------------
#NOTES:
     dance-single:
     :
     Medium:
     7:
     0.461,0.458,0.453,0.088,0.044,243.000,41.000,8.000,0.000,0.000,0.000,0.461,0.458,0.453,0.088,0.044,243.000,41.000,8.000,0.000,0.000,0.000:
0000
0000
0000
0000
,
0000
0000
0000
0000
,
0000
0000
0000
0000
,
0000
0000
0000
0000
,
0001
0010
0000
1000
0100
0000
0001
0010
,
0000
1000
0100
0000
0010
0001
0100
0010
,
1000
0010
0000
0001
0100
0000
1000
0010
,
0000
0001
0100
0000
0010
1000
0001
1000
,
0100
0000
0000
0010
0000
0000
0100
0000
0000
0011
0000
0000
1100
0000
0000
0000
,
0001
1000
0001
1000
0010
0010
0100
0000
,
0010
0000
0000
1000
0000
0000
0001
0000
0000
0000
0010
0000
0100
1000
0001
0000
,
0100
0000
0010
0100
0000
0010
0100
0000
0010
0100
0000
0000
0001
0000
0000
0000
,
1001
0000
0000
1001
0000
0000
0110
0000
0000
0000
1000
0000
0001
0000
0010
0000
,
0001
0000
0100
0010
0000
0010
0100
0000
,
0001
1000
0000
0000
1001
0000
0000
0000
,
0010
1000
0010
0000
0100
0001
0100
0000
,
0001
0010
0001
0000
1000
0000
0001
0100
,
1000
0000
0100
0000
0001
0010
0100
0000
,
1000
0000
0001
0000
0100
0010
0100
0000
,
0001
0000
0001
0000
1000
0100
1000
0000
,
0010
0100
0010
0100
0001
1000
0001
0000
,
0010
0100
0010
0100
1000
0001
1000
0000
,
0010
0010
0100
0100
,
0001
0000
0010
0000
0100
1000
0010
0001
,
0010
0000
0100
0000
0001
0010
1000
0010
,
0001
0000
0100
0000
0010
1000
0100
0001
,
0100
0000
0010
0000
0001
0100
0010
0001
,
0010
0000
0010
0000
1000
0100
1000
0000
,
0001
0010
0001
0010
0100
1000
0100
0000
,
1000
0010
1000
0010
0100
0001
0100
0000
,
0010
0010
1000
1000
,
0022
0000
0000
0033
2020
0000
0000
3030
,
0101
0010
1100
0001
,
0011
1010
0011
0100
,
2020
0000
0000
3030
0022
0000
0000
0033
,
1100
0010
0101
1000
,
1100
0011
1001
0010
,
0101
0000
0000
1000
0000
0001
0000
0000
,
0011
0000
1100
0000
0001
0100
0010
0000
,
1000
0001
0010
0001
,
0100
1000
0010
0001
,
1001
0000
0000
0010
0000
0100
0000
0000
,
1001
0000
1100
0000
0001
0010
0100
0000
,
0000
1000
0000
0000
0001
0000
0000
1000
,
0000
0000
0001
0000
0000
0010
0100
0000
,
1100
0000
0000
0010
0000
0100
0000
0000
,
0011
0000
1100
0000
0010
1000
0001
0000
,
0100
0010
0001
0100
,
1000
0010
0100
0001
,
1010
0000
0000
0100
0000
0001
0000
0000
,
1100
0000
0101
0000
0001
0010
0100
0000
,
0000
1100
0000
0000
0010
0000
0000
0101
,
0000
0000
1000
0000
0000
1010
0000
0000
,
0100
0000
0000
0011
0000
0000
0110
0000
,
0000
1100
0000
0000
1010
0000
0000
0101
,
0000
1100
0000
0000
;

//---------------dance-single - ----------------
#NOTES:
     dance-single:
     :
     Hard:
     9:
     0.677,0.855,0.575,0.088,0.238,369.000,52.000,8.000,0.000,0.000,0.000,0.677,0.855,0.575,0.088,0.238,369.000,52.000,8.000,0.000,0.000,0.000:
0000
0000
0000
0000
,
0000
0000
0000
0000
,
0001
1000
0000
0100
0001
0000
0100
0010
,
0000
0000
0001
0000
0100
0000
0000
0000
0010
1000
0001
0001
0010
0100
1000
1000
,
0010
0100
0000
0001
0010
0000
0100
1000
,
0000
0000
0010
0000
0100
0000
0000
0000
0001
0010
0100
0100
0010
0001
0100
0100
,
0010
1000
0001
0010
0100
0010
0001
1000
,
0010
0000
0010
0000
0100
0000
0100
0000
0001
1000
0001
0010
0010
0100
1000
1000
,
0010
1000
0001
0010
0100
1000
0001
0010
,
0001
1000
0010
0000
1000
0001
0010
0000
0001
0100
0001
0100
1000
0000
0000
0000
,
0101
0000
0000
1010
0000
0000
1100
0000
0000
0001
0010
0000
0100
1000
0001
1000
,
0001
0100
0100
0010
0100
0100
1000
0100
0100
0001
0010
0100
1000
0100
0100
1000
,
0011
0000
0000
1100
0000
0000
0101
0000
0000
0000
1010
0000
0001
0010
0100
1000
,
0011
0000
0000
1001
0000
0000
1010
0000
,
0000
0000
0101
0000
0000
0000
0000
0000
1100
0000
0000
0000
0000
0001
0010
0001
,
1000
0001
1000
0000
0010
0100
0010
0000
,
1000
0001
1000
0001
0010
0100
0010
0001
,
1100
0000
0000
0000
0011
0000
0000
0000
0100
0000
0001
1000
0001
0000
0000
0000
,
0011
0000
0000
0000
1100
0000
0000
0000
0010
0000
0100
0001
0100
0000
0000
0000
,
0010
1000
0010
0000
0100
0001
0100
0000
,
1001
0100
0010
0100
1001
0100
0010
0000
,
0011
0100
1000
0100
0011
0100
1000
0000
,
0001
0100
0001
0000
0010
0001
0010
0100
,
1000
0000
0001
0000
0010
0000
0100
0000
0010
0000
0001
0100
0001
0100
0000
0000
,
0010
0000
1000
0000
0001
0000
1000
0000
0100
0000
0010
0001
0010
0001
0000
0000
,
0100
0000
0010
0000
1000
0000
0001
0000
1000
0000
0100
0001
0100
0001
0000
0000
,
0100
0000
0010
0000
0001
0000
0100
0000
0010
0000
1000
0001
1000
0001
0000
0000
,
0100
0010
0100
0010
1000
0001
0010
0000
,
1100
0010
0001
0010
1100
0010
0001
0000
,
0101
0010
0100
0010
0101
0010
0100
0000
,
0001
1000
0010
0000
1000
0001
0010
0100
,
1000
0000
2000
0000
0001
3000
0002
0000
0100
0003
0200
0000
0010
0300
0020
0000
,
1000
0030
0100
0000
0010
0000
0100
0000
0001
0000
0100
0000
1000
0000
0100
0000
,
0001
0100
0010
0100
1000
0100
0001
0100
,
0010
0000
0020
0000
0001
0030
0002
0000
0100
0003
0200
0000
1000
0300
2000
0000
,
0100
3000
0001
0000
0010
0000
0001
0000
1000
0000
0001
0000
0010
0000
0001
0000
,
0100
0001
1000
0001
0010
0001
1000
0001
,
1010
0000
0100
0001
0010
0100
0010
0000
,
1100
0000
0011
0000
0001
0100
0010
0000
,
1000
0001
1000
0001
0010
0100
1000
0000
,
0001
0100
0001
0100
0010
1000
0001
0000
,
0011
0000
0100
1000
0010
0100
0001
0000
,
1100
0000
0011
0000
0100
0010
1000
0000
,
0000
0011
0000
0000
1100
0000
0000
1010
,
0000
0000
0101
0000
0000
1000
0001
0000
,
0110
0000
1000
0010
0100
0001
0010
0000
,
0011
0000
1100
0000
0001
0100
1000
0000
,
0100
0010
0001
0010
1000
0010
0001
0010
,
0100
0010
1000
0010
0001
0010
0100
0010
,
1010
0000
0100
0001
0010
0100
0010
0000
,
0011
0000
1100
0000
0001
0100
0010
0000
,
0000
1010
0000
0000
0101
0000
0000
0011
,
0000
0000
1100
0000
0000
1001
0000
0000
,
0110
0000
0000
0101
0000
0000
0110
0000
,
0000
1100
0000
0000
0110
0000
0000
0101
,
0000
1001
0000
0000
;

//---------------dance-single - Blank----------------
#NOTES:
     dance-single:
     Blank:
     Challenge:
     10:
     0.819,1.000,0.829,0.044,0.475,440.000,75.000,4.000,0.000,0.000,0.000,0.819,1.000,0.829,0.044,0.475,440.000,75.000,4.000,0.000,0.000,0.000:
0000
0000
0000
0000
,
0000
0000
0000
0000
,
1000
0000
0001
0000
0100
0000
0010
0001
0000
1000
0000
0100
0010
0000
0000
0000
,
0000
1000
0000
0100
0010
0000
0000
0000
0001
1000
0010
0100
0010
1000
0001
0010
,
0100
0000
1000
0000
0001
0000
0100
0000
0000
0010
1000
0001
0010
0000
0001
1000
,
0000
0200
0000
0000
0310
0001
0000
0000
1000
0010
0100
0001
0100
0010
1000
0100
,
0010
0001
0010
0100
1000
0000
0001
0100
0010
0000
1000
0001
0010
0100
0000
0000
,
0010
0000
0001
1000
0100
0000
1000
0000
0010
1000
0100
0010
0001
1000
0010
0100
,
1000
0100
0001
1000
0100
0000
0010
0001
0100
0000
0010
1000
0001
0000
0000
0000
,
0011
0010
0100
0000
1010
0010
0100
0000
0001
1000
0001
1000
0010
0000
0000
0000
,
0101
0000
1000
1010
0000
0001
0011
0000
0000
0000
1001
0000
0001
0100
0010
0001
,
1000
0100
0001
0000
0100
0000
0010
1000
0100
0000
1000
0000
0001
0010
0100
0000
0010
0000
1000
0000
0010
0000
0100
0000
0001
0000
0100
0000
1000
0000
0001
0000
,
1001
0000
1000
1100
0000
0001
0011
0000
0000
0100
0110
0000
1001
0001
0010
0100
,
1100
0100
0010
0011
0010
0100
1001
0000
,
0100
0000
1001
0000
0000
0000
0010
0000
1001
0000
0100
0000
0000
0001
1000
0010
,
0100
0001
0010
0000
0100
1000
0010
0000
,
0100
0001
1000
0000
0010
0100
0010
0100
,
0001
0010
0000
0100
1000
0001
0000
0000
,
0100
0010
1000
0000
0001
0010
0000
0001
,
0100
0000
1001
0000
0110
0100
0010
0000
,
2100
0100
0100
3100
1001
1000
0010
0000
,
0101
0100
0010
0100
0110
0010
1000
0000
,
1100
0100
0010
0000
0011
0001
1000
0001
,
0100
0010
0100
0000
0001
0000
1000
0100
0010
0000
1000
0000
0010
0001
0100
0000
,
0010
1000
0010
0000
0100
0000
0001
0010
0100
0000
0010
0000
0001
1000
0100
0000
,
0010
0001
0100
0000
0010
0000
1000
0000
0001
0000
0010
0100
1000
0000
0001
0000
,
0100
0010
1000
0000
0001
0000
0010
0000
0100
0000
0010
0001
0100
0000
0010
0000
,
1000
0001
1000
0000
0100
0000
0010
0000
0001
0000
0100
0010
0100
0000
0001
0000
,
0012
0010
0010
0013
0101
0100
0010
0000
,
2010
0010
0010
3010
0110
0100
0001
0000
,
0011
0010
0100
0000
1100
0001
1000
0001
,
0101
1000
1010
0001
0011
0100
1100
0010
,
0001
0100
0001
0000
0010
0000
0100
1000
0100
0000
0010
0001
1000
0001
0010
0000
,
0100
1000
0100
0000
0010
0000
0001
1000
0001
0000
0100
0010
1000
0010
0100
0000
,
0101
0010
1010
0100
0011
1000
1100
0001
,
0001
0010
0100
0000
0010
0000
0001
1000
0010
0000
0100
0001
0100
1000
0100
0000
,
0010
1000
0001
0000
0010
0000
0001
0010
0100
0000
0010
0001
1000
0100
1000
0000
,
0011
0000
0100
0010
1000
1010
0000
0001
,
0101
0000
1100
0000
0010
0100
0001
0000
,
1000
0001
0010
0100
1000
0001
0101
0000
,
1010
1000
0100
0001
1100
0000
0101
0000
,
1010
0000
0001
0010
0100
0011
0000
0100
,
1100
0000
0011
0000
0010
0100
1000
0000
,
0001
0011
0000
1000
1010
0010
0100
0101
,
0000
1000
1100
0000
0001
1001
0100
0000
,
1001
0000
0001
0010
0100
1100
0000
0001
,
0011
0000
0101
0000
0010
1000
0100
0010
,
0001
0100
0010
1000
0001
0000
0001
1000
,
0100
0000
0100
0010
0001
0100
0010
1000
,
1010
0000
0010
0100
0001
0101
0000
0010
,
1010
0000
1100
0000
0001
0010
0100
0000
,
0010
1001
0010
0100
1100
0000
0010
0101
,
0100
0001
1100
0000
0010
0101
0010
0100
,
1100
0000
1000
0101
0000
0001
1100
0000
,
1000
0011
0000
0001
1010
0000
1000
0101
,
0000
0010
1001
0000
0000
0000
0000
0000
;

//---------------dance-single - Blank----------------
#NOTES:
     dance-single:
     Blank:
     Easy:
     5:
     0.273,0.305,0.177,0.155,0.000,143.000,16.000,14.000,0.000,0.000,0.000,0.273,0.305,0.177,0.155,0.000,143.000,16.000,14.000,0.000,0.000,0.000:
0000
0000
0000
0000
,
0000
0000
0000
0000
,
0000
0000
0000
0000
,
0000
0000
0000
0000
,
0001
0000
0100
0010
,
0000
1000
0002
0000
,
0013
0000
0001
1000
,
0000
0010
0200
0000
,
0310
0000
0100
0001
,
1100
0000
0011
0000
1000
0001
0100
0000
,
0010
0000
1000
0001
,
0011
0000
0000
1100
0000
0000
1001
0000
,
0010
0000
0100
0001
,
1100
0000
0000
0011
,
0000
0000
1001
0000
,
0010
1000
0010
1000
,
0001
0100
0001
0000
,
1000
0100
0010
0000
,
0001
0100
0010
0000
,
1000
0001
1000
0000
,
0001
0001
0001
1000
,
0010
0010
0010
0100
,
0001
0100
0010
1000
,
0100
0010
0001
0001
,
0010
0100
1000
1000
,
0001
0100
1000
1000
,
0100
0010
0001
0001
,
0010
0100
0001
0000
,
1000
1000
1000
0100
,
0010
0010
0010
0001
,
1000
0001
0010
0200
,
2000
0000
0000
0000
,
3300
0000
0011
0000
,
0101
0000
1010
0002
,
0200
0000
0000
0000
,
0303
0000
1010
0000
,
1100
0000
0101
0000
,
0010
0000
1000
0001
,
0010
0100
1000
0000
,
0001
0100
0001
0000
,
1000
0100
1000
0000
,
0010
0000
0100
0001
,
1000
0100
0010
0000
,
0002
0000
0000
0003
0000
0000
2000
0000
,
0000
3000
0000
0000
1001
0000
0000
0000
,
1010
0000
0001
1000
,
0100
0010
0001
0000
,
1000
0010
1000
0000
,
0001
0010
0001
0000
,
1000
0000
0001
0010
,
0100
1000
0001
0000
,
0000
0002
0000
0000
0003
0000
0000
2000
,
0000
0000
3000
0000
0000
0002
0000
0000
,
0003
0000
0000
0200
0000
0000
0300
0000
,
0000
2000
0000
0000
3000
0000
0000
0200
,
0000
0300
0000
0000
;

//---------------dance-single - Blank----------------
#NOTES:
     dance-single:
     Blank:
     Beginner:
     1:
     0.129,0.151,0.133,0.000,0.000,70.000,12.000,0.000,0.000,0.000,0.000,0.129,0.151,0.133,0.000,0.000,70.000,12.000,0.000,0.000,0.000,0.000:
0000
0000
0000
0000
,
0000
0000
0000
0000
,
0000
0000
0000
0000
,
0000
0000
0000
0000
,
0001
0000
1000
0000
,
0100
0000
0010
0100
,
0010
0000
0001
0000
,
0100
0000
0010
1000
,
0100
0000
0010
0000
,
0100
0100
0100
0000
,
1001
0000
1001
0000
,
0100
0000
0000
0000
,
1001
0000
1001
0000
,
0000
0000
0000
0000
,
0000
0000
0000
0000
,
0100
0000
0000
0000
,
0100
0000
0010
0000
,
1000
0000
0000
0000
,
0001
0000
0000
0000
,
1000
0000
1000
0000
,
0100
0000
0100
0000
,
0010
0000
0010
0000
,
0010
0000
0001
0000
,
1000
0000
0000
0000
,
0001
0000
0000
0000
,
1000
0000
0000
0000
,
0010
0000
0000
0000
,
0100
0000
0100
0000
,
0010
0000
0010
0000
,
1000
0000
1000
0000
,
1000
0000
0001
0000
,
0010
0000
0000
0000
,
0000
0000
0000
0000
,
0000
0000
0000
0000
,
0100
0000
0000
0000
,
0000
0000
0000
0000
,
0000
0000
0000
0000
,
1001
0000
0000
0000
,
1001
0000
0000
0000
,
0010
0000
0010
0000
,
0100
0000
0000
0000
,
0110
0000
0000
0000
,
0110
0000
0000
0000
,
0001
0000
0001
0000
,
1000
0000
0000
0000
,
0110
0000
0000
0000
,
1001
0000
0000
0000
,
0010
0000
0010
0000
,
0100
0000
0000
0000
,
0110
0000
0000
0000
,
1001
0000
0000
0000
,
0010
0000
0000
0100
,
0000
0000
0001
0000
,
0000
1000
0000
0000
,
0100
0000
0000
0010
;
