#TITLE:Koko Soko;
#SUBTITLE:;
#ARTIST:SMiLE.dk;
#TITLETRANSLIT:;
#SUBTITLETRANSLIT:;
#ARTISTTRANSLIT:;
#CREDIT:;
#BANNER:Koko Soko.png;
#BACKGROUND:Koko Soko-bg.png;
#LYRICSPATH:;
#CDTITLE:./CDTITLES/DanceDanceRevolution X.png;
#MUSIC:Koko Soko.mp3;
#OFFSET:-0.052;
#SAMPLESTART:36.025;
#SAMPLELENGTH:15.000;
#SELECTABLE:YES;
#DISPLAYBPM:140.000;
#BPMS:0.000=140.000;
#STOPS:;
#BGCHANGES:;

//---------------dance-single - ----------------
#NOTES:
     dance-single:
     :
     Medium:
     5:
     0.352,0.412,0.328,0.000,0.000:
0000
0000
0000
0000
,
0000
0000
0000
0000
,
0000
0000
0000
0000
,
0000
0000
0000
0000
,
0000
0000
0000
0000
,
1000
0000
1000
0000
1000
0000
0100
1000
,
0000
1000
0010
0000
0101
0000
0000
0000
,
0001
0000
0001
0000
0001
0000
0001
0010
,
0000
0010
0001
0100
0000
0000
1001
0000
,
0010
0000
0010
0000
0010
0000
0010
0100
,
0000
0100
0010
0000
0110
0000
0000
0000
,
0001
0000
0001
0000
0001
0000
0001
1000
,
0000
1000
0001
1000
0000
0000
0000
0000
,
1000
1000
0001
0001
,
1000
0000
0001
0100
0010
0000
0000
0000
,
0010
0010
0100
0100
,
0001
0000
0010
0001
1000
0000
0000
0000
,
0001
0101
1000
1100
,
0001
0000
1000
1000
1001
0000
0000
0000
,
0001
0011
1000
1010
,
1000
0000
0001
0001
1001
0000
0000
0000
,
0010
0100
0010
1000
0010
0100
0010
0000
,
1001
0110
0011
0000
,
0001
1000
0001
0100
0001
1000
0001
0000
,
0011
0101
1001
0000
,
1000
0010
1000
0100
1000
0010
1000
0000
,
0011
1100
1001
0000
,
0001
0100
0001
1000
0001
0010
0001
0000
,
0011
1001
1100
0000
,
1000
0000
1000
0000
1000
0000
1000
0001
,
0100
0000
0010
0100
0100
0000
0000
0000
,
0010
0000
0010
0000
0010
0000
0010
1000
,
0001
0000
1000
0001
0001
0000
1001
0000
,
0001
0100
1000
0100
,
0001
0000
0010
0100
0010
0000
1001
0000
,
1000
0100
0001
0100
,
1000
0000
0100
0010
0001
0000
0000
0000
,
0001
0000
0001
0000
0001
0000
0001
1000
,
0000
1000
0001
0000
1001
0000
0000
0000
,
1000
0000
1000
0000
1000
0000
1000
0001
,
0000
0001
0100
0001
0000
0000
0101
0000
,
1000
0000
0001
0000
1000
0000
0010
0100
,
0000
0100
0010
0000
0110
0000
0000
0000
,
1000
0000
0100
0000
1000
0000
0001
0100
,
0000
0100
0010
0100
0000
0000
0000
0000
,
0010
1000
0001
0001
,
1000
0100
1001
0000
,
1000
0010
1000
1000
,
0101
0000
1000
0001
1001
0000
0000
0000
;

//---------------dance-single - ----------------
#NOTES:
     dance-single:
     :
     Easy:
     3:
     0.268,0.329,0.136,0.034,0.000: // measure 1
0000
0000
0000
0000
,  // measure 2
0000
0000
0000
0000
,  // measure 3
0000
0000
0000
0000
,  // measure 4
0000
0000
0000
0000
,  // measure 5
0000
0000
0000
0000
,  // measure 6
1000
1000
0100
1000
,  // measure 7
0001
0100
0010
0000
,  // measure 8
0010
0010
1000
0001
,  // measure 9
1000
0100
0000
0000
,  // measure 10
0001
0001
0100
1000
,  // measure 11
0100
0001
0010
0000
,  // measure 12
1000
1000
0100
0001
,  // measure 13
0100
1000
0000
0000
,  // measure 14
0020
1030
0100
0010
,  // measure 15
0001
1000
1001
0000
,  // measure 16
0200
0301
0010
0100
,  // measure 17
1000
0001
1001
0000
,  // measure 18
0001
0100
1000
0010
,  // measure 19
0001
1000
0001
0000
,  // measure 20
1000
0100
0001
0010
,  // measure 21
1000
0100
1001
0000
,  // measure 22
0001
0001
0001
0001
,  // measure 23
1000
0100
0001
0000
,  // measure 24
0001
0001
0001
0001
,  // measure 25
0001
0100
1000
0000
,  // measure 26
1000
0100
0001
0100
,  // measure 27
1000
0001
0001
0000
,  // measure 28
0001
0100
1000
0100
,  // measure 29
0001
1000
1000
0000
,  // measure 30
1000
1010
1000
1000
,  // measure 31
1010
1000
1001
0000
,  // measure 32
0001
0011
0001
0001
,  // measure 33
0011
0001
1001
0000
,  // measure 34
0001
0100
1000
0010
,  // measure 35
0001
0100
1000
0000
,  // measure 36
1000
0100
0001
0010
,  // measure 37
1000
0100
0001
0000
,  // measure 38
0001
0001
0100
0100
,  // measure 39
0010
1000
1001
0000
,  // measure 40
1000
1000
0100
0100
,  // measure 41
0001
0100
1000
1001
,  // measure 42
1000
0010
0100
0001
,  // measure 43
0100
0010
0010
0000
,  // measure 44
1000
0100
1000
0001
,  // measure 45
0100
0010
2000
0000
,  // measure 46
3001
0001
1000
0000
,  // measure 47
0001
0001
0100
0000
,  // measure 48
0010
0010
1000
0000
,  // measure 49
0001
1000
1001
0000
;

//---------------dance-single - Copied from Copied f----------------
#NOTES:
     dance-single:
     Copied from Copied f:
     Hard:
     8:
     0.526,0.497,0.226,0.068,0.113:
0000
0000
0000
0000
,
0000
0000
0000
0000
,
0000
0000
0000
0000
,
0000
0000
0000
0000
,
0000
0000
0000
0000
,
0001
0000
1000
0001
1000
0000
0010
0000
0100
0000
0010
0000
0100
0000
0001
0000
,
0000
0000
1000
0000
0100
0000
0010
0000
0002
0000
0000
0000
0003
0000
0001
0010
,
0001
0000
1000
0100
1000
0000
0100
0000
0010
0000
0001
0000
0010
0000
0100
0000
,
0000
0000
0010
0000
0100
0000
0010
0000
0000
0000
1001
0000
1001
0000
0001
1000
,
0001
0000
0010
0100
0010
0000
1000
0000
0100
0000
1000
0000
0001
0000
0100
0000
,
0000
0000
0100
0000
0001
0000
0100
0000
0002
0000
0000
0000
0003
0000
1000
0001
,
1000
0000
0001
1000
0001
0000
0010
0000
0100
0000
1000
0000
0100
0000
0010
0000
,
0000
0001
1000
0002
0000
0000
0003
0000
,
1000
1000
0100
0001
0100
0000
0010
0001
,
1000
0110
1001
0000
,
0001
0001
0100
1000
0100
0010
1000
0001
,
1000
0101
1010
0000
,
1000
0100
0001
0100
1000
0010
0001
0010
,
1000
0100
0001
0010
1000
0000
0000
0000
,
0001
0100
1000
0100
0001
0010
1000
0010
,
0001
0100
1000
0010
0001
0000
1001
0000
,
1000
1000
0100
0100
0001
0001
0001
0000
,
0001
0100
1000
0010
0100
0000
0110
0000
,
0001
1000
0001
0100
0001
0010
0001
0010
,
0100
1000
0100
0010
0001
0011
0011
0000
,
0001
0001
0100
0100
1000
1000
1000
0000
,
1000
0100
0001
0010
0100
0000
1001
0000
,
1000
0001
1000
0010
1000
0100
1000
0100
,
0010
0001
0010
0100
1000
0000
0110
0000
,
0001
0000
0000
1000
0001
0000
0100
0000
0001
0000
0100
0000
1000
0000
0100
0000
,
0010
0000
0000
0010
0100
0000
0001
0000
1000
0000
0000
0000
1001
0000
0000
0000
,
1000
0000
0000
0001
1000
0000
0100
0000
1000
0000
0100
0000
0001
0000
0100
0000
,
0010
0001
1000
0100
2000
0001
3001
0000
,
0001
0000
0000
0001
1000
0000
0100
0000
0001
0000
0100
0000
1000
0000
0001
0000
,
1000
0000
0000
0010
0100
0000
0010
0000
0100
0000
0000
0000
0110
0000
0000
0000
,
1000
0000
0000
1000
0001
0000
0100
0000
1000
0000
0100
0000
0001
0000
1000
0000
,
0001
0100
0010
1000
0002
0000
0003
0000
,
1000
0000
0010
0100
0010
0000
1000
0000
0100
0000
0010
0000
0001
0000
1000
0000
,
0000
0000
0001
0000
0010
0000
0100
0000
1000
0000
0000
0000
0000
0000
0001
1000
,
0001
0000
0010
0100
0010
0000
0100
0000
1000
0000
0001
0000
0100
0000
0001
0000
,
0000
0000
0010
0000
0100
0000
0010
0000
0000
0000
0101
0000
0101
0000
1000
0100
,
1000
0000
0001
0100
0001
0000
1000
0000
0010
0000
0100
0000
0001
0000
1000
0000
,
0000
0000
0001
0000
0100
0000
0010
0000
1000
0000
0000
0000
0000
0000
0001
0010
,
0001
0000
1000
0010
1000
0000
0001
0000
1000
0000
0001
0000
1000
0000
0010
0000
,
0000
0010
1000
0002
0000
0000
0003
0000
,
0001
0001
1000
1000
0001
0010
0100
0000
,
1100
0101
1001
0000
,
0010
0010
0100
0100
0010
1000
0001
1000
,
0100
0001
0010
1000
0001
0000
1001
0000
;
