#TITLE:Just Dance;
#SUBTITLE:~Summer Contest Edit~;
#ARTIST:Lady GaGa;
#TITLETRANSLIT:;
#SUBTITLETRANSLIT:;
#ARTISTTRANSLIT:;
#GENRE:;
#CREDIT:;
#MENUCOLOR:;
#METERTYPE:DDR;
#BANNER:Just Dance.png;
#BACKGROUND:Just Dance-bg.png;
#LYRICSPATH:;
#CDTITLE:Summer Contest 2010.png;
#MUSIC:Just Dance.mp3;
#OFFSET:-0.227;
#SAMPLESTART:31.957;
#SAMPLELENGTH:15.000;
#SELECTABLE:YES;
#LISTSORT:;
#BPMS:0.000=119.000;
#STOPS:;
#BGCHANGES:-4.099=Just Dance.avi=1.000=1=0=0,
99999=-nosongbg-=1.000=0=0=0 // don't automatically add -songbackground-
;
#ATTACKS:;

//---------------dance-single - C. Clinton----------------
#NOTES:
     dance-single:
     C. Clinton:
     Hard:
     8:
     0.477,0.432,0.272,0.262,0.029: // measure 1
0000
0000
0000
0000
,  // measure 2
0000
0000
0000
0000
,  // measure 3
0000
0000
0000
0000
,  // measure 4
0000
0000
0000
0000
,  // measure 5
0001
0010
0010
0001
0100
1000
0200
0000
,  // measure 6
0310
1000
1000
0001
0010
0200
0000
1300
,  // measure 7
0001
0100
0100
0010
1000
0001
0010
0001
,  // measure 8
2000
0000
3010
0100
0000
0101
0000
0001
,  // measure 9
1000
0000
1100
0100
0010
0000
0011
0001
,  // measure 10
1000
0000
1010
0010
0100
0001
0100
0020
,  // measure 11
0000
1030
0001
1000
0100
0100
0010
0001
,  // measure 12
1000
0010
1000
0001
0010
0100
1000
0002
,  // measure 13
0100
0003
1001
1000
0100
0000
0110
0010
,  // measure 14
0002
0000
1003
1000
0010
0100
0010
2000
,  // measure 15
0000
3001
1000
0100
0010
0010
0100
1000
,  // measure 16
0010
0100
0010
0010
0100
0000
0002
0000
,  // measure 17
1003
0000
0000
0000
0100
0000
0010
0001
0010
0000
0001
0000
2000
0000
0000
0000
,  // measure 18
3010
0100
0100
0001
0001
1000
0100
0000
,  // measure 19
1100
0000
1000
0100
0001
0010
2000
0000
,  // measure 20
3001
0010
0010
0001
0001
1000
0010
0000
,  // measure 21
0110
0000
0000
0000
0100
0000
0001
1000
0001
0000
1000
0000
0200
0000
0000
0000
,  // measure 22
0310
0001
0000
1001
0000
1000
0000
1010
,  // measure 23
0000
0010
0000
0101
0000
0001
0000
1100
,  // measure 24
0000
0100
0010
0000
0010
0010
0010
0000
,  // measure 25
0012
1000
0103
0000
,  // measure 26
0101
0100
0100
0010
1000
0001
0010
0100
,  // measure 27
2000
0000
3010
0100
0000
0101
0000
0001
,  // measure 28
0010
0100
1000
0001
0100
0100
0010
0100
,  // measure 29
0002
0000
0013
1000
0010
0000
0200
0000
,  // measure 30
1300
0001
0001
0100
0001
1000
0200
0000
,  // measure 31
0310
0000
0000
0000
0010
0000
0000
0000
0001
0000
0000
0000
1000
0000
0000
0000
0000
0001
0000
0000
0000
0000
0200
0000
0000
0000
0000
0000
0300
0000
0000
0000
,  // measure 32
0010
1000
0010
0100
0001
0001
1000
0100
,  // measure 33
0020
0000
0031
1000
0000
1010
0000
0010
,  // measure 34
0100
0000
0101
0001
1000
0000
1100
1000
,  // measure 35
0001
0000
0101
0100
0010
1000
0001
0020
,  // measure 36
0000
0130
1000
0001
0100
0100
0001
1000
,  // measure 37
0001
0100
0010
1000
0001
0010
0001
0200
,  // measure 38
0010
0300
0101
0100
0010
0000
1010
0010
,  // measure 39
0200
0000
0301
0001
1000
0100
1000
0002
,  // measure 40
0000
0103
0010
1000
0100
0100
1000
0001
,  // measure 41
0100
0010
0100
0100
0010
0000
2000
0000
,  // measure 42
3100
0000
0000
0000
0010
0000
0001
0010
0001
0000
1000
0000
0020
0000
0000
0000
,  // measure 43
0130
0001
0001
1000
1000
0100
0010
0000
,  // measure 44
0011
0000
0001
0100
1000
0010
0002
0000
,  // measure 45
1003
0010
0010
0100
0100
0001
1000
0000
,  // measure 46
1100
0000
0000
0000
1000
0000
0001
0100
0001
0000
0100
0000
0020
0000
0000
0000
,  // measure 47
1030
0100
0000
0110
0000
0010
0000
0011
,  // measure 48
0000
0100
0000
1100
0000
1000
0000
1010
,  // measure 49
0000
0010
0100
0000
0100
0100
0100
0000
,  // measure 50
2010
0001
3100
0000
;

//---------------dance-single - C. Clinton----------------
#NOTES:
     dance-single:
     C. Clinton:
     Medium:
     5:
     0.331,0.338,0.194,0.029,0.000:
0000
0000
0000
0000
,
0000
0000
0000
0000
,
0000
0000
0000
0000
,
0000
0000
0000
0000
,
1000
0001
1000
0000
0010
0000
0100
0000
,
0001
1000
0001
0000
0010
0000
0100
0000
,
1000
0001
1000
0000
0010
0000
0100
0000
,
0101
0000
0000
0001
0000
1000
0000
0001
,
0010
0110
0000
1100
,
0000
0000
1001
0000
0001
0100
0010
1000
,
0000
0001
0010
0000
0001
0000
1000
0000
,
0010
0100
0010
0100
0010
0000
1000
0000
,
1001
0011
0000
0110
,
0100
0000
1000
0000
0001
0100
0001
0000
,
1000
0100
1000
0001
,
0100
0010
0100
0010
0100
0000
0001
0000
,
1001
0000
1000
0100
1000
0000
0001
0000
,
0100
0010
0100
0010
0100
0000
0001
0000
,
1001
0000
1000
0100
1000
0000
0001
0000
,
0010
0100
0010
0100
0010
0000
0001
0000
,
1001
0000
1000
0010
1000
0000
0010
0000
,
0100
0001
0000
1000
0000
0100
0000
1000
,
0000
0001
0000
0100
0000
0010
0000
0100
,
0000
0001
1000
0000
0001
1000
0001
0000
,
0200
0000
0000
0300
,
0010
1000
0001
0000
0010
0000
0001
0000
,
0200
0000
0310
1000
0000
0001
0000
1000
,
0001
0000
0010
0000
0001
0000
1000
0001
,
1000
0000
0010
0100
0010
0000
1000
0000
,
0001
0010
0001
0000
0100
0000
0010
0000
,
1000
0100
1000
0000
0001
0000
0101
0000
,
0100
0010
0100
0010
1000
0000
0001
0000
,
0010
0000
0100
1000
0000
0001
0000
0100
,
0010
1010
0000
1001
,
0000
0000
1100
0000
1000
0100
0010
0001
,
0000
1000
0010
0000
0100
0000
0010
0000
,
1000
0001
1000
0001
1000
0000
0100
0000
,
0110
0011
0000
1001
,
1000
0000
0001
0000
0100
0010
0100
0000
,
0010
1000
0100
1000
,
0001
0100
0001
0100
0010
0000
1000
0000
,
1001
0000
0001
1000
0001
0000
0100
0000
,
0010
1000
0010
1000
0100
0000
0010
0000
,
0011
0000
0001
1000
0001
0000
0100
0000
,
0010
1000
0010
1000
0001
0000
0010
0000
,
0110
0000
0100
1000
0100
0000
1000
0000
,
0001
0100
0000
0010
0000
0100
0000
0001
,
0000
1000
0000
0100
0000
1000
0000
0001
,
0000
0100
0010
0000
0100
0010
0100
0000
,
0002
0000
0000
0003
;

//---------------dance-single - C. Clinton----------------
#NOTES:
     dance-single:
     C. Clinton:
     Easy:
     3:
     0.212,0.238,0.039,0.000,0.000:
0000
0000
0000
0000
,
0000
0000
0000
0000
,
0000
0000
0000
0000
,
0000
0000
0000
0000
,
1000
0100
1000
0000
,
0001
0100
0001
0000
,
1000
0100
0010
0001
,
1000
0000
0001
1000
,
0001
0100
0000
0010
,
0000
1000
0001
0000
,
0010
0001
0010
0100
,
1000
0001
1000
0000
,
0010
0100
0000
0001
,
0010
0001
1000
0000
,
0001
0100
0010
0100
,
0001
1000
0001
0000
,
1001
0000
1000
0100
,
1000
0010
0100
0001
,
0010
0100
1000
0001
,
0100
0010
1000
0001
,
1001
0000
0001
0010
,
0001
0100
0010
1000
,
0100
1000
0100
0010
,
0001
1000
0001
1000
,
0100
0000
0000
0000
,
0010
0001
0010
0001
,
1000
0000
0010
0000
,
0100
0001
0100
0001
,
0010
0000
0100
0000
,
1000
0001
1000
0000
,
0001
0100
0001
0000
,
0010
0100
1000
0001
,
0100
0000
0010
1000
,
0010
0100
0000
0001
,
0000
1000
0100
0000
,
0010
0001
1000
0001
,
0100
0010
1000
0000
,
0001
0010
0000
0001
,
1000
0010
1000
0000
,
0100
0010
0100
1000
,
0001
1000
0001
0000
,
1001
0000
0001
0100
,
0001
1000
0100
0010
,
0001
1000
0010
1000
,
0001
0010
0100
0000
,
0110
0000
0100
1000
,
0001
0100
0001
1000
,
0100
1000
0010
0100
,
0001
0010
0100
1000
,
0010
0000
0000
0000
;

//---------------dance-single - C. Clinton----------------
#NOTES:
     dance-single:
     C. Clinton:
     Beginner:
     1:
     0.146,0.166,0.049,0.000,0.000:
0000
0000
0000
0000
,
0000
0000
0000
0000
,
0000
0000
0000
0000
,
0000
0000
0000
0000
,
1000
0000
0010
0000
,
1000
0000
0001
0000
,
0010
0000
0000
0000
,
0001
0000
0000
0000
,
1000
1000
0000
0001
,
0000
0100
0100
0000
,
0010
0000
0100
0000
,
0001
0000
1000
0000
,
0100
0100
0000
1000
,
1000
0000
0001
0000
,
1000
0000
0010
0000
,
0100
0100
0100
0000
,
0110
0000
0100
0000
,
0001
0001
0001
0000
,
1000
0000
0100
0000
,
1000
1000
1000
0000
,
1001
0000
0001
0000
,
0100
0000
0010
0000
,
0100
0000
0001
0000
,
1000
0000
0100
0100
,
0100
0000
0000
0000
,
1001
0000
1000
0000
,
0010
0000
0100
0100
,
0100
0000
0001
0000
,
1000
0000
0100
0100
,
0100
0000
0010
0000
,
0001
0000
1000
0000
,
0010
0000
0000
0000
,
0100
0000
0000
0000
,
0001
0001
0000
1000
,
0000
0100
0100
0000
,
1000
0000
0001
0000
,
1000
0000
0010
0000
,
0100
0100
0000
0001
,
0001
0000
1000
0000
,
0100
0000
0010
0000
,
0001
0001
0001
0000
,
1001
0000
1000
0000
,
0010
0010
0010
0000
,
0100
0000
0001
0000
,
1000
1000
1000
0000
,
1001
0000
0001
0000
,
0010
0000
0100
0000
,
0010
0000
0001
0000
,
1000
0000
0010
0010
,
0010
0000
0000
0000
;
