#TITLE:High School Love;
#SUBTITLE:(DDR EDIT);
#ARTIST:DJ YOSHITAKA feat. DWP;
#TITLETRANSLIT:;
#SUBTITLETRANSLIT:;
#ARTISTTRANSLIT:;
#GENRE:;
#CREDIT:Telperion;
#BANNER:High School Love.png;
#BACKGROUND:bg.png;
#LYRICSPATH:;
#CDTITLE:ziv2010cd.png;
#MUSIC:High School Love.mp3;
#OFFSET:1.269;
#SAMPLESTART:44.621;
#SAMPLELENGTH:15.660;
#SELECTABLE:YES;
#BPMS:0.000=180.000;
#STOPS:;
#BGCHANGES:;
#KEYSOUNDS:;

//---------------dance-double - Telperion----------------
#NOTES:
     dance-double:
     Telperion:
     Hard:
     9:
     0.645,0.757,0.482,0.187,0.058:
00000000
00000000
00000000
00000000
,
00000000
00000000
00000000
00000000
,
00000000
00000000
00000000
00000000
,
00000000
00000000
00000000
00000000
,
00000000
00000000
00000000
00000000
,
00000000
00000000
00000000
00000000
,
00000000
00000000
00000000
00000000
,
00000000
00000000
00000000
00000000
,
00000000
00000000
00000000
00000000
,
00001000
00000010
00000100
00001000
00000000
00011000
00000000
01020000
,
00000000
00000000
01030000
10000000
00000000
00100000
00000000
01000000
,
00100000
10000000
01000000
00010000
00000000
00011000
00000000
00002100
,
00000000
00003100
00000101
00000100
,
00000110
00000100
00000001
00000010
00000000
00000110
00000000
00001001
,
00000000
00000000
00001000
00000001
00000000
00010000
00000000
00001000
,
10000000
00000000
00010000
10000000
00010000
00000000
00010000
01000000
,
00100000
10000000
01000000
00010000
00001000
00000100
00000010
00002000
,
00000100
00000000
00003100
00000000
00000100
00001000
00000001
00000100
,
00001000
00000100
00000001
00000010
00000100
00010000
00001000
00020000
,
00000010
00000000
00030010
00000000
00000010
00000100
00000010
00000001
,
00001000
00000100
00000010
00010000
00001000
00000010
00000100
00010000
,
00000010
00000000
00010010
00000000
00000010
00000000
00010000
00001000
,
00100000
00000000
00101000
00000000
00001000
00000000
00010000
00001000
,
01001000
00100000
11000000
00100000
,
00011000
00000000
01000010
00000000
00011000
00001000
00010000
00002000
,
00000000
00000000
00003000
10000000
01000000
00010000
00000000
00021000
,
00000000
00000000
00030000
00010000
00000001
00000100
00001000
00012000
,
00000000
00000000
00003000
10000000
01000000
00010000
00000000
00012000
,
00000000
00000000
00003000
00000000
00001000
10000000
01000000
00020000
,
00001000
01000000
00001000
00230000
,
20300000
32000000
03020000
00032000
,
00003100
00000001
00000010
00000000
00000100
00001000
00000001
00000000
,
00000100
00001000
00010000
00000000
01000000
10000000
00100000
00000000
,
01000000
00010000
00100000
01000000
10000000
00100000
00010000
00001000
,
00000100
00000010
00000110
00000000
00000000
00000000
00000000
00000000
,
00000000
00000000
10010000
00000000
10000000
01000000
00010000
00001000
,
00000000
00011000
00000000
00001000
01000000
00100000
00010000
00001000
,
00000100
00000010
00001000
00000001
00000010
00000001
00001000
00000100
,
00010000
00001000
00100000
00010000
10000000
01000000
00010000
01000000
,
00100000
00000000
00010000
01000000
00000000
00100000
00000000
01000000
,
01010000
10000000
11000000
00010000
,
01010000
00000000
01000000
00001000
00000100
00010000
01000000
00000000
,
00100000
10000000
01000000
00100000
01100000
00000000
00000000
00000000
,
00000000
00000000
00001001
00000000
00000001
00000100
00001000
00010000
,
00000000
00011000
00000000
00001000
00010000
01000000
10000000
01000000
,
10000000
00100000
01000000
00010000
00100000
10000000
00100000
00010000
,
01000000
00100000
00010000
00001000
00100000
01000000
00010000
00001000
,
00000010
00000100
00001000
00000010
00000000
00001001
00000000
00000220
,
00000000
00000330
00000000
00000000
00000000
00000000
00000000
00000000
,
00000010
00001000
00100000
01000000
00000000
10010000
00000000
02200000
,
00000000
03300000
00000000
00000000
00000000
00000000
00000000
00000000
,
00100000
00010000
00000010
00000100
00000000
00001001
00000000
00000220
,
00000030
00000000
00000310
00000001
00000010
00001000
00000100
00000010
,
00000001
00000100
00000010
00001000
00000100
00010000
00001000
01000000
,
00010000
00100000
01000000
10000000
01000000
10000000
00000000
00110000
,
00000000
10000000
01000000
00010000
00001000
00000100
00000000
00001010
,
00000000
00000001
00000100
00000010
00010000
00001000
00000000
00110000
,
00000000
01000000
10000000
00100000
00010000
00001000
00000000
00000110
,
00000000
00010000
00001000
01000000
00100000
00010000
00000000
00110000
,
00000000
00000000
00010000
00000000
10000000
00000000
01000000
00000000
00100000
00000000
00010000
00100000
00010000
00000000
00100000
00000000
,
00001000
00000000
00010000
00001000
00010000
00000000
00100000
00000000
00100000
00000000
10000000
00100000
10000000
00000000
00010000
00100000
,
00010000
00000000
00100000
00000000
01000000
00000000
01000000
00000000
10000000
00000000
00100000
00000000
01000000
00100000
01000000
00000000
,
00010000
00000000
00100000
00000000
01000000
00100000
00000000
00010000
01000000
00000000
00100000
10000000
00000000
01000000
00000000
00010000
,
00001000
10000000
01000000
00010000
00001000
00000100
00000001
00000010
,
00000011
00000011
00000011
00000000
00000000
00000000
00000000
00000000
,
00000000
10000000
00000000
00000010
,
00000000
01000000
00000000
00000000
00000000
00000000
00100000
00000000
,
00000000
00000000
00000100
00000000
00000000
00000000
00000200
00000000
00000000
00000000
00000000
00000000
00000300
00000000
00000010
00001000
,
00000100
00000000
00000000
00000000
,
10010000
10000000
10001000
00001000
,
00011000
00010000
00010001
00000001
,
00000011
00001000
00001010
00000001
,
00000011
00000010
00000001
00000100
00001000
00000100
00000010
00010000
,
00000000
00000000
00000011
00000000
00000100
00001000
00000010
00000100
,
00000001
00000100
00000010
00010000
00001000
00000010
00000100
00001000
,
00010000
00000000
00100000
00000000
01000000
00000000
10000000
00000000
10000000
00000000
00001000
00000000
00001000
00000000
00010000
00001000
,
00010000
00001000
10000000
01000000
00100000
00010000
01000000
00100000
,
11000000
00000000
01000000
00010000
00000000
00000100
00000000
00000010
,
00000001
00001000
00001100
00000001
,
00000101
00000000
00000100
00001000
00000000
01000000
00000000
00100000
,
10000000
00010000
00110000
10000000
,
11000000
00000000
01000000
00010000
00000000
00001000
00000000
00000100
,
00000001
00000000
00000010
00000001
00000010
00000100
00000010
00000001
,
00000100
00000010
00000001
00000010
00000100
00000001
00000010
00000100
,
00010000
00000000
00000010
00000000
00001000
00000000
00000100
00000000
00010000
00000000
00001000
00000000
00010000
00001000
00010000
00000000
;

//---------------dance-double - Telperion----------------
#NOTES:
     dance-double:
     Telperion:
     Medium:
     7:
     0.525,0.605,0.294,0.152,0.018:
00000000
00000000
00000000
00000000
,
00000000
00000000
00000000
00000000
,
00000000
00000000
00000000
00000000
,
00000000
00000000
00000000
00000000
,
00000000
00000000
00000000
00000000
,
00000000
00000000
00000000
00000000
,
00000000
00000000
00000000
00000000
,
00000000
00000000
00000000
00000000
,
00000000
00000000
00000000
00000000
,
10000000
01000000
00100000
00010000
00000000
01000000
00000000
01100000
,
00000000
00000000
00100000
10000000
00000000
01000000
00000000
00100000
,
00010000
01000000
00100000
00010000
00000000
00001000
00000000
00011000
,
00000000
00020000
00031000
00020000
,
00030100
00001000
00000001
00000100
00000000
00001100
00000000
00000101
,
00000000
00000000
00000000
00000000
,
00011000
00000000
00000110
00000000
,
00010000
00000100
00001000
00000010
00000100
00000001
00000010
00000100
,
00002000
00000000
00003001
00000000
00000001
00001000
00000001
00001000
,
00000010
00000000
00000010
00000000
00000010
00000100
00000001
00010000
,
00001000
00000000
00001000
00000000
00001000
00100000
01000000
00100000
,
00010000
00010000
01000000
00010000
,
20000000
00000000
01000000
00000000
31000000
10000000
01000000
00100000
,
00001000
00000000
00010000
00000000
00001000
00010000
00000100
00001000
,
00000010
00001100
00000010
00000101
,
00000110
00000000
00000011
00000000
00001010
00000000
00000000
00002002
,
00000000
00000000
00003003
00000000
00000001
00010000
00000000
00022000
,
00000000
00000000
00033000
00000000
00001000
10000000
00020000
20000000
,
00000000
30000000
00030000
10000000
01000000
00100000
00000000
02200000
,
00000000
00000000
03300000
00000000
00100000
01000000
00100000
00010000
,
10000000
00100000
01000000
00010000
10000000
00100000
01000000
00001000
,
00100000
00010000
01000000
00001000
00100000
00010000
01000000
00000000
,
00001000
10000000
00001000
00100000
00001000
10000000
00001000
01000000
,
00100000
01000000
00001000
01000000
00100000
01000000
10000000
00000000
,
01000000
00100000
00000000
10000000
01000000
00010000
00000000
00001000
,
00010000
00000100
00001100
00000000
00000000
00000000
00000000
00000000
,
00000000
00000011
00000100
00000010
,
00001000
00000100
00000000
00000010
00000001
00000000
00001000
00000010
,
00000000
00000100
00001000
00010000
00000000
01000000
00000000
00010000
,
00000000
00001000
00000100
00000010
00001000
00000000
00000100
00000000
,
00002001
00000000
00003100
00010000
00001000
00010000
00000000
00001000
,
00000000
00100000
01000000
00000000
00010000
00000000
01000000
00000000
,
10020000
00000000
01030000
00000000
00100000
10000000
01000000
00000000
,
00010000
00001000
01000000
00001000
00010000
00000100
00010000
00000000
,
00000000
00000000
00011000
00000000
00011000
00000000
01000000
00001000
,
00000000
00010000
01000000
00000000
00100000
00010000
01000000
00000000
,
00100000
10000000
00000000
00100000
00000000
01000000
00000000
00001000
,
00000000
00010000
00000010
00001000
00000100
00001000
00000010
00000100
,
00000001
00000000
00001000
00000100
00000000
00010000
00000000
00000100
,
00001000
00000000
00000000
00000000
,
01010000
00000000
00100000
01000000
00000000
00010000
00000000
00100000
,
01000000
00000000
00000000
00000000
,
00011000
00000000
00000100
00010000
00000000
00000010
00000000
00000100
,
00001000
00000000
00000100
00001000
00000100
00000000
00000001
00000100
,
00000001
00000010
00000100
00000010
00000001
00001000
00000100
00001000
,
00000010
00000000
00001000
00000000
00000001
00000000
00000000
00001001
,
00000000
00000001
00000010
00000100
00010000
00001000
00000000
00011000
,
00000000
00010000
00001000
00100000
01000000
10000000
00000000
01100000
,
00000000
00100000
10000000
00010000
01000000
00001000
00000000
00011000
,
00000000
00010000
00000010
00001000
00000001
00000100
00000000
00001001
,
00000000
00000010
00000001
00000010
00001000
00000010
00001000
00010000
,
00001000
00010000
00100000
00010000
00100000
10000000
00100000
10000000
,
01000000
00100000
00001000
00000100
,
00000010
00000000
00001000
00000000
00000000
00000100
00000000
00000000
00000010
00000000
00000000
00000001
00000000
00001000
00000000
00000001
,
00000100
00001000
00000100
00000001
00000100
00001000
00000100
00000001
,
00000100
00000010
00000110
00000000
00000000
00000000
00000000
00000000
,
00000000
00000001
00000000
00000000
,
00000000
00010000
00000000
00000000
,
00000000
00000000
00001000
00000000
00000000
00000000
00000000
10000000
,
10000000
00000000
00000000
00000000
,
01000000
00010000
00000100
00001000
,
00100000
00010000
00000010
00001000
,
01000000
00100000
00001000
00010000
,
01000000
10000000
00100000
00000000
,
00000000
00000000
10010000
00000000
00100000
10000000
01000000
00100000
,
00000000
00010000
00000000
00100000
01000000
00000000
00010000
00000000
,
00001000
00000000
00010000
00000100
00000000
00000010
00000000
00000001
,
00000100
00000010
00000100
00000000
00000000
00000000
00000000
00000000
,
00000001
00001000
00000100
01000000
00000000
00010000
00000000
20000000
,
00000000
00000000
30010000
00000000
,
10000000
00010000
01000000
00000100
00000000
00001000
00000000
00002001
,
00000000
00000000
00000100
00003000
,
00000001
00001000
00000010
00010000
00000000
00011000
00000000
00012000
,
00000000
00100000
00010000
00103000
,
00010000
00000000
10000000
01000000
00100000
00000000
00001000
00010000
,
00000010
00000100
00000001
00000010
00001000
00010000
00011000
00000000
;

//---------------dance-double - Telperion----------------
#NOTES:
     dance-double:
     Telperion:
     Easy:
     4:
     0.331,0.416,0.152,0.062,0.000:
00000000
00000000
00000000
00000000
,
00000000
00000000
00000000
00000000
,
00000000
00000000
00000000
00000000
,
00000000
00000000
00000000
00000000
,
00000000
00000000
00000000
00000000
,
00000000
00000000
00000000
00000000
,
00000000
00000000
00000000
00000000
,
00000000
00000000
00000000
00000000
,
00000000
00000000
00000000
00000000
,
10000000
01000000
00100000
00001000
,
00010000
00000000
00000000
00000000
,
00000001
00000100
00000010
00010000
,
00001000
00010000
00001000
00010000
,
00001000
10000000
01000000
00100000
,
00010000
01000000
00100000
01000000
,
00001000
00010000
00000100
00000010
,
00000001
00000100
00000010
00000000
,
00001000
00001000
00000001
00000001
,
00001000
00000100
00000010
00000000
,
00010000
00010000
00001000
00001000
,
02000000
00100000
03010000
00000000
,
10000000
01000000
10000000
00000000
,
00010000
01000000
00010000
00000000
,
00100000
00001000
00100000
00000010
,
00010000
00000000
00000010
00000000
00001000
00000000
00000010
00000100
,
00000000
00000000
00000000
00000000
00000100
00000001
00000000
00000001
,
00000010
00000000
00000000
00000000
00000100
00001000
00000000
00001000
,
00000010
00000000
00000000
00000000
00001000
00000100
00000000
00000100
,
00010000
00000000
00001000
00010000
,
00001000
10000000
01000000
00100000
,
00020000
10030000
20000000
30010000
,
01000000
00100000
01000000
00100000
,
10000000
00010000
10000000
00010000
,
01000000
00001000
00010000
00000010
,
00000100
00000110
00000000
00000000
,
00000000
00000001
00000010
00000100
,
00000000
00001001
00000000
00000000
00000000
00000000
00000110
00000000
,
00001000
00000100
00000000
00010000
,
00001000
00000000
01000000
00010000
,
10000000
01000000
10000000
01000000
,
00100000
00010000
00100000
01000000
,
10000000
00010000
00100000
00001000
,
00010000
00100000
10000000
00000000
,
00000000
00010000
01000000
00100000
,
00000000
10010000
00000000
00000000
01000000
00000000
01100000
00000000
,
00010000
10000000
01000000
00010000
,
00001000
00000100
00000010
00001000
,
00000100
00000000
00000000
00010000
00000000
00000000
00000000
00000000
,
00011000
00000000
00000000
00000000
,
01000000
00000000
00000000
00001000
00000000
00000000
00000000
00000000
,
00011000
00000000
00000000
00000000
,
00000100
00000000
00000000
00010000
00000000
00000000
00000000
00000000
,
00011000
00000000
00011000
00011000
,
00011000
00001000
01000000
00010000
,
00100000
00000000
01000000
00000000
10000000
00000000
00000000
00010000
,
00000000
00000000
10000000
00000000
01000000
00000000
00000000
00010000
,
00000000
00000000
00001000
00000000
00000100
00000000
00000000
00000001
,
00000000
00000000
00000010
00000000
00000100
00000000
00000000
00001000
,
00000000
00000000
00000001
00000000
00000100
00000000
00000000
00001001
,
00000000
00000001
00000100
00001000
,
00000100
00000001
00000100
00001000
,
00010000
01000000
10000000
01000000
,
00010000
01000000
10000000
01000000
,
00100000
00001000
00010000
00000010
,
00001000
00000001
00001000
00000000
00000000
00000000
00000000
00000000
,
00000000
00000001
00000000
00000000
,
00000000
00000001
00000000
00000000
00000000
00000000
00000001
00000000
,
00000000
00001000
00000000
00001000
00000000
00000000
00000000
00000001
,
00001000
00000000
00000000
00000000
,
00000002
00000000
00002003
00000000
,
00003200
00000000
00020300
00000000
,
00031000
00100000
00010000
00100000
,
01000000
10000000
01000000
00010000
,
00000000
11000000
00000000
00000000
,
00010000
10000000
01000000
00000000
,
10000000
00010000
00100000
00001000
,
00010000
00100000
00010000
00000000
,
00001000
00000000
00000000
00100000
00000000
00000000
00000000
00000000
,
00110000
00000000
00000000
00000000
,
00100000
00000000
00000000
00000010
00000000
00000000
00000000
00000000
,
00001010
00000000
00000000
00000000
,
00000010
00000000
00000000
00010000
00000000
00011000
00000000
00011000
,
00000000
00000000
00010000
00001000
,
00010000
00001000
01000000
00100000
,
01000000
00010000
00100000
01000000
;

//---------------dance-single - Telperion----------------
#NOTES:
     dance-single:
     Telperion:
     Hard:
     9:
     0.558,0.682,0.419,0.027,0.054:
0000
0000
0000
0000
,
0000
0000
0000
0000
,
0000
0000
0000
0000
,
0000
0000
0000
0000
,
0000
0000
0000
0000
,
0000
0000
0000
0000
,
0000
0000
0000
0000
,
0000
0000
0000
0000
,
0000
0000
0000
0000
,
1000
0100
0001
0010
0000
0001
0000
0100
,
0000
0000
0000
0000
,
0001
0100
1000
0010
0000
1000
0000
0100
,
0000
0000
0000
0000
,
0010
1000
0100
0001
0000
0100
0000
1000
,
0000
0001
0100
0010
0000
1000
0100
0010
,
0001
0100
0001
0000
1000
0010
1000
0000
,
0001
0010
0001
0100
0010
0100
0001
1000
,
0100
0000
0010
0000
0100
0000
0010
0001
,
0101
0000
0010
0000
0100
0000
0010
1000
,
1100
0000
0010
0000
0100
0000
0010
0001
,
0000
0101
0000
0100
0010
0000
0001
0000
,
1000
0000
0100
1000
0100
0010
1000
0100
,
1000
0000
0001
0010
0100
0010
0001
0100
,
0010
1100
1001
0101
,
0110
0000
0000
0000
1000
0001
0100
1000
,
0000
0000
0000
0100
0001
0010
0000
0011
,
0000
0000
0000
0001
1000
0010
0100
1000
,
0000
0000
0000
1000
0100
0001
0000
0101
,
0000
0000
0000
0000
0001
0000
0001
1000
,
0000
0100
0000
0010
0000
0001
0000
0010
,
0000
1000
0000
0010
0000
0001
0000
0100
,
0010
0010
0100
0100
,
1000
0100
1000
0000
0100
0001
0100
0000
,
0001
0010
0100
0010
0001
1000
0100
0010
,
0001
0010
0011
0000
0000
0000
0000
0000
,
0000
0000
1001
0000
1000
0100
0010
0001
,
0000
0101
0000
0010
1000
0010
0100
0001
,
0010
0000
0001
0000
1000
0000
0100
0000
0010
0000
0001
0000
1000
0000
0100
1000
,
0100
0000
0011
0101
,
0011
0000
0010
0001
0000
0010
0000
0100
,
1000
0010
1000
0010
0100
0000
1001
0000
,
0110
0000
0001
1000
0001
0010
0100
0000
,
1000
0001
1000
0010
0001
0000
0000
0000
,
0000
0000
1001
0000
1000
0100
0010
0001
,
0000
0101
0000
0010
1000
0100
1000
0001
,
0100
0000
0000
0000
0001
0000
0000
0000
1000
0000
0000
0000
0100
0000
0010
0100
,
0010
1000
0010
0001
,
0100
0010
0100
0001
0000
1010
0000
0011
,
0000
0000
0000
0000
,
0001
0100
1000
0010
0000
0011
0000
1100
,
0000
0000
0000
0000
,
0001
1000
0100
1000
0000
0100
0000
0001
,
1000
0000
0001
0100
1000
0000
0100
1000
,
0010
0000
0100
0010
1000
0000
0010
0100
,
0010
1000
0100
1000
0010
0100
0000
0101
,
0000
0001
0010
0100
0001
0100
0000
0110
,
0000
1000
0010
0100
1000
0100
0000
1001
,
0000
0000
0001
0000
1000
0000
0000
0100
0000
1000
0000
0010
0100
0000
0001
0000
,
0000
1000
0010
1000
0100
0010
0000
1001
,
0000
0010
0100
0001
1000
0100
0100
0010
,
1000
0010
0010
0001
1000
0001
0100
0010
,
1000
0001
0010
0001
1000
0100
1000
0100
,
0001
0000
0100
0000
1000
0100
0000
0010
0001
0000
0100
0010
0000
1000
0000
0100
,
0010
0001
1000
0010
1000
0001
0010
0001
,
1001
1010
1001
0000
0000
0000
0000
0000
,
0000
2000
0000
0000
,
0000
0002
0000
0000
,
3000
0020
0000
0003
,
0130
0000
0000
0000
,
0011
0001
1010
1000
,
0101
0001
1100
0101
,
0011
0100
0001
0010
0100
1000
0100
1000
,
0010
0001
0010
1000
0010
0001
0010
1000
,
0000
0000
1001
0000
0100
0010
0001
0100
,
0000
0110
0000
0010
1000
0100
0010
0000
,
1000
0000
0100
0000
1000
0000
0100
0000
0010
0000
0100
0000
0010
0000
0001
1000
,
0001
0000
1000
0000
,
1100
0010
0001
0101
0000
1000
0000
1100
,
0000
0000
0000
0000
,
0101
0010
1000
1100
0000
0101
0000
0101
,
0000
0000
0000
0000
,
1000
0100
0001
0010
0000
1100
0000
0001
,
0101
0000
0001
0010
0100
0010
0001
1000
,
0100
0010
1000
0001
0010
0100
0001
1000
,
0100
0000
1000
0000
0001
0000
0100
0000
0001
0000
1000
0000
0001
1000
0001
0000
;

//---------------dance-single - Telperion----------------
#NOTES:
     dance-single:
     Telperion:
     Medium:
     6:
     0.445,0.605,0.187,0.214,0.000:
0000
0000
0000
0000
,
0000
0000
0000
0000
,
0000
0000
0000
0000
,
0000
0000
0000
0000
,
0000
0000
0000
0000
,
0000
0000
0000
0000
,
0000
0000
0000
0000
,
0000
0000
0000
0000
,
0000
0000
0000
0000
,
1000
0000
0100
1000
0000
0001
0000
0200
,
0000
0000
0300
0000
,
0001
0000
0100
0001
0000
1000
0000
0200
,
0000
0000
0300
0000
,
0010
0000
0001
1000
0000
0010
0000
2000
,
0000
0000
0001
3001
0000
0001
0000
0001
,
1000
0100
1000
0000
0001
0010
0001
0000
,
1000
0100
0010
0001
0100
0010
0100
0000
,
0001
1000
0100
0010
,
0001
0100
1000
0100
,
0010
1000
0010
1000
,
0100
0001
0100
0010
,
0001
0000
0100
0010
0100
0000
0001
0000
,
1000
0000
0100
0010
0100
0000
1000
0000
,
0001
0100
0001
0000
1000
0100
1000
0000
,
0001
0100
0001
1000
0100
0000
0000
1001
,
0000
0000
0000
0000
0011
0000
0000
0101
,
0000
0000
0000
0000
1010
0000
0000
0011
,
0000
0000
0000
0000
0110
0000
0000
1001
,
0000
0000
0000
0000
1100
0000
0000
0012
,
0000
0100
0023
0100
,
0032
1000
1003
0000
,
1000
0001
1000
0001
,
1000
0001
1000
0000
0001
1000
0001
0000
,
1000
0001
0010
0100
1000
0010
0100
1000
,
0100
0010
0110
0000
0000
0000
0000
0000
,
0000
0000
1000
0000
0100
0000
0001
0010
,
0100
0000
1000
0000
0010
0000
0001
1000
,
0100
0010
0000
0001
0000
0100
0000
0010
,
0000
1000
0000
0100
1000
0100
1000
0100
,
0010
0000
0001
0000
0100
0001
0000
0000
,
0010
0000
0100
0000
1000
0010
1000
0000
,
0100
1000
0100
0001
,
0100
0010
0110
0000
,
0000
0000
0001
0000
0100
0000
1000
0010
,
0100
0001
0000
0001
1000
0000
1000
0000
,
0100
0010
0001
0100
,
1000
0010
0100
0001
,
2000
0000
0000
3002
0000
1000
0000
0020
,
0000
0000
0033
0000
,
0200
0000
0000
0320
0000
0001
0000
2000
,
0000
0000
3030
0000
,
0002
0000
0000
0203
0000
1000
0000
0010
,
0000
0010
0010
0310
,
0100
0010
0100
0000
0001
0100
0001
0000
,
1000
0100
1000
0100
0010
0000
0000
0110
,
0000
0000
0001
0000
0100
0000
0000
0011
,
0000
0000
1000
0000
0001
0000
0000
1100
,
0000
0000
0010
0000
0100
0000
0000
1010
,
0000
0000
0001
0000
1000
0001
1000
1001
,
0000
0000
0001
0100
0001
0100
0001
0100
,
0010
0100
0010
0100
0010
1000
0010
0000
,
1000
0100
1000
0100
0010
0100
0010
0100
,
0010
0001
0010
0001
0100
0010
0100
0010
,
1000
0100
0010
0001
0100
0010
1000
0001
,
1001
1001
2002
0000
3003
0000
0000
0000
,
0000
1000
0000
0000
,
0000
0001
0000
0000
,
0000
0100
0000
0000
,
0010
0000
0000
0000
,
0100
0010
1000
0100
,
0010
0001
0100
0010
,
1000
0100
0001
0100
,
1000
0010
0001
0100
,
0000
0000
1001
0000
0100
0000
0010
0001
,
0100
0010
0000
0010
1000
0000
0001
0000
,
1000
0100
0001
0010
,
0100
0001
1000
0010
,
0200
0000
0000
0302
0000
1000
0000
0020
,
0000
0000
0033
0000
,
2000
0000
0000
3020
0000
0001
0000
2000
,
0000
0000
3030
0000
,
0002
0000
0000
0203
0000
1000
0000
0010
,
0000
0010
0010
0310
,
1000
0100
0010
0000
0001
0100
0010
0000
,
1000
0100
0001
0100
1000
0001
1001
0000
;

//---------------dance-single - Telperion----------------
#NOTES:
     dance-single:
     Telperion:
     Easy:
     4:
     0.320,0.454,0.196,0.107,0.000:
0000
0000
0000
0000
,
0000
0000
0000
0000
,
0000
0000
0000
0000
,
0000
0000
0000
0000
,
0000
0000
0000
0000
,
0000
0000
0000
0000
,
0000
0000
0000
0000
,
0000
0000
0000
0000
,
0000
0000
0000
0000
,
1000
0000
0000
0001
0000
1000
0000
0001
,
0000
0000
0000
0000
,
0100
0000
0000
0010
0000
0100
0000
0010
,
0000
0000
0000
0000
,
1000
0000
0000
0100
0000
1000
0000
0001
,
0000
0000
0000
0000
,
1000
1000
0001
0001
,
0100
0010
0110
0000
,
0001
1000
0100
0010
,
0001
0100
1000
0010
,
0001
0100
0010
1000
,
0100
0001
0010
0000
,
1000
0100
0010
0001
,
0100
0010
0100
0001
,
1000
0001
0001
0010
,
0010
0000
0100
0000
1001
0000
0000
1100
,
0000
0000
0000
0000
0001
0000
0000
0101
,
0000
0000
0000
0000
0010
0000
0000
0110
,
0000
0000
0000
0000
1000
0000
0000
0110
,
0000
0000
0001
0100
,
0010
0100
0010
0100
,
0001
0100
0001
0000
,
0010
0001
0010
0001
,
1000
0100
1000
0000
,
0010
0100
0001
1000
,
0001
1000
0001
0000
0000
0000
0000
0000
,
0000
1000
0100
0010
,
0000
0100
0000
0000
0010
0000
0001
0000
,
0000
0100
0010
1000
,
0010
0100
0001
0001
,
1000
0000
0100
0000
0000
0100
0000
0000
,
0001
0100
0010
0000
,
0001
0000
0100
0000
0000
0100
0000
0000
,
1000
0100
0110
0000
,
0000
1001
0100
0010
,
0001
0100
0010
0100
,
0110
0001
1000
0100
,
1000
0001
0100
0001
,
0011
0000
0000
1000
0000
0001
0000
1000
,
0000
0000
0000
0000
,
1010
0000
0000
0001
0000
1000
0000
0100
,
0000
0000
0000
0000
,
0110
0000
0000
0001
0000
0100
0000
0010
,
0000
1000
0100
0001
,
0010
0001
0100
1000
,
0010
0000
0100
0000
1000
0000
0000
0022
,
0000
0000
0000
0000
0033
0000
0000
2020
,
0000
0000
0000
0000
3030
0000
0000
0202
,
0000
0000
0000
0000
0303
0000
0000
0220
,
0000
0000
0000
0000
0330
0000
0000
2002
,
0000
0000
0000
0000
,
0000
0000
3003
0000
,
0001
1000
0001
1000
,
0001
1000
0001
1000
,
0001
1000
0001
1000
0001
1000
0001
1000
,
0001
1001
0000
0000
,
0000
0220
0000
0000
,
0000
0000
0000
0000
,
0000
0330
0000
0000
,
1001
0000
0000
0000
,
1000
0100
0001
0100
,
1000
0010
0001
0010
,
0100
1000
0100
0001
,
0010
1000
0110
0000
,
0000
1000
0100
0010
,
0000
0100
0000
0000
1000
0000
0001
0000
,
0010
0001
0100
0001
,
1000
0001
0010
0000
,
0100
0000
0000
1000
0000
0001
0000
0100
,
0000
0000
0000
0000
,
0100
0000
0000
0001
0000
1000
0000
0010
,
0000
0000
0000
0000
,
0100
0000
0000
1000
0000
0100
0000
0001
,
0000
0010
0100
1000
,
0001
0100
0010
0001
,
1000
0010
0100
1001
;

//---------------dance-single - Telperion----------------
#NOTES:
     dance-single:
     Telperion:
     Beginner:
     2:
     0.134,0.226,0.232,0.062,0.000:
0000
0000
0000
0000
,
0000
0000
0000
0000
,
0000
0000
0000
0000
,
0000
0000
0000
0000
,
0000
0000
0000
0000
,
0000
0000
0000
0000
,
0000
0000
0000
0000
,
0000
0000
0000
0000
,
0000
0000
0000
0000
,
1000
0000
0000
0000
,
0000
0000
0000
0000
,
0001
0000
0000
0000
,
0000
0000
0000
0000
,
1000
0000
0000
0000
,
0001
0000
0000
0000
,
1000
0000
0000
0000
,
0001
0000
0000
0000
,
1001
0000
0000
0000
,
0000
0000
0000
0000
,
1001
0000
0000
0000
,
0000
0000
0000
0000
,
1001
0000
0000
0000
,
1001
0000
0000
0000
,
1001
0000
0000
0000
,
1001
0000
0000
0000
,
0110
0000
0000
0000
,
1001
0000
0000
0000
,
0110
0000
0000
0000
,
1001
0000
0000
0000
,
2000
0000
3000
0000
,
0002
0000
0003
0000
,
2000
0000
3000
0000
,
0002
0000
0003
0000
,
0100
0000
0010
0000
,
0100
0000
0000
0000
,
0000
0001
0000
0000
,
0000
0000
0000
0000
,
0000
1000
0000
0000
,
1000
0000
0000
0000
,
0001
0000
1000
0000
,
0001
0000
1000
0000
,
0010
0000
0100
0000
,
0010
0000
0100
0000
,
0000
0001
0000
0000
,
0000
0000
0000
0000
,
1000
0000
0000
0000
,
1000
0000
0000
0000
,
0200
0000
0000
0300
0000
0000
0000
0000
,
0000
0000
0000
0000
,
0020
0000
0000
0030
0000
0000
0000
0000
,
0000
0000
0000
0000
,
0200
0000
0000
0300
0000
0000
0000
0000
,
0000
0000
0000
0000
,
0010
0000
0100
0000
,
0010
0000
0000
0000
0000
0000
0000
1000
,
0000
0000
0000
0000
0000
0000
0000
0001
,
0000
0000
0000
0000
0000
0000
0000
1000
,
0000
0000
0000
0000
0000
0000
0000
0001
,
0000
0000
0000
0000
0000
0000
0000
1001
,
0000
0000
0000
0000
,
0000
0000
0000
0000
,
1001
0000
0000
0000
,
0000
0000
0000
0000
,
1000
0000
0001
0000
,
1000
0001
0000
0000
,
0000
0110
0000
0000
,
0000
0000
0000
0000
,
0000
0000
0000
0000
,
0000
0000
0000
0000
,
1001
0000
0000
0000
,
1001
0000
0000
0000
,
1001
0000
1001
0000
,
1001
0000
0000
0000
,
0000
0010
0000
0000
,
0100
0000
0000
0000
,
0001
0000
1000
0000
,
0001
0000
0000
0000
,
1001
0000
0000
0000
,
0000
0000
0000
0000
,
0110
0000
0000
0000
,
0000
0000
0000
0000
,
1001
0000
0000
0000
,
0000
0000
0000
0000
,
0110
0000
0110
0000
,
0110
0110
0110
0000
;
