#TITLE:HERO (2008 X-edit);
#SUBTITLE:;
#ARTIST:PAPAYA;
#TITLETRANSLIT:;
#SUBTITLETRANSLIT:;
#ARTISTTRANSLIT:;
#GENRE:;
#CREDIT:;
#BANNER:HERO (2008 X-edit).png;
#BACKGROUND:HERO (2008 X-edit)-bg.png;
#LYRICSPATH:;
#CDTITLE:./CDTITLES/DanceDanceRevolution X.png;
#MUSIC:HERO (2008 X-edit).mp3;
#OFFSET:1.688;
#SAMPLESTART:73.520;
#SAMPLELENGTH:13.920;
#SELECTABLE:YES;
#BPMS:0.000=138.000;
#STOPS:;
#BGCHANGES:;
#KEYSOUNDS:;

//---------------dance-single - PanStyle----------------
#NOTES:
     dance-single:
     PanStyle:
     Hard:
     8:
     0.615,0.571,0.308,0.586,0.206,332.000,30.000,57.000,19.000,0.000,0.000,0.615,0.571,0.308,0.586,0.206,332.000,30.000,57.000,19.000,0.000,0.000:
0000
0000
0000
0000
,
0001
0000
1000
0001
0000
1000
0010
0000
0100
0000
0001
0000
0100
0000
0000
0000
,
0000
1000
0100
0010
0002
0000
0023
0000
,
0000
0031
0010
0100
1000
0000
1100
0000
,
0000
0100
0010
0001
2000
0000
3010
0000
,
1010
0000
0000
0000
0101
0000
0000
0000
1001
0000
0001
0000
1000
0001
1000
0000
,
1001
0001
0010
0100
1000
0000
1001
0000
,
1000
0000
0000
0000
1000
0000
1000
0001
0000
0001
1000
0000
0000
0000
0001
0000
,
0100
0010
1000
0100
0020
0000
0000
0130
,
1000
0010
0100
1000
0200
0000
0301
0000
,
0000
0000
0M01
0000
0000
0000
10M0
0000
0001
0000
0M00
0000
0000
0000
M001
0010
,
0001
0010
0100
0020
0031
0010
0100
1000
,
0000
10M0
0000
0M01
1000
00M0
0000
100M
,
0100
0010
0100
0001
0200
0000
0310
0000
,
0002
2003
3200
0300
,
0020
0000
0000
0000
0000
0000
0000
0000
0031
0000
0000
0000
1000
0000
0000
0000
0001
0000
0000
0000
0000
0000
0001
1000
0001
0000
0000
0000
0000
0000
0000
0000
,
1001
0000
0001
1000
0001
0000
1000
0000
0010
0000
0100
0000
0020
0000
0000
0000
,
2030
0000
3200
0000
0302
0103
1000
0010
,
0000
1000
0010
0001
1000
0100
0010
0000
,
2000
0000
3200
0000
0320
0031
0100
0010
,
0000
0000
1000
0010
1000
0000
0100
0000
0010
0000
0100
0000
1000
0000
0010
0000
,
0002
0000
0023
0000
0230
0000
0302
2000
,
0000
0000
0000
0000
0000
0000
0000
0000
0000
0000
0000
0000
0003
0000
0000
0000
3000
0000
0000
0000
0000
0000
0000
0000
0000
0000
0000
0000
0000
0000
1000
0001
,
1000
0000
0001
1000
0000
0001
1000
0000
0001
0000
1000
0000
0100
0000
0010
0000
,
0011
0000
0101
0000
1010
0000
1000
0020
,
0000
0230
0301
0010
0100
1000
0100
1000
,
0200
0300
0100
0020
0030
0010
0001
0010
,
0100
1000
0001
1000
0000
0001
0010
0100
,
1000
0000
1100
0000
0011
0000
0001
1000
,
0000
2002
0000
3003
0000
0001
0100
0010
,
1000
0100
0010
0200
0000
0310
0100
1000
,
0010
0000
0000
0000
0000
0000
0000
0000
1010
0000
0000
0000
0000
0000
0000
0000
0101
0000
0000
0000
0000
0000
0001
0100
0001
0000
0000
0000
0000
0000
0000
0000
,
MMMM
0000
000M
0M00
M000
00M0
0M00
000M
,
M000
0001
0100
0010
2000
0000
0002
3000
,
0000
0000
0000
0000
0000
0000
0000
0000
0003
0000
0000
0000
0000
0000
1000
0001
1000
0000
0000
0000
0001
0000
0010
0000
0000
0000
0010
0000
0100
0000
0000
0000
,
0110
0000
0100
0000
2200
0000
3300
0000
1000
0000
0001
1000
0000
1000
0100
0000
,
0020
0000
0000
0000
0031
0000
0100
0000
0010
0000
0100
0010
0000
0010
1000
0000
,
0200
0000
0000
0000
0310
0000
0001
0000
0010
0000
0001
0010
0000
0010
1000
0000
,
0010
0000
0001
0000
0100
0000
0010
0000
0001
0000
0001
0010
0000
0010
0100
0000
,
0001
0000
0000
0000
0000
0000
0001
0100
0001
0000
0000
0000
0100
0000
0000
0000
0010
0000
0000
0000
0010
0000
1000
0000
0000
0000
1000
0000
0001
0000
0000
0000
,
1001
0000
0000
0000
1000
0000
0100
0000
0010
0000
0001
0010
0000
0010
0100
0000
,
2000
0000
0000
0000
3100
0000
1000
0000
0001
0000
1000
0010
0000
0010
0100
0000
,
0002
0000
0000
0000
0013
0000
0100
0000
1000
0000
0100
1000
0000
1000
0001
0000
,
1001
1000
0100
0010
0011
0000
0101
0000
,
1010
0000
1000
0002
0000
2003
3001
0010
,
0100
0010
0001
0010
2000
0000
3010
0200
,
0000
0310
0001
1000
0010
0001
0010
1000
,
0000
0100
0010
0001
0011
0000
1001
0000
,
1010
0000
1000
0020
0000
2000
0030
0000
,
3000
0100
0010
0001
0010
1000
0010
0001
,
0000
0001
0100
0010
0110
0000
1010
0000
,
0101
0000
0000
0000
0000
0000
0001
0100
0001
0000
0000
0000
0000
0000
0000
0000
1001
0000
0000
0000
0002
0000
0000
0000
0203
0000
0000
0000
0320
0000
0000
0000
,
2030
0000
3200
0000
0000
1300
0010
0001
,
0020
0000
1030
0000
0000
0002
0023
0230
,
0320
0000
0032
0003
2002
0000
0000
0000
,
0000
0000
3003
0000
;

//---------------dance-single - PanStyle----------------
#NOTES:
     dance-single:
     PanStyle:
     Medium:
     6:
     0.469,0.452,0.021,0.637,0.041,255.000,2.000,62.000,0.000,0.000,0.000,0.469,0.452,0.021,0.637,0.041,255.000,2.000,62.000,0.000,0.000,0.000:
0000
0000
0000
0000
,
0000
0000
0000
0000
,
0000
0001
0100
0010
1000
0000
0002
0003
,
0000
1000
0001
0100
0010
0000
0200
0300
,
0000
0001
1000
0100
0010
0000
0002
0003
,
2000
3000
0002
0003
2000
0000
3000
0000
,
0000
0001
0100
0010
0100
0000
0002
0000
,
0003
0000
0000
0000
0000
1000
0000
0001
,
0100
0010
1000
0100
0020
0030
0000
0010
,
0100
1000
0001
0100
0010
0000
2000
3000
,
0000
0001
0000
0100
0002
0003
0000
1000
,
0100
0010
0001
1000
0200
0000
0300
0000
,
0000
1000
0000
0001
0200
0300
0000
0010
,
1000
0001
0100
0010
2000
0000
3001
0000
,
0002
0003
0200
0300
0020
0030
0000
0000
,
0200
0300
0001
0100
0002
0000
1003
0000
,
0000
1000
0100
0010
0100
1000
0001
0000
,
0200
0300
0020
0030
2000
0000
3000
0000
,
0000
0100
0010
0001
1000
0001
0100
0000
,
0020
0030
2000
3000
0002
0000
0003
0000
,
0000
1000
0001
0100
0010
0100
0001
0000
,
2000
3000
0200
0300
0020
0030
0002
0020
,
0000
0000
0000
0000
0003
0030
0002
2000
,
0000
0000
0003
3000
0000
0001
0100
0010
,
1000
0000
0100
0000
0010
0000
0001
1000
,
0000
0020
0000
0030
0000
1000
0001
1000
,
0100
0000
0100
0010
0000
0010
0001
0100
,
0001
1000
0010
0100
0000
0100
0010
1000
,
0200
0300
0020
0030
0002
0003
1000
0001
,
0000
0200
0000
0300
0000
0010
1000
0001
,
1000
0100
0010
0001
0000
0100
0010
0100
,
0002
0003
2000
3000
0002
0000
0003
0000
,
0000
0000
0000
0000
,
0000
0001
0100
0010
2000
0000
3002
0000
,
0000
0000
0003
0000
0000
1001
0001
1000
,
0200
0000
0300
0000
0020
0000
0030
0000
0001
0000
0000
1000
0000
0000
0100
0000
,
0010
0000
0000
0000
0001
0000
0010
0000
0100
0000
0000
1000
0000
0000
0001
0000
,
1000
0000
0000
0000
0001
0000
1000
0000
0010
0000
0000
0100
0000
0000
0001
0000
,
1000
0000
0000
0000
0010
0000
0100
0000
0001
0000
0000
0001
0000
0000
0001
0000
,
0001
0000
0000
0000
1000
0000
0100
0000
0010
0000
0000
0100
0000
0000
1000
0000
,
0001
0000
0000
0000
0100
0000
0010
0000
0100
0000
0000
0001
0000
0000
0010
0000
,
0100
0000
0000
0000
1000
0000
0001
0000
0100
0000
0000
0010
0000
0000
0100
0000
,
0001
0000
0000
0000
0100
0000
0010
0000
1000
0000
0000
1000
0000
0000
1000
0000
,
1000
0001
1000
0010
0200
0300
0002
0003
,
2000
3000
0100
0010
0000
0002
0000
0003
,
0000
1000
0100
0010
0001
0000
0100
0010
,
0000
0100
0010
1000
0001
0010
0100
1000
,
0000
0001
0100
0010
2000
3000
0002
0003
,
0200
0300
0010
1000
0000
0002
0000
0003
,
0000
1000
0001
0010
0100
1000
0010
0100
,
0000
0100
0010
1000
0200
0300
0020
0030
,
0002
0000
0003
0000
0000
1000
0001
1000
,
0020
0030
0200
0300
0000
0001
1000
0100
,
0020
0030
0002
0000
0003
1000
0001
0100
,
0020
0030
2000
3000
2002
0000
0000
0000
,
3003
0000
0000
0000
;

//---------------dance-single - PanStyle----------------
#NOTES:
     dance-single:
     PanStyle:
     Easy:
     3:
     0.257,0.225,0.010,0.021,0.000,172.000,1.000,2.000,0.000,0.000,0.000,0.257,0.225,0.010,0.021,0.000,172.000,1.000,2.000,0.000,0.000,0.000: // measure 1
0000
0000
0000
0000
,  // measure 2
0000
0000
0000
0000
,  // measure 3
0001
0100
0001
1000
,  // measure 4
0000
0001
1000
0001
,  // measure 5
1000
0001
0100
0010
,  // measure 6
1000
0001
1000
0000
,  // measure 7
0001
0100
0001
1000
,  // measure 8
0001
0001
0001
0000
,  // measure 9
0001
0100
0010
0000
,  // measure 10
0010
0100
0001
1000
,  // measure 11
0001
1000
0001
0100
,  // measure 12
0010
1000
0001
0000
,  // measure 13
0000
0001
0100
0010
,  // measure 14
0010
0100
0001
1000
,  // measure 15
0001
1000
0001
0000
,  // measure 16
0001
1000
0010
0100
,  // measure 17
0000
0001
1000
0100
,  // measure 18
0010
0001
0100
0000
,  // measure 19
0000
0001
0100
0010
,  // measure 20
1000
0001
1000
0000
,  // measure 21
0000
0001
0100
0001
,  // measure 22
1000
0001
0100
0010
,  // measure 23
1000
0000
0000
0000
,  // measure 24
0001
0000
0000
0000
,  // measure 25
1000
0001
0100
0010
,  // measure 26
1000
0001
0000
1000
,  // measure 27
0100
0010
0001
1000
,  // measure 28
0001
0010
0100
1000
,  // measure 29
0001
1000
0001
0100
,  // measure 30
0010
1000
0000
0001
,  // measure 31
0100
0010
1000
0001
,  // measure 32
1000
0100
0010
0000
,  // measure 33
0001
0000
0000
0000
,  // measure 34
0000
0000
0000
0000
,  // measure 35
0000
0000
0000
0000
,  // measure 36
0000
0000
1000
0001
,  // measure 37
0100
0010
1000
0001
,  // measure 38
0010
0100
1000
0100
,  // measure 39
0010
0001
0100
0010
,  // measure 40
1000
1000
0100
0010
,  // measure 41
0001
0001
0100
0010
,  // measure 42
1000
1000
0100
0010
,  // measure 43
0100
1000
1000
0001
,  // measure 44
0100
0010
1000
0001
,  // measure 45
0100
0010
1000
0001
,  // measure 46
0000
1000
0100
0010
,  // measure 47
0001
1000
0001
0010
,  // measure 48
0100
0000
0001
1000
,  // measure 49
0001
0100
0010
0100
,  // measure 50
0000
1000
0001
0010
,  // measure 51
0100
1000
0001
1000
,  // measure 52
0001
0000
0001
0100
,  // measure 53
0010
1000
0001
1000
,  // measure 54
0001
0100
0000
0001
,  // measure 55
1000
0100
2002
3003
;

//---------------dance-single - PanStyle----------------
#NOTES:
     dance-single:
     PanStyle:
     Beginner:
     1:
     0.150,0.140,0.010,0.000,0.000,101.000,1.000,0.000,0.000,0.000,0.000,0.150,0.140,0.010,0.000,0.000,101.000,1.000,0.000,0.000,0.000,0.000:
0000
0000
0000
0000
,
0000
0000
0000
0000
,
1000
0000
0001
0000
,
0001
0000
0100
0000
,
0010
0000
0010
0000
,
1000
1000
1000
0000
,
0001
0000
1000
0000
,
0001
0000
0000
0000
,
1000
0000
0001
0000
,
0001
0000
0100
0000
,
0100
0000
0010
0000
,
0010
0000
0100
0000
,
0100
0000
0001
0000
,
0001
0000
1000
0000
,
0100
0000
0010
0000
,
0001
0000
1000
0000
,
0000
0000
0001
0000
,
0100
0000
0010
0000
,
0000
0000
1000
0000
,
0001
0000
0100
0000
,
0000
0000
0001
0000
,
1000
0000
0001
0000
,
1000
0000
0000
0000
,
0001
0000
0000
0000
,
1000
1000
1000
0000
,
0001
0000
0100
0000
,
0010
0000
0100
0000
,
0001
0000
0010
0000
,
0100
0100
0100
0000
,
1000
0000
0001
0000
,
0001
0000
0100
0000
,
0010
0010
0010
0000
,
1000
0000
0000
0000
,
0000
0000
0000
0000
,
0000
0000
0000
0000
,
0000
0000
0001
0000
,
0100
0000
0010
0000
,
1000
0000
0001
0000
,
1000
0000
0001
0000
,
0001
0000
0100
0000
,
0010
0000
0100
0000
,
0001
0000
0100
0000
,
0010
0000
0100
0000
,
0100
0000
0001
0001
,
0001
0000
1000
0000
,
0100
0000
1000
0000
,
0001
0000
0100
0000
,
0001
0000
1000
1000
,
1000
0000
0001
0000
,
0010
0000
0100
0000
,
0010
0000
0001
0001
,
0001
0000
0100
0000
,
0010
0000
0100
0000
,
0010
0000
1000
0000
,
0001
0000
1001
0000
;
